osu file format v12

[General]
AudioFilename: Ghost.mp3
AudioLeadIn: 1500
PreviewTime: 38849
Countdown: 1
SampleSet: Normal
StackLeniency: 0.7
Mode: 3
LetterboxInBreaks: 1

[Editor]
DistanceSpacing: 1
BeatDivisor: 2
GridSize: 8

[Metadata]
Title:Ghost
TitleUnicode:유령
Artist:STi
ArtistUnicode:STi
Creator:MoonFragrance
Version:Osu! Mania Normal
Source:DJMAX
Tags:TECHNIKA 3 Tari
BeatmapID:261007
BeatmapSetID:97685

[Difficulty]
HPDrainRate:5
CircleSize:4
OverallDifficulty:7
ApproachRate:7
SliderMultiplier:1.8
SliderTickRate:1

[Events]
//Background and Video events
0,0,"DMT3_Ghost.jpg",0,0
Video,-753,"Ghost.avi"
//Break Periods
//Storyboard Layer 0 (Background)
//Storyboard Layer 1 (Fail)
//Storyboard Layer 2 (Pass)
//Storyboard Layer 3 (Foreground)
//Storyboard Sound Samples
//Background Colour Transformations
3,100,163,162,255

[TimingPoints]
1409,480,4,3,2,65,1,0
7409,-100,4,1,1,50,0,0
9089,-100,4,2,2,65,0,0
24449,-100,4,2,1,100,0,0
39809,-100,4,2,2,80,0,0
55169,-100,4,2,2,65,0,0
78209,-100,4,2,1,100,0,0
93569,-100,4,3,2,100,0,0
108929,-100,4,2,1,65,0,0
114929,-100,4,1,1,50,0,0

[HitObjects]
64,192,1409,1,2,0:0:0:0:
320,192,1889,1,10,0:0:0:0:
64,192,2369,1,2,0:0:0:0:
320,192,2849,1,10,0:0:0:0:
192,192,3329,1,2,0:0:0:0:
320,192,3809,1,10,0:0:0:0:
192,192,4289,1,2,0:0:0:0:
320,192,4769,1,10,0:0:0:0:
192,192,5249,1,2,0:0:0:0:
448,192,5729,1,10,0:0:0:0:
192,192,6209,1,2,0:0:0:0:
448,192,6689,1,10,0:0:0:0:
320,192,7409,1,0,0:0:0:0:
320,192,7649,1,0,0:0:0:0:
320,192,7889,1,0,0:0:0:0:
320,192,8129,1,0,0:0:0:0:
64,192,9089,1,2,3:0:0:0:
448,192,10049,1,8,3:0:0:0:
64,192,11009,1,2,3:0:0:0:
448,192,11969,1,8,3:0:0:0:
320,192,12209,1,2,0:0:0:0:
320,192,12689,1,2,0:0:0:0:
64,192,12929,1,2,3:0:0:0:
448,192,13889,1,8,3:0:0:0:
64,192,14129,1,2,3:0:0:0:
320,192,15089,1,2,0:0:0:0:
192,192,15329,1,0,0:0:0:0:
320,192,15569,1,0,0:0:0:0:
192,192,15809,1,2,0:0:0:0:
64,192,16769,1,2,3:0:0:0:
448,192,17729,1,8,3:0:0:0:
64,192,18689,1,2,3:0:0:0:
448,192,19649,1,8,3:0:0:0:
320,192,20369,1,2,0:0:0:0:
64,192,20609,1,2,3:0:0:0:
448,192,21569,1,8,3:0:0:0:
320,192,22769,1,2,0:0:0:0:
320,192,23009,1,0,0:0:0:0:
192,192,23249,1,0,0:0:0:0:
192,192,23489,1,8,0:0:0:0:
64,192,23729,1,0,0:0:0:0:
192,192,23969,1,0,0:0:0:0:
320,192,24209,5,0,0:0:0:0:
480,192,24449,128,2,27329:2:0:0:0:
192,192,27809,1,0,2:0:0:0:
320,192,28289,1,2,0:0:0:0:
192,192,28769,1,0,2:0:0:0:
64,192,29009,1,2,0:0:0:0:
298,192,29489,1,0,2:0:0:0:
192,192,29969,1,0,0:0:0:0:
320,192,31169,1,2,0:0:0:0:
192,192,31649,1,0,0:0:0:0:
320,192,31889,1,0,2:0:0:0:
448,192,32129,128,2,35009:2:0:0:0:
192,192,35489,1,2,0:0:0:0:
320,192,35969,1,2,0:0:0:0:
64,192,36449,1,0,2:0:0:0:
320,192,36689,1,2,0:0:0:0:
128,192,37169,1,0,2:0:0:0:
384,192,37649,128,2,38609:2:0:0:0:
192,192,38849,128,8,39329:3:0:0:0:
320,192,39329,128,8,39809:3:0:0:0:
448,192,39809,1,2,0:0:0:0:
448,192,40529,1,2,0:0:0:0:
192,192,41009,1,2,0:0:0:0:
192,192,41489,1,2,0:0:0:0:
448,192,41729,1,2,0:0:0:0:
448,192,42449,1,2,0:0:0:0:
192,192,42929,1,0,0:0:0:0:
192,192,43409,1,0,0:0:0:0:
96,192,43649,1,2,0:0:0:0:
96,192,44369,1,2,0:0:0:0:
320,192,45089,1,2,0:0:0:0:
320,192,45809,1,2,0:0:0:0:
192,192,46049,1,0,0:0:0:0:
320,192,46289,1,0,0:0:0:0:
448,192,46529,1,2,0:0:0:0:
320,192,47969,1,2,0:0:0:0:
352,192,49169,1,2,0:0:0:0:
64,192,49649,1,2,0:0:0:0:
192,192,49889,1,0,0:0:0:0:
320,192,50129,1,0,0:0:0:0:
448,192,50369,1,2,0:0:0:0:
320,192,50729,1,0,0:0:0:0:
352,192,51809,1,2,0:0:0:0:
416,192,52529,1,2,0:0:0:0:
320,192,53249,1,2,0:0:0:0:
64,192,53489,1,0,0:0:0:0:
320,192,53609,1,2,0:0:0:0:
320,192,53849,1,0,0:0:0:0:
448,192,54209,1,2,0:0:0:0:
192,192,54449,1,0,0:0:0:0:
448,192,54569,1,2,0:0:0:0:
448,192,54929,1,2,0:0:0:0:
64,192,55169,1,0,0:0:0:0:
448,192,56369,1,2,0:0:0:0:
320,192,56849,1,0,0:0:0:0:
192,192,57329,1,0,0:0:0:0:
42,192,57809,1,0,0:0:0:0:
298,192,58289,1,0,0:0:0:0:
213,192,58769,1,2,0:0:0:0:
42,192,59009,1,0,0:0:0:0:
416,192,60209,1,2,0:0:0:0:
288,192,60689,1,0,0:0:0:0:
192,192,61169,1,2,0:0:0:0:
64,192,61649,1,0,0:0:0:0:
288,192,62129,1,2,0:0:0:0:
128,192,62609,1,2,0:0:0:0:
42,192,62849,1,0,0:0:0:0:
448,192,64049,1,2,0:0:0:0:
298,192,64529,1,0,0:0:0:0:
224,192,65009,1,0,0:0:0:0:
64,192,65489,1,0,0:0:0:0:
288,192,65969,1,2,0:0:0:0:
224,192,66449,1,0,0:0:0:0:
96,192,66689,1,0,0:0:0:0:
288,192,67649,1,2,0:0:0:0:
224,192,68609,1,0,0:0:0:0:
64,192,69809,1,2,0:0:0:0:
192,192,70049,1,0,0:0:0:0:
320,192,70289,1,2,0:0:0:0:
469,192,70529,1,2,0:0:0:0:
448,192,71009,1,0,0:0:0:0:
320,192,71249,1,2,0:0:0:0:
288,192,72449,1,2,0:0:0:0:
448,192,72929,1,0,0:0:0:0:
288,192,73169,1,2,0:0:0:0:
298,192,73649,1,2,0:0:0:0:
213,192,73889,1,0,0:0:0:0:
320,192,74129,1,0,0:0:0:0:
64,192,74369,1,2,0:0:0:0:
192,192,76049,1,0,0:0:0:0:
320,192,76289,1,2,0:0:0:0:
64,192,76769,1,0,0:0:0:0:
320,192,77009,1,2,0:0:0:0:
64,192,77489,1,2,3:0:0:0:
448,192,77489,1,2,0:0:0:0:
384,192,78209,1,2,2:0:0:0:
384,192,78929,1,2,2:0:0:0:
320,192,79769,1,2,0:0:0:0:
192,192,79889,1,2,0:0:0:0:
448,192,80129,1,2,0:0:0:0:
384,192,80849,1,2,2:0:0:0:
320,192,81689,1,2,0:0:0:0:
192,192,81809,1,2,0:0:0:0:
320,192,82049,1,2,2:0:0:0:
320,192,82769,1,2,2:0:0:0:
448,192,83489,1,10,0:0:0:0:
448,192,84449,1,2,0:0:0:0:
320,192,84689,1,0,0:0:0:0:
320,192,85169,1,2,0:0:0:0:
192,192,85409,1,0,0:0:0:0:
64,192,85649,1,2,0:0:0:0:
320,192,86369,1,2,2:0:0:0:
320,192,87569,1,2,2:0:0:0:
320,192,88289,1,2,0:0:0:0:
320,192,89489,1,2,0:0:0:0:
320,192,90209,1,2,2:0:0:0:
469,192,90929,1,2,2:0:0:0:
320,192,92129,1,2,0:0:0:0:
192,192,92369,1,0,0:0:0:0:
64,192,92849,1,2,0:0:0:0:
448,192,93329,1,2,0:0:0:0:
320,192,93569,1,2,2:0:0:0:
192,192,94049,1,8,0:0:0:0:
320,192,94289,1,2,2:0:0:0:
192,192,95009,1,8,0:0:0:0:
320,192,95129,1,2,2:0:0:0:
192,192,95249,1,2,2:0:0:0:
320,192,95489,1,2,2:0:0:0:
213,192,95969,1,8,0:0:0:0:
320,192,96209,1,2,2:0:0:0:
192,192,96929,1,8,0:0:0:0:
320,192,97049,1,2,2:0:0:0:
192,192,97169,1,2,2:0:0:0:
64,192,97409,1,2,2:0:0:0:
298,192,97889,1,8,0:0:0:0:
64,192,98129,1,2,2:0:0:0:
298,192,98849,1,8,0:0:0:0:
213,192,98849,1,2,2:0:0:0:
213,192,99809,1,2,2:0:0:0:
298,192,99809,1,8,0:0:0:0:
42,192,100049,1,0,2:0:0:0:
213,192,100529,1,2,2:0:0:0:
298,192,100769,1,8,0:0:0:0:
64,192,101009,1,2,2:0:0:0:
448,192,101729,1,2,2:0:0:0:
213,192,101729,1,8,0:0:0:0:
213,192,102689,1,8,0:0:0:0:
448,192,102929,1,2,2:0:0:0:
320,192,103649,1,2,2:0:0:0:
213,192,103649,1,8,0:0:0:0:
213,192,104609,1,8,0:0:0:0:
448,192,104849,1,2,2:0:0:0:
298,192,105569,1,2,2:0:0:0:
213,192,105569,1,8,0:0:0:0:
469,192,106289,1,2,2:0:0:0:
213,192,106529,1,8,0:0:0:0:
320,192,107249,1,2,2:0:0:0:
320,192,107489,1,2,2:0:0:0:
320,192,107729,1,2,2:0:0:0:
320,192,107969,1,2,2:0:0:0:
320,192,108209,1,2,2:0:0:0:
320,192,108449,1,2,2:0:0:0:
192,192,108569,1,0,0:0:0:0:
320,192,108689,1,2,2:0:0:0:
320,192,109169,1,2,0:0:0:0:
320,192,109649,1,2,0:0:0:0:
320,192,110129,1,2,0:0:0:0:
192,192,110609,1,0,0:0:0:0:
42,192,110849,1,0,0:0:0:0:
192,192,111089,1,2,0:0:0:0:
192,192,111569,1,2,0:0:0:0:
192,192,112049,1,2,0:0:0:0:
320,192,112529,1,0,0:0:0:0:
448,192,112769,1,0,0:0:0:0:
320,192,113009,1,2,0:0:0:0:
320,192,113489,1,2,0:0:0:0:
320,192,113969,1,2,0:0:0:0:
288,192,114929,1,0,0:0:0:0:
320,192,115169,1,0,0:0:0:0:
320,192,115409,1,0,0:0:0:0:
320,192,115649,128,0,116609:0:0:0:0:
