osu file format v12

[General]
AudioFilename: Ghost.mp3
AudioLeadIn: 1500
PreviewTime: 38849
Countdown: 1
SampleSet: None
StackLeniency: 0.7
Mode: 3
LetterboxInBreaks: 1

[Editor]
DistanceSpacing: 1
BeatDivisor: 4
GridSize: 16

[Metadata]
Title:Ghost
TitleUnicode:유령
Artist:STi
ArtistUnicode:STi
Creator:MoonFragrance
Version:Osu! Mania Maximum
Source:DJMAX
Tags:TECHNIKA 3 Tari
BeatmapID:261006
BeatmapSetID:97685

[Difficulty]
HPDrainRate:9
CircleSize:8
OverallDifficulty:7
ApproachRate:7
SliderMultiplier:1.8
SliderTickRate:1

[Events]
//Background and Video events
0,0,"DMT3_Ghost.jpg",0,0
Video,-753,"Ghost.avi"
//Break Periods
//Storyboard Layer 0 (Background)
//Storyboard Layer 1 (Fail)
//Storyboard Layer 2 (Pass)
//Storyboard Layer 3 (Foreground)
//Storyboard Sound Samples
//Background Colour Transformations
3,100,163,162,255

[TimingPoints]
1409,480,4,2,1,65,1,0
7409,-100,4,1,1,50,0,0
9089,-100,4,2,2,65,0,0
24449,-100,4,3,1,100,0,0
39809,-100,4,2,2,80,0,0
55169,-100,4,2,2,65,0,0
78209,-100,4,3,1,100,0,0
108929,-100,4,2,1,65,0,0
114929,-100,4,1,1,50,0,0

[HitObjects]
288,192,1409,1,0,0:0:0:0:
352,192,1649,1,2,0:0:0:0:
160,192,1889,1,0,0:0:0:0:
224,192,2129,1,0,0:0:0:0:
352,192,2369,1,2,0:0:0:0:
160,192,2609,1,0,0:0:0:0:
288,192,2849,1,0,0:0:0:0:
416,192,3089,1,2,0:0:0:0:
96,192,3329,1,0,0:0:0:0:
160,192,3569,1,0,0:0:0:0:
288,192,3809,1,2,0:0:0:0:
96,192,4049,1,0,0:0:0:0:
160,192,4289,1,0,0:0:0:0:
288,192,4529,1,2,0:0:0:0:
416,192,4769,1,0,0:0:0:0:
352,192,5009,1,2,0:0:0:0:
160,192,5249,1,0,0:0:0:0:
224,192,5489,1,0,0:0:0:0:
352,192,5729,1,2,0:0:0:0:
160,192,5969,1,0,0:0:0:0:
224,192,6209,1,0,0:0:0:0:
352,192,6449,1,2,0:0:0:0:
224,192,6689,1,0,0:0:0:0:
288,192,6929,1,2,0:0:0:0:
224,192,7409,1,0,0:0:0:0:
288,192,7409,1,0,0:0:0:0:
288,192,7649,1,0,0:0:0:0:
224,192,7649,1,0,0:0:0:0:
224,192,7889,1,0,0:0:0:0:
288,192,7889,1,0,0:0:0:0:
288,192,8129,128,0,9089:0:0:0:0:
224,192,8129,128,0,9089:0:0:0:0:
160,192,9089,1,0,0:0:0:0:
96,192,9209,1,0,0:0:0:0:
160,192,9329,1,0,0:0:0:0:
224,192,9449,1,2,0:0:0:0:
32,192,10049,1,8,3:0:0:0:
288,192,11009,1,0,0:0:0:0:
224,192,11129,1,0,0:0:0:0:
288,192,11249,1,0,0:0:0:0:
352,192,11369,1,2,0:0:0:0:
32,192,11969,1,8,3:0:0:0:
480,192,12209,1,2,0:0:0:0:
480,192,12689,1,2,0:0:0:0:
224,192,12929,1,0,0:0:0:0:
96,192,13049,1,0,0:0:0:0:
160,192,13169,1,0,0:0:0:0:
288,192,13289,1,2,0:0:0:0:
32,192,13889,1,0,3:0:0:0:
224,192,14849,1,0,0:0:0:0:
160,192,14969,1,0,0:0:0:0:
480,192,15089,1,0,0:0:0:0:
224,192,15089,1,0,0:0:0:0:
352,192,15209,1,2,0:0:0:0:
480,192,15329,1,0,0:0:0:0:
480,192,15569,1,0,0:0:0:0:
32,192,15809,1,8,3:0:0:0:
480,192,15809,1,0,0:0:0:0:
288,192,15809,1,0,0:0:0:0:
224,192,15929,1,0,0:0:0:0:
288,192,16049,1,0,0:0:0:0:
416,192,16169,1,2,0:0:0:0:
32,192,16529,1,8,3:0:0:0:
224,192,16769,1,0,0:0:0:0:
480,192,16769,1,2,3:0:0:0:
160,192,16889,1,0,0:0:0:0:
224,192,17009,1,0,0:0:0:0:
288,192,17129,1,2,0:0:0:0:
32,192,17729,1,8,3:0:0:0:
480,192,17969,1,2,3:0:0:0:
480,192,18449,1,2,3:0:0:0:
160,192,18689,1,0,0:0:0:0:
480,192,18689,1,2,3:0:0:0:
96,192,18809,1,0,0:0:0:0:
160,192,18929,1,0,0:0:0:0:
288,192,19049,1,2,0:0:0:0:
32,192,19649,1,8,3:0:0:0:
480,192,20009,1,2,3:0:0:0:
480,192,20369,1,2,3:0:0:0:
288,192,20609,1,0,0:0:0:0:
480,192,20609,1,2,3:0:0:0:
224,192,20729,1,0,0:0:0:0:
288,192,20849,1,0,0:0:0:0:
352,192,20969,1,2,0:0:0:0:
32,192,21569,1,0,3:0:0:0:
480,192,21809,1,2,3:0:0:0:
480,192,22529,1,2,3:0:0:0:
288,192,22769,1,0,0:0:0:0:
480,192,22889,5,2,3:0:0:0:
224,192,22889,1,0,0:0:0:0:
288,192,23009,1,0,0:0:0:0:
480,192,23249,1,2,3:0:0:0:
160,192,23249,1,0,0:0:0:0:
32,192,23489,5,8,0:0:0:0:
288,192,23489,1,0,0:0:0:0:
480,192,23729,1,2,3:0:0:0:
96,192,23729,1,0,0:0:0:0:
352,192,23729,128,2,24209:0:0:0:0:
160,192,23969,1,0,0:0:0:0:
224,192,24209,5,8,0:0:0:0:
416,192,24209,1,0,0:0:0:0:
480,192,24449,128,2,27329:2:0:0:0:
96,192,24449,1,8,0:0:0:0:
288,192,24689,1,2,0:0:0:0:
96,192,24929,1,8,0:0:0:0:
288,192,25169,1,2,0:0:0:0:
96,192,25409,1,8,0:0:0:0:
288,192,25649,1,2,0:0:0:0:
96,192,25889,1,8,0:0:0:0:
288,192,26129,1,2,0:0:0:0:
160,192,26369,1,8,0:0:0:0:
352,192,26609,1,2,0:0:0:0:
160,192,26849,1,8,0:0:0:0:
352,192,27089,1,2,0:0:0:0:
160,192,27329,1,8,0:0:0:0:
352,192,27569,1,2,0:0:0:0:
480,192,27809,1,0,2:0:0:0:
160,192,27809,1,8,0:0:0:0:
352,192,28049,1,2,0:0:0:0:
32,192,28289,128,2,28769:2:0:0:0:
160,192,28289,1,8,0:0:0:0:
288,192,28529,1,2,0:0:0:0:
480,192,28769,1,0,2:0:0:0:
160,192,28769,1,8,0:0:0:0:
480,192,29009,128,2,29489:2:0:0:0:
288,192,29009,1,2,0:0:0:0:
160,192,29249,1,8,0:0:0:0:
32,192,29489,128,0,29969:2:0:0:0:
288,192,29489,1,2,0:0:0:0:
160,192,29729,1,8,0:0:0:0:
480,192,29969,128,2,30929:2:0:0:0:
288,192,29969,1,2,0:0:0:0:
224,192,30209,1,8,0:0:0:0:
352,192,30449,1,2,0:0:0:0:
224,192,30689,1,8,0:0:0:0:
352,192,30929,1,2,0:0:0:0:
480,192,31169,128,0,31649:2:0:0:0:
224,192,31169,1,8,0:0:0:0:
352,192,31409,1,2,0:0:0:0:
32,192,31649,1,2,2:0:0:0:
224,192,31649,1,8,0:0:0:0:
480,192,31889,1,0,2:0:0:0:
352,192,31889,1,2,0:0:0:0:
32,192,32129,128,2,35009:2:0:0:0:
416,192,32129,1,8,0:0:0:0:
224,192,32369,1,2,0:0:0:0:
416,192,32609,1,8,0:0:0:0:
224,192,32729,1,0,0:0:0:0:
288,192,32849,1,2,0:0:0:0:
416,192,33089,1,8,0:0:0:0:
224,192,33329,1,2,0:0:0:0:
416,192,33569,1,8,0:0:0:0:
224,192,33689,1,0,0:0:0:0:
288,192,33809,1,2,0:0:0:0:
352,192,34049,1,8,0:0:0:0:
160,192,34289,1,2,0:0:0:0:
352,192,34529,1,8,0:0:0:0:
160,192,34649,1,0,0:0:0:0:
288,192,34769,1,2,0:0:0:0:
352,192,35009,1,8,0:0:0:0:
160,192,35249,1,2,0:0:0:0:
32,192,35489,1,2,2:0:0:0:
352,192,35489,1,8,0:0:0:0:
160,192,35609,1,0,0:0:0:0:
288,192,35729,1,2,0:0:0:0:
32,192,35969,128,2,36449:2:0:0:0:
224,192,35969,1,8,3:0:0:0:
288,192,36209,1,10,3:0:0:0:
480,192,36449,1,0,2:0:0:0:
224,192,36449,1,8,3:0:0:0:
480,192,36689,128,2,37169:2:0:0:0:
288,192,36689,1,10,3:0:0:0:
224,192,36929,1,8,3:0:0:0:
32,192,37169,128,0,37649:2:0:0:0:
288,192,37169,1,10,3:0:0:0:
224,192,37409,1,8,3:0:0:0:
480,192,37649,1,2,2:0:0:0:
352,192,37649,1,10,3:0:0:0:
288,192,37889,1,8,0:0:0:0:
224,192,38009,1,8,0:0:0:0:
288,192,38129,1,8,0:0:0:0:
224,192,38249,1,8,0:0:0:0:
288,192,38369,1,8,0:0:0:0:
224,192,38489,1,8,0:0:0:0:
288,192,38609,1,8,0:0:0:0:
224,192,38729,1,8,0:0:0:0:
32,192,38849,128,8,39809:0:0:0:0:
480,192,39329,128,8,39809:0:0:0:0:
352,192,39809,1,2,0:0:0:0:
96,192,39809,1,2,3:0:0:0:
224,192,40289,1,8,3:0:0:0:
352,192,40529,1,2,0:0:0:0:
96,192,40769,1,2,3:0:0:0:
32,192,41009,1,2,0:0:0:0:
224,192,41249,1,8,3:0:0:0:
352,192,41369,1,2,0:0:0:0:
352,192,41489,1,2,0:0:0:0:
32,192,41489,1,0,0:0:0:0:
96,192,41729,1,2,3:0:0:0:
352,192,41729,1,2,0:0:0:0:
224,192,42209,1,8,3:0:0:0:
352,192,42449,1,2,0:0:0:0:
96,192,42689,1,2,3:0:0:0:
32,192,42929,1,2,0:0:0:0:
224,192,43169,1,8,3:0:0:0:
352,192,43289,1,2,0:0:0:0:
352,192,43409,1,2,0:0:0:0:
32,192,43409,1,0,0:0:0:0:
416,192,43649,1,2,3:0:0:0:
96,192,43649,1,2,0:0:0:0:
288,192,44129,1,8,3:0:0:0:
96,192,44369,1,2,0:0:0:0:
416,192,44609,1,2,3:0:0:0:
288,192,45089,1,8,3:0:0:0:
224,192,45089,1,2,0:0:0:0:
416,192,45569,1,2,3:0:0:0:
32,192,45809,1,2,0:0:0:0:
288,192,46049,1,8,3:0:0:0:
32,192,46049,1,0,0:0:0:0:
224,192,46049,1,2,0:0:0:0:
32,192,46289,1,2,0:0:0:0:
160,192,46289,1,0,0:0:0:0:
416,192,46529,1,2,3:0:0:0:
32,192,46529,128,2,47009:0:0:0:0:
224,192,46649,1,8,3:0:0:0:
288,192,46769,1,2,0:0:0:0:
352,192,47009,1,8,3:0:0:0:
224,192,47009,1,0,0:0:0:0:
160,192,47249,1,2,0:0:0:0:
96,192,47489,1,2,3:0:0:0:
224,192,47969,1,8,3:0:0:0:
352,192,47969,1,2,0:0:0:0:
96,192,48449,1,2,3:0:0:0:
224,192,48929,1,8,3:0:0:0:
352,192,49169,1,2,0:0:0:0:
96,192,49409,1,2,3:0:0:0:
480,192,49649,1,0,0:0:0:0:
224,192,49889,1,8,3:0:0:0:
352,192,49889,1,2,0:0:0:0:
480,192,49889,1,0,0:0:0:0:
480,192,50129,1,0,0:0:0:0:
96,192,50369,1,2,3:0:0:0:
480,192,50369,128,0,50609:0:0:0:0:
480,192,50729,1,0,0:0:0:0:
224,192,50849,1,8,3:0:0:0:
352,192,51089,1,2,0:0:0:0:
96,192,51329,1,2,3:0:0:0:
224,192,51809,1,8,3:0:0:0:
352,192,51809,1,2,0:0:0:0:
96,192,52289,1,2,3:0:0:0:
416,192,52529,1,2,0:0:0:0:
224,192,52769,1,8,3:0:0:0:
416,192,53249,1,2,0:0:0:0:
288,192,53489,1,2,0:0:0:0:
96,192,53489,1,0,0:0:0:0:
416,192,53609,1,0,0:0:0:0:
224,192,53729,1,0,0:0:0:0:
416,192,53849,1,2,0:0:0:0:
288,192,53969,1,0,0:0:0:0:
224,192,54209,1,0,0:0:0:0:
416,192,54209,1,2,0:0:0:0:
288,192,54449,1,2,0:0:0:0:
96,192,54449,1,0,0:0:0:0:
416,192,54569,1,0,0:0:0:0:
288,192,54689,1,2,0:0:0:0:
224,192,54809,1,0,0:0:0:0:
288,192,54929,1,2,0:0:0:0:
160,192,54929,1,0,0:0:0:0:
224,192,55049,1,0,0:0:0:0:
96,192,55169,1,0,0:0:0:0:
480,192,55169,1,2,3:0:0:0:
32,192,56129,1,8,3:0:0:0:
416,192,56369,1,2,0:0:0:0:
352,192,56849,1,0,0:0:0:0:
480,192,57089,1,2,3:0:0:0:
224,192,57329,1,0,0:0:0:0:
160,192,57809,1,0,0:0:0:0:
32,192,58049,1,8,3:3:0:0:
224,192,58289,1,0,0:0:0:0:
480,192,58289,1,2,3:0:0:0:
288,192,58769,1,2,0:0:0:0:
160,192,59009,1,0,0:0:0:0:
480,192,59009,1,2,3:0:0:0:
32,192,59969,1,8,3:3:0:0:
416,192,60209,1,2,0:0:0:0:
288,192,60689,1,0,0:0:0:0:
480,192,60929,1,2,3:0:0:0:
352,192,61169,1,2,0:0:0:0:
224,192,61649,1,0,0:0:0:0:
32,192,61889,1,8,3:3:0:0:
288,192,62129,1,2,0:0:0:0:
480,192,62129,1,2,3:0:0:0:
480,192,62489,1,2,3:0:0:0:
160,192,62609,1,2,0:0:0:0:
480,192,62849,1,2,3:0:0:0:
96,192,62849,1,0,0:0:0:0:
32,192,63809,1,8,3:3:0:0:
352,192,64049,1,2,0:0:0:0:
288,192,64529,1,0,0:0:0:0:
480,192,64769,1,2,3:0:0:0:
224,192,65009,1,0,0:0:0:0:
160,192,65489,1,0,0:0:0:0:
32,192,65729,1,8,3:3:0:0:
288,192,65969,1,2,0:0:0:0:
480,192,65969,1,2,3:0:0:0:
224,192,66449,1,0,0:0:0:0:
480,192,66689,1,2,3:0:0:0:
96,192,66689,1,0,0:0:0:0:
32,192,67649,1,8,3:3:0:0:
288,192,67649,1,2,0:0:0:0:
224,192,68609,1,0,0:0:0:0:
480,192,68609,1,2,3:0:0:0:
480,192,68969,1,2,3:0:0:0:
480,192,69329,1,2,3:0:0:0:
288,192,69569,1,0,0:0:0:0:
480,192,69569,1,2,3:0:0:0:
32,192,69809,1,8,3:0:0:0:
160,192,69809,1,2,0:0:0:0:
480,192,69929,1,2,3:0:0:0:
224,192,70049,1,0,0:0:0:0:
32,192,70169,1,8,3:0:0:0:
480,192,70289,1,2,3:0:0:0:
288,192,70289,1,2,0:0:0:0:
480,192,70529,1,2,3:0:0:0:
352,192,70529,1,2,0:0:0:0:
288,192,71009,1,0,0:0:0:0:
480,192,71009,1,2,3:0:0:0:
32,192,71009,1,8,0:0:0:0:
224,192,71249,1,2,0:0:0:0:
480,192,71489,1,2,3:0:0:0:
160,192,71729,1,0,0:0:0:0:
480,192,71969,1,10,3:0:0:0:
32,192,71969,1,8,0:0:0:0:
224,192,72209,1,0,0:0:0:0:
480,192,72449,1,2,3:0:0:0:
288,192,72449,1,2,0:0:0:0:
352,192,72929,1,0,0:0:0:0:
480,192,72929,1,2,3:0:0:0:
32,192,72929,1,8,0:0:0:0:
288,192,73169,1,2,0:0:0:0:
480,192,73409,1,2,3:0:0:0:
224,192,73649,1,2,0:0:0:0:
160,192,73889,1,0,0:0:0:0:
480,192,73889,1,2,3:0:0:0:
32,192,73889,1,8,0:0:0:0:
288,192,74129,1,2,0:0:0:0:
480,192,74369,1,2,3:0:0:0:
480,192,74609,1,2,3:0:0:0:
32,192,74609,1,2,0:0:0:0:
480,192,74849,1,2,3:0:0:0:
224,192,74849,1,8,3:0:0:0:
480,192,75089,1,2,3:0:0:0:
32,192,75089,1,2,0:0:0:0:
480,192,75329,1,2,3:0:0:0:
480,192,75569,1,2,3:0:0:0:
32,192,75569,1,2,0:0:0:0:
480,192,75809,1,2,3:0:0:0:
224,192,75809,1,8,3:0:0:0:
480,192,76049,1,2,3:0:0:0:
288,192,76289,1,2,3:0:0:0:
224,192,76409,1,2,3:0:0:0:
288,192,76529,1,2,3:0:0:0:
224,192,76649,1,2,3:0:0:0:
288,192,76769,1,2,3:0:0:0:
480,192,76769,1,8,3:0:0:0:
224,192,76889,1,2,3:0:0:0:
288,192,77009,1,2,3:0:0:0:
224,192,77129,1,2,3:0:0:0:
160,192,77249,128,2,78209:3:0:0:0:
32,192,77369,1,8,3:0:0:0:
352,192,77729,128,2,78209:3:0:0:0:
32,192,77729,1,8,3:0:0:0:
32,192,78209,1,2,2:0:0:0:
416,192,78209,1,8,0:0:0:0:
224,192,78449,1,2,0:0:0:0:
416,192,78689,1,8,0:0:0:0:
32,192,78929,1,2,2:0:0:0:
160,192,78929,1,2,0:0:0:0:
416,192,79169,1,8,0:0:0:0:
224,192,79409,1,2,0:0:0:0:
416,192,79649,1,8,0:0:0:0:
32,192,79769,1,2,2:0:0:0:
288,192,79889,1,2,0:0:0:0:
32,192,79889,1,2,2:0:0:0:
32,192,80129,1,2,2:0:0:0:
352,192,80129,1,8,0:0:0:0:
224,192,80369,1,2,0:0:0:0:
352,192,80609,1,8,0:0:0:0:
32,192,80849,1,2,2:0:0:0:
160,192,80849,1,2,0:0:0:0:
352,192,81089,1,8,0:0:0:0:
224,192,81329,1,2,0:0:0:0:
352,192,81569,1,8,0:0:0:0:
32,192,81689,1,2,2:0:0:0:
32,192,81809,1,2,2:0:0:0:
288,192,81809,1,2,0:0:0:0:
480,192,82049,1,2,2:0:0:0:
96,192,82049,1,8,0:0:0:0:
288,192,82289,1,2,0:0:0:0:
96,192,82529,1,8,0:0:0:0:
480,192,82769,1,2,2:0:0:0:
352,192,82769,1,2,0:0:0:0:
96,192,83009,1,8,0:0:0:0:
288,192,83249,1,2,0:0:0:0:
32,192,83489,1,2,2:0:0:0:
96,192,83489,1,8,0:0:0:0:
352,192,83729,1,2,0:0:0:0:
160,192,83969,1,8,0:0:0:0:
288,192,84209,1,2,0:0:0:0:
32,192,84449,1,2,2:0:0:0:
160,192,84449,1,8,0:0:0:0:
352,192,84689,1,2,0:0:0:0:
480,192,84689,1,2,2:0:0:0:
160,192,84929,1,8,0:0:0:0:
352,192,85049,1,4,0:0:0:0:
288,192,85169,1,2,0:0:0:0:
32,192,85169,1,2,2:0:0:0:
160,192,85409,1,8,0:0:0:0:
480,192,85409,1,0,0:0:0:0:
288,192,85649,1,2,0:0:0:0:
32,192,85649,1,2,2:0:0:0:
160,192,85649,1,8,0:0:0:0:
416,192,85889,1,8,0:0:0:0:
224,192,86129,1,2,0:0:0:0:
32,192,86369,1,2,2:0:0:0:
416,192,86369,1,8,0:0:0:0:
160,192,86609,1,2,0:0:0:0:
416,192,86849,1,8,0:0:0:0:
224,192,87089,1,2,0:0:0:0:
416,192,87329,1,8,0:0:0:0:
32,192,87569,1,2,2:0:0:0:
160,192,87569,1,2,0:0:0:0:
352,192,87809,1,8,0:0:0:0:
224,192,88049,1,2,0:0:0:0:
352,192,88289,1,8,0:0:0:0:
32,192,88289,1,2,2:0:0:0:
160,192,88529,1,2,0:0:0:0:
352,192,88769,1,8,0:0:0:0:
224,192,89009,1,2,0:0:0:0:
352,192,89249,1,8,0:0:0:0:
160,192,89489,1,2,0:0:0:0:
32,192,89489,1,2,2:0:0:0:
224,192,89729,1,8,0:0:0:0:
288,192,89969,1,2,0:0:0:0:
480,192,90209,1,2,2:0:0:0:
224,192,90209,1,8,0:0:0:0:
352,192,90449,1,2,0:0:0:0:
224,192,90689,1,8,0:0:0:0:
288,192,90929,1,2,0:0:0:0:
32,192,90929,1,2,2:0:0:0:
224,192,91169,1,8,0:0:0:0:
352,192,91409,1,2,0:0:0:0:
288,192,91649,1,8,0:0:0:0:
480,192,91649,1,2,2:0:0:0:
224,192,91889,1,10,0:0:0:0:
480,192,91889,1,0,2:0:0:0:
480,192,92009,1,2,2:0:0:0:
288,192,92129,1,8,0:0:0:0:
96,192,92129,1,4,0:0:0:0:
480,192,92249,1,2,2:0:0:0:
224,192,92369,1,10,0:0:0:0:
288,192,92609,1,8,0:0:0:0:
32,192,92609,1,2,2:0:0:0:
352,192,92729,1,4,0:0:0:0:
224,192,92849,1,10,0:0:0:0:
32,192,92849,1,0,2:0:0:0:
32,192,92969,1,2,2:0:0:0:
288,192,93089,1,8,0:0:0:0:
416,192,93089,1,4,0:0:0:0:
224,192,93329,1,10,0:0:0:0:
32,192,93329,1,2,2:0:0:0:
288,192,93449,1,4,0:0:0:0:
32,192,93569,1,2,2:0:0:0:
480,192,93569,1,8,0:0:0:0:
160,192,93569,1,0,0:0:0:0:
352,192,93809,1,2,0:0:0:0:
480,192,94049,1,8,0:0:0:0:
224,192,94049,1,4,0:0:0:0:
288,192,94169,1,0,0:0:0:0:
32,192,94289,1,2,2:0:0:0:
352,192,94289,1,2,0:0:0:0:
480,192,94529,1,8,0:0:0:0:
160,192,94529,1,0,0:0:0:0:
352,192,94769,1,2,0:0:0:0:
480,192,95009,1,8,0:0:0:0:
224,192,95009,1,4,0:0:0:0:
32,192,95129,1,2,2:0:0:0:
288,192,95129,1,0,0:0:0:0:
32,192,95249,1,2,2:0:0:0:
352,192,95249,1,2,0:0:0:0:
480,192,95489,1,8,0:0:0:0:
32,192,95489,1,2,2:0:0:0:
160,192,95489,1,0,0:0:0:0:
288,192,95729,1,2,0:0:0:0:
224,192,95969,1,4,0:0:0:0:
480,192,95969,1,8,0:0:0:0:
352,192,96089,1,0,0:0:0:0:
32,192,96209,1,2,2:0:0:0:
288,192,96209,1,2,0:0:0:0:
480,192,96449,1,8,0:0:0:0:
160,192,96449,1,0,0:0:0:0:
288,192,96689,1,2,0:0:0:0:
224,192,96929,1,4,0:0:0:0:
480,192,96929,1,8,0:0:0:0:
32,192,97049,1,2,2:0:0:0:
352,192,97049,1,0,0:0:0:0:
32,192,97169,1,2,2:0:0:0:
288,192,97169,1,2,0:0:0:0:
32,192,97409,1,8,0:0:0:0:
480,192,97409,1,2,2:0:0:0:
352,192,97409,1,0,0:0:0:0:
160,192,97649,1,2,0:0:0:0:
32,192,97889,1,8,0:0:0:0:
288,192,97889,1,4,0:0:0:0:
224,192,98009,1,0,0:0:0:0:
160,192,98129,1,2,0:0:0:0:
480,192,98129,1,2,2:0:0:0:
32,192,98369,1,8,0:0:0:0:
352,192,98369,1,0,0:0:0:0:
160,192,98609,1,2,0:0:0:0:
288,192,98849,1,4,0:0:0:0:
32,192,98849,1,8,0:0:0:0:
416,192,98849,1,2,2:0:0:0:
224,192,98969,1,0,0:0:0:0:
160,192,99089,1,2,0:0:0:0:
32,192,99329,1,8,0:0:0:0:
352,192,99329,1,0,0:0:0:0:
224,192,99569,1,2,0:0:0:0:
480,192,99809,1,2,2:0:0:0:
288,192,99809,1,4,0:0:0:0:
32,192,99809,1,8,0:0:0:0:
160,192,99929,1,0,0:0:0:0:
224,192,100049,1,2,0:0:0:0:
352,192,100049,1,2,2:0:0:0:
416,192,100289,1,0,0:0:0:0:
32,192,100289,1,8,0:0:0:0:
288,192,100409,1,4,0:0:0:0:
224,192,100529,1,2,0:0:0:0:
480,192,100529,1,2,2:0:0:0:
288,192,100769,1,4,0:0:0:0:
32,192,100769,1,8,0:0:0:0:
352,192,100769,1,0,0:0:0:0:
160,192,100889,1,0,0:0:0:0:
224,192,101009,1,2,0:0:0:0:
416,192,101009,1,2,2:0:0:0:
32,192,101009,1,8,0:0:0:0:
480,192,101249,1,8,0:0:0:0:
160,192,101249,1,0,0:0:0:0:
288,192,101489,1,2,0:0:0:0:
32,192,101729,1,2,2:0:0:0:
480,192,101729,1,8,0:0:0:0:
224,192,101729,1,4,0:0:0:0:
352,192,101849,1,0,0:0:0:0:
288,192,101969,1,2,0:0:0:0:
480,192,102209,1,8,0:0:0:0:
288,192,102449,1,2,0:0:0:0:
224,192,102689,1,4,0:0:0:0:
480,192,102689,1,8,0:0:0:0:
352,192,102809,1,0,0:0:0:0:
32,192,102929,1,2,2:0:0:0:
288,192,102929,1,2,0:0:0:0:
480,192,103169,1,8,0:0:0:0:
160,192,103169,1,0,0:0:0:0:
352,192,103409,1,2,0:0:0:0:
32,192,103649,1,2,2:0:0:0:
224,192,103649,1,4,0:0:0:0:
480,192,103649,1,8,0:0:0:0:
288,192,103769,1,0,0:0:0:0:
352,192,103889,1,2,0:0:0:0:
480,192,104129,1,8,0:0:0:0:
160,192,104129,1,0,0:0:0:0:
352,192,104369,1,2,0:0:0:0:
224,192,104609,1,4,0:0:0:0:
480,192,104609,1,8,0:0:0:0:
288,192,104729,1,0,0:0:0:0:
32,192,104849,1,2,2:0:0:0:
352,192,104849,1,2,0:0:0:0:
32,192,105089,1,8,0:0:0:0:
416,192,105089,1,0,0:0:0:0:
224,192,105329,1,2,0:0:0:0:
32,192,105569,1,8,0:0:0:0:
352,192,105569,1,2,2:0:0:0:
288,192,105569,1,4,0:0:0:0:
160,192,105689,1,0,0:0:0:0:
224,192,105809,1,2,0:0:0:0:
32,192,106049,1,8,0:0:0:0:
480,192,106289,1,2,2:0:0:0:
224,192,106289,1,2,0:0:0:0:
32,192,106529,1,8,0:0:0:0:
288,192,106529,1,4,0:0:0:0:
160,192,106649,1,0,0:0:0:0:
224,192,106769,1,2,0:0:0:0:
480,192,107009,1,8,0:0:0:0:
480,192,107249,1,8,0:0:0:0:
160,192,107249,1,2,0:0:0:0:
288,192,107249,1,2,2:0:0:0:
480,192,107489,1,8,0:0:0:0:
32,192,107489,1,4,0:0:0:0:
288,192,107489,1,2,2:0:0:0:
480,192,107729,1,8,0:0:0:0:
160,192,107729,1,2,0:0:0:0:
288,192,107729,1,2,2:0:0:0:
480,192,107969,1,8,0:0:0:0:
288,192,107969,1,2,2:0:0:0:
32,192,108089,1,4,3:0:0:0:
480,192,108209,1,8,0:0:0:0:
160,192,108209,1,2,0:0:0:0:
288,192,108209,1,2,2:0:0:0:
480,192,108449,1,8,0:0:0:0:
32,192,108449,1,4,0:0:0:0:
288,192,108449,1,2,2:0:0:0:
224,192,108569,1,2,2:0:0:0:
480,192,108689,1,8,0:0:0:0:
160,192,108689,1,2,0:0:0:0:
288,192,108689,1,2,2:0:0:0:
32,192,108809,1,4,0:0:0:0:
224,192,108809,1,2,2:0:0:0:
480,192,108929,1,2,0:0:0:0:
32,192,109169,1,0,0:0:0:0:
352,192,109169,1,2,0:0:0:0:
224,192,109289,1,0,0:0:0:0:
352,192,109409,1,2,0:0:0:0:
416,192,109409,1,8,0:0:0:0:
32,192,109649,1,0,0:0:0:0:
288,192,109649,1,2,0:0:0:0:
160,192,109769,1,0,0:0:0:0:
288,192,109889,1,2,0:0:0:0:
32,192,110129,1,0,0:0:0:0:
224,192,110129,1,2,0:0:0:0:
288,192,110249,1,0,0:0:0:0:
352,192,110369,1,8,0:0:0:0:
160,192,110369,1,2,0:0:0:0:
32,192,110609,1,0,0:0:0:0:
480,192,110609,1,0,0:0:0:0:
32,192,110849,1,0,0:0:0:0:
480,192,110849,1,2,0:0:0:0:
32,192,111089,1,0,0:0:0:0:
352,192,111089,1,2,0:0:0:0:
224,192,111209,1,0,0:0:0:0:
352,192,111329,1,2,0:0:0:0:
416,192,111329,1,8,0:0:0:0:
288,192,111569,1,2,0:0:0:0:
32,192,111569,1,0,0:0:0:0:
160,192,111689,1,0,0:0:0:0:
288,192,111809,1,2,0:0:0:0:
224,192,112049,1,2,0:0:0:0:
32,192,112049,1,0,0:0:0:0:
288,192,112169,1,0,0:0:0:0:
160,192,112289,1,2,0:0:0:0:
352,192,112289,1,8,0:0:0:0:
480,192,112529,1,0,0:0:0:0:
32,192,112529,1,0,0:0:0:0:
32,192,112769,1,0,0:0:0:0:
480,192,112769,1,2,0:0:0:0:
352,192,113009,1,2,0:0:0:0:
32,192,113009,1,0,0:0:0:0:
224,192,113129,1,0,0:0:0:0:
352,192,113249,1,2,0:0:0:0:
416,192,113249,1,8,0:0:0:0:
32,192,113489,1,0,0:0:0:0:
288,192,113489,1,2,0:0:0:0:
160,192,113609,1,0,0:0:0:0:
288,192,113729,1,2,0:0:0:0:
32,192,113969,1,0,0:0:0:0:
224,192,113969,1,2,0:0:0:0:
288,192,114089,1,0,0:0:0:0:
160,192,114209,1,2,0:0:0:0:
352,192,114209,1,8,0:0:0:0:
480,192,114449,1,0,0:0:0:0:
288,192,114929,1,0,0:0:0:0:
224,192,114929,1,0,0:0:0:0:
288,192,115169,1,0,0:0:0:0:
224,192,115169,1,0,0:0:0:0:
288,192,115409,1,0,0:0:0:0:
224,192,115409,1,0,0:0:0:0:
224,192,115649,128,0,116609:0:0:0:0:
288,192,115649,128,0,116609:0:0:0:0:
