osu file format v12

[General]
AudioFilename: Ghost.mp3
AudioLeadIn: 1500
PreviewTime: 38849
Countdown: 1
SampleSet: Soft
StackLeniency: 0.7
Mode: 3
LetterboxInBreaks: 1

[Editor]
DistanceSpacing: 1
BeatDivisor: 4
GridSize: 8

[Metadata]
Title:Ghost
TitleUnicode:유령
Artist:STi
ArtistUnicode:STi
Creator:MoonFragrance
Version:Osu! Mania Hard
Source:DJMAX
Tags:TECHNIKA 3 Tari
BeatmapID:261005
BeatmapSetID:97685

[Difficulty]
HPDrainRate:6
CircleSize:6
OverallDifficulty:7
ApproachRate:7
SliderMultiplier:1.8
SliderTickRate:1

[Events]
//Background and Video events
0,0,"DMT3_Ghost.jpg",0,0
Video,-753,"Ghost.avi"
//Break Periods
//Storyboard Layer 0 (Background)
//Storyboard Layer 1 (Fail)
//Storyboard Layer 2 (Pass)
//Storyboard Layer 3 (Foreground)
//Storyboard Sound Samples
//Background Colour Transformations
3,100,163,162,255

[TimingPoints]
1409,480,4,2,1,65,1,0
7409,-100,4,1,1,50,0,0
9089,-100,4,2,2,65,0,0
24449,-100,4,3,2,100,0,0
39809,-100,4,2,2,80,0,0
55169,-100,4,2,2,65,0,0
78209,-100,4,3,2,100,0,0
108929,-100,4,2,1,65,0,0
114929,-100,4,1,1,50,0,0

[HitObjects]
213,192,1409,1,0,0:0:0:0:
352,192,1649,1,2,0:0:0:0:
224,192,2129,1,0,0:0:0:0:
352,192,2369,1,2,0:0:0:0:
288,192,2849,1,0,0:0:0:0:
416,192,3089,1,2,0:0:0:0:
42,192,3329,1,0,0:0:0:0:
160,192,3569,1,0,0:0:0:0:
288,192,3809,1,2,0:0:0:0:
160,192,4289,1,0,0:0:0:0:
288,192,4529,1,2,0:0:0:0:
469,192,4769,1,0,0:0:0:0:
213,192,5009,1,2,0:0:0:0:
160,192,5249,1,0,0:0:0:0:
224,192,5489,1,0,0:0:0:0:
352,192,5729,1,2,0:0:0:0:
224,192,6209,1,0,0:0:0:0:
352,192,6449,1,2,0:0:0:0:
224,192,6689,1,0,0:0:0:0:
288,192,6929,1,2,0:0:0:0:
288,192,7409,1,0,0:0:0:0:
288,192,7649,1,0,0:0:0:0:
288,192,7889,1,0,0:0:0:0:
288,192,8129,128,0,9089:0:0:0:0:
128,192,9089,1,0,0:0:0:0:
213,192,9209,1,0,0:0:0:0:
298,192,9329,1,0,0:0:0:0:
384,192,9449,1,2,0:0:0:0:
42,192,11009,1,0,0:0:0:0:
128,192,11129,1,0,0:0:0:0:
213,192,11249,1,0,0:0:0:0:
298,192,11369,1,2,0:0:0:0:
224,192,12929,1,0,0:0:0:0:
298,192,13049,1,0,0:0:0:0:
384,192,13169,1,0,0:0:0:0:
469,192,13289,1,2,0:0:0:0:
160,192,14849,1,0,0:0:0:0:
213,192,14969,1,0,0:0:0:0:
298,192,15089,1,0,0:0:0:0:
384,192,15209,1,2,0:0:0:0:
42,192,15809,1,0,0:0:0:0:
213,192,15929,1,0,0:0:0:0:
298,192,16049,1,0,0:0:0:0:
384,192,16169,1,2,0:0:0:0:
298,192,16769,1,0,0:0:0:0:
213,192,16889,1,0,0:0:0:0:
298,192,17009,1,0,0:0:0:0:
384,192,17129,1,2,0:0:0:0:
32,192,17729,1,8,3:0:0:0:
213,192,18689,1,0,0:0:0:0:
128,192,18809,1,0,0:0:0:0:
213,192,18929,1,0,0:0:0:0:
298,192,19049,1,2,0:0:0:0:
32,192,19649,1,8,3:0:0:0:
384,192,20609,1,0,0:0:0:0:
298,192,20729,1,0,0:0:0:0:
384,192,20849,1,0,0:0:0:0:
469,192,20969,1,2,0:0:0:0:
32,192,21569,1,0,3:0:0:0:
298,192,22529,1,0,0:0:0:0:
213,192,22649,1,0,0:0:0:0:
298,192,22769,1,0,0:0:0:0:
384,192,22889,1,2,0:0:0:0:
32,192,23489,5,8,0:0:0:0:
213,192,23729,1,2,0:0:0:0:
298,192,23969,1,0,0:0:0:0:
384,192,24209,5,8,0:0:0:0:
480,192,24449,128,2,27329:2:0:0:0:
42,192,24449,1,2,0:0:0:0:
42,192,24929,1,2,0:0:0:0:
42,192,25409,1,2,0:0:0:0:
42,192,25889,1,2,0:0:0:0:
42,192,26369,1,2,0:0:0:0:
42,192,26849,1,2,0:0:0:0:
42,192,27329,1,2,0:0:0:0:
480,192,27809,1,2,2:0:0:0:
42,192,27809,1,2,0:0:0:0:
384,192,28289,128,2,28769:2:0:0:0:
160,192,28289,1,2,0:0:0:0:
298,192,28769,1,0,2:0:0:0:
160,192,28769,1,2,0:0:0:0:
480,192,29009,128,2,29489:2:0:0:0:
160,192,29249,1,2,0:0:0:0:
298,192,29489,1,0,2:0:0:0:
160,192,29729,1,2,0:0:0:0:
384,192,29969,128,2,30929:2:0:0:0:
224,192,30209,1,2,0:0:0:0:
224,192,30689,1,2,0:0:0:0:
480,192,31169,128,0,31649:2:0:0:0:
224,192,31169,1,2,0:0:0:0:
224,192,31649,1,2,0:0:0:0:
384,192,31649,1,2,2:0:0:0:
384,192,31889,1,0,2:0:0:0:
213,192,32129,128,2,35009:2:0:0:0:
298,192,32129,1,2,3:0:0:0:
298,192,32609,1,2,3:0:0:0:
298,192,33089,1,2,3:0:0:0:
298,192,33569,1,2,3:0:0:0:
298,192,34049,1,2,3:0:0:0:
298,192,34529,1,2,3:0:0:0:
298,192,35009,1,2,3:0:0:0:
213,192,35489,1,2,2:0:0:0:
298,192,35489,1,2,3:0:0:0:
298,192,35969,128,2,36449:2:0:0:0:
213,192,36449,1,0,2:0:0:0:
298,192,36689,128,2,37169:2:0:0:0:
128,192,37169,1,0,2:0:0:0:
384,192,37649,128,2,38849:2:0:0:0:
213,192,38849,128,2,39809:0:0:0:0:
298,192,39329,128,2,39809:0:0:0:0:
352,192,39809,1,2,0:0:0:0:
224,192,40289,1,8,3:0:0:0:
352,192,40529,1,2,0:0:0:0:
224,192,41249,1,8,3:0:0:0:
352,192,41369,1,2,0:0:0:0:
352,192,41489,1,2,0:0:0:0:
352,192,41729,1,2,0:0:0:0:
224,192,42209,1,8,3:0:0:0:
352,192,42449,1,2,0:0:0:0:
224,192,43169,1,8,3:0:0:0:
352,192,43289,1,2,0:0:0:0:
352,192,43409,1,2,0:0:0:0:
96,192,43649,1,2,0:0:0:0:
288,192,44129,1,8,3:0:0:0:
96,192,44369,1,2,0:0:0:0:
288,192,45089,1,8,3:0:0:0:
224,192,45089,1,2,0:0:0:0:
288,192,46049,1,8,3:0:0:0:
224,192,46049,1,2,0:0:0:0:
160,192,46289,1,0,0:0:0:0:
288,192,46649,1,8,3:0:0:0:
224,192,46769,1,2,0:0:0:0:
288,192,47009,1,8,3:0:0:0:
160,192,47009,1,0,0:0:0:0:
42,192,47249,1,2,0:0:0:0:
224,192,47969,1,8,3:0:0:0:
352,192,47969,1,2,0:0:0:0:
224,192,48929,1,8,3:0:0:0:
352,192,49169,1,2,0:0:0:0:
224,192,49889,1,8,3:0:0:0:
352,192,49889,1,2,0:0:0:0:
224,192,50849,1,8,3:0:0:0:
352,192,51089,1,2,0:0:0:0:
224,192,51809,1,8,3:0:0:0:
352,192,51809,1,2,0:0:0:0:
469,192,52529,1,2,0:0:0:0:
224,192,52769,1,8,3:0:0:0:
298,192,53489,1,2,0:0:0:0:
298,192,53729,1,2,0:0:0:0:
298,192,53969,1,2,0:0:0:0:
298,192,54209,1,2,0:0:0:0:
298,192,54449,1,2,0:0:0:0:
298,192,54689,1,2,0:0:0:0:
213,192,54809,1,0,0:0:0:0:
298,192,54929,1,2,0:0:0:0:
213,192,55049,1,0,0:0:0:0:
42,192,55169,1,2,3:0:0:0:
298,192,56369,1,2,0:0:0:0:
213,192,56849,1,0,0:0:0:0:
128,192,57329,1,0,0:0:0:0:
42,192,57809,1,0,0:0:0:0:
298,192,58289,1,0,0:0:0:0:
213,192,58769,1,2,0:0:0:0:
42,192,59009,1,0,0:0:0:0:
469,192,60209,1,2,0:0:0:0:
288,192,60689,1,0,0:0:0:0:
384,192,61169,1,2,0:0:0:0:
224,192,61649,1,0,0:0:0:0:
288,192,62129,1,2,0:0:0:0:
128,192,62609,1,2,0:0:0:0:
42,192,62849,1,0,0:0:0:0:
352,192,64049,1,2,0:0:0:0:
298,192,64529,1,0,0:0:0:0:
224,192,65009,1,0,0:0:0:0:
160,192,65489,1,0,0:0:0:0:
288,192,65969,1,2,0:0:0:0:
224,192,66449,1,0,0:0:0:0:
96,192,66689,1,0,0:0:0:0:
288,192,67649,1,2,0:0:0:0:
224,192,68609,1,0,0:0:0:0:
42,192,69569,1,4,0:0:0:0:
213,192,69809,1,2,0:0:0:0:
298,192,70049,1,0,0:0:0:0:
384,192,70289,1,2,0:0:0:0:
469,192,70529,1,2,0:0:0:0:
298,192,71009,1,0,0:0:0:0:
42,192,71009,1,8,0:0:0:0:
213,192,71249,1,2,0:0:0:0:
128,192,71729,1,0,0:0:0:0:
42,192,71969,1,8,0:0:0:0:
213,192,72209,1,0,0:0:0:0:
288,192,72449,1,2,0:0:0:0:
352,192,72929,1,0,0:0:0:0:
32,192,72929,1,8,0:0:0:0:
288,192,73169,1,2,0:0:0:0:
298,192,73649,1,2,0:0:0:0:
213,192,73889,1,0,0:0:0:0:
32,192,73889,1,8,0:0:0:0:
288,192,74129,1,2,0:0:0:0:
213,192,74369,1,0,0:0:0:0:
32,192,74849,1,8,0:0:0:0:
32,192,75809,1,8,0:0:0:0:
298,192,76049,1,0,0:0:0:0:
384,192,76289,1,2,0:0:0:0:
128,192,76289,1,2,0:0:0:0:
213,192,76769,1,0,0:0:0:0:
42,192,76769,1,8,0:0:0:0:
128,192,77009,1,2,0:0:0:0:
298,192,77009,1,2,0:0:0:0:
42,192,77369,1,8,3:0:0:0:
384,192,77489,1,2,0:0:0:0:
469,192,77489,1,2,0:0:0:0:
42,192,77729,1,8,3:0:0:0:
384,192,78209,1,2,2:0:0:0:
42,192,78209,1,2,0:0:0:0:
42,192,78689,1,10,0:0:0:0:
384,192,78929,1,2,2:0:0:0:
42,192,79169,1,2,0:0:0:0:
42,192,79649,1,10,0:0:0:0:
384,192,79769,1,2,2:0:0:0:
384,192,79889,1,2,2:0:0:0:
384,192,80129,1,2,2:0:0:0:
42,192,80129,1,2,0:0:0:0:
42,192,80609,1,10,0:0:0:0:
384,192,80849,1,2,2:0:0:0:
42,192,81089,1,2,0:0:0:0:
42,192,81569,1,10,0:0:0:0:
384,192,81689,1,2,2:0:0:0:
384,192,81809,1,2,2:0:0:0:
469,192,82049,1,2,0:0:0:0:
128,192,82049,1,2,2:0:0:0:
469,192,82529,1,10,0:0:0:0:
128,192,82769,1,2,2:0:0:0:
469,192,83009,1,2,0:0:0:0:
469,192,83489,1,10,0:0:0:0:
128,192,83489,1,2,2:0:0:0:
469,192,83969,1,2,0:0:0:0:
469,192,84449,1,10,0:0:0:0:
298,192,84449,1,2,2:0:0:0:
128,192,84689,1,0,2:0:0:0:
469,192,84929,1,2,0:0:0:0:
213,192,85049,1,8,0:0:0:0:
298,192,85169,1,2,2:0:0:0:
469,192,85409,1,10,0:0:0:0:
213,192,85409,1,0,2:0:0:0:
128,192,85649,1,2,2:0:0:0:
469,192,85649,1,2,0:0:0:0:
42,192,85889,1,2,0:0:0:0:
384,192,86369,1,2,2:0:0:0:
42,192,86369,1,10,0:0:0:0:
42,192,86849,1,2,0:0:0:0:
42,192,87329,1,10,0:0:0:0:
384,192,87569,1,2,2:0:0:0:
42,192,87809,1,2,0:0:0:0:
384,192,88289,1,2,2:0:0:0:
42,192,88289,1,10,0:0:0:0:
42,192,88769,1,2,0:0:0:0:
42,192,89249,1,10,0:0:0:0:
384,192,89489,1,2,2:0:0:0:
42,192,89729,1,2,0:0:0:0:
384,192,90209,1,2,2:0:0:0:
42,192,90209,1,10,0:0:0:0:
42,192,90689,1,2,0:0:0:0:
469,192,90929,1,2,2:0:0:0:
42,192,91169,1,10,0:0:0:0:
42,192,91649,1,2,0:0:0:0:
42,192,91889,1,2,0:0:0:0:
42,192,92129,1,10,0:0:0:0:
469,192,92129,1,2,2:0:0:0:
42,192,92369,1,2,0:0:0:0:
384,192,92369,1,0,2:0:0:0:
42,192,92609,1,2,0:0:0:0:
42,192,92849,1,2,0:0:0:0:
213,192,92849,1,2,2:0:0:0:
42,192,93089,1,10,0:0:0:0:
42,192,93329,1,2,0:0:0:0:
298,192,93329,1,2,2:0:0:0:
384,192,93569,1,2,2:0:0:0:
42,192,93569,1,2,0:0:0:0:
213,192,94049,1,10,0:0:0:0:
384,192,94289,1,2,2:0:0:0:
42,192,94529,1,2,0:0:0:0:
213,192,95009,1,10,0:0:0:0:
384,192,95129,1,2,2:0:0:0:
384,192,95249,1,2,2:0:0:0:
384,192,95489,1,2,2:0:0:0:
42,192,95489,1,2,0:0:0:0:
213,192,95969,1,10,0:0:0:0:
384,192,96209,1,2,2:0:0:0:
42,192,96449,1,2,0:0:0:0:
213,192,96929,1,10,0:0:0:0:
384,192,97049,1,2,2:0:0:0:
384,192,97169,1,2,2:0:0:0:
128,192,97409,1,2,2:0:0:0:
469,192,97409,1,2,0:0:0:0:
298,192,97889,1,10,0:0:0:0:
128,192,98129,1,2,2:0:0:0:
469,192,98369,1,2,0:0:0:0:
298,192,98849,1,10,0:0:0:0:
213,192,98849,1,2,2:0:0:0:
469,192,99329,1,2,0:0:0:0:
213,192,99809,1,2,2:0:0:0:
298,192,99809,1,10,0:0:0:0:
42,192,100049,1,0,2:0:0:0:
469,192,100289,1,2,0:0:0:0:
298,192,100409,1,8,0:0:0:0:
213,192,100529,1,2,2:0:0:0:
469,192,100769,1,10,0:0:0:0:
128,192,101009,1,2,2:0:0:0:
469,192,101009,1,2,0:0:0:0:
42,192,101249,1,2,0:0:0:0:
384,192,101729,1,2,2:0:0:0:
213,192,101729,1,10,0:0:0:0:
42,192,102209,1,2,0:0:0:0:
213,192,102689,1,10,0:0:0:0:
469,192,102929,1,2,2:0:0:0:
42,192,103169,1,2,0:0:0:0:
384,192,103649,1,2,2:0:0:0:
213,192,103649,1,10,0:0:0:0:
42,192,104129,1,2,0:0:0:0:
213,192,104609,1,10,0:0:0:0:
469,192,104849,1,2,2:0:0:0:
42,192,105089,1,2,0:0:0:0:
298,192,105569,1,2,2:0:0:0:
213,192,105569,1,10,0:0:0:0:
42,192,106049,1,2,0:0:0:0:
469,192,106289,1,2,2:0:0:0:
213,192,106529,1,10,0:0:0:0:
42,192,107009,1,2,0:0:0:0:
42,192,107249,1,2,0:0:0:0:
469,192,107249,1,2,2:0:0:0:
42,192,107489,1,2,0:0:0:0:
469,192,107489,1,2,2:0:0:0:
42,192,107729,1,2,0:0:0:0:
469,192,107729,1,2,2:0:0:0:
42,192,107969,1,2,0:0:0:0:
469,192,107969,1,2,2:0:0:0:
42,192,108209,1,2,0:0:0:0:
469,192,108209,1,2,2:0:0:0:
42,192,108449,1,2,0:0:0:0:
469,192,108449,1,2,2:0:0:0:
298,192,108569,1,0,0:0:0:0:
42,192,108689,1,2,0:0:0:0:
469,192,108689,1,2,2:0:0:0:
298,192,108809,1,0,0:0:0:0:
42,192,108929,1,2,0:0:0:0:
298,192,109169,1,2,0:0:0:0:
128,192,109289,1,0,0:0:0:0:
298,192,109409,1,2,0:0:0:0:
213,192,109649,1,2,0:0:0:0:
469,192,109769,1,0,0:0:0:0:
213,192,109889,1,2,0:0:0:0:
128,192,110129,1,2,0:0:0:0:
298,192,110249,1,0,0:0:0:0:
469,192,110369,1,2,0:0:0:0:
213,192,110609,1,0,0:0:0:0:
42,192,110849,1,2,0:0:0:0:
298,192,111089,1,2,0:0:0:0:
128,192,111209,1,0,0:0:0:0:
298,192,111329,1,2,0:0:0:0:
213,192,111569,1,2,0:0:0:0:
469,192,111689,1,0,0:0:0:0:
213,192,111809,1,2,0:0:0:0:
128,192,112049,1,2,0:0:0:0:
298,192,112169,1,0,0:0:0:0:
469,192,112289,1,2,0:0:0:0:
213,192,112529,1,0,0:0:0:0:
42,192,112769,1,2,0:0:0:0:
298,192,113009,1,2,0:0:0:0:
128,192,113129,1,0,0:0:0:0:
298,192,113249,1,2,0:0:0:0:
213,192,113489,1,2,0:0:0:0:
469,192,113609,1,0,0:0:0:0:
213,192,113729,1,2,0:0:0:0:
128,192,113969,1,2,0:0:0:0:
298,192,114089,1,0,0:0:0:0:
469,192,114209,1,2,0:0:0:0:
213,192,114449,1,0,0:0:0:0:
288,192,114929,1,0,0:0:0:0:
224,192,114929,1,0,0:0:0:0:
288,192,115169,1,0,0:0:0:0:
224,192,115169,1,0,0:0:0:0:
288,192,115409,1,0,0:0:0:0:
224,192,115409,1,0,0:0:0:0:
224,192,115649,128,0,116609:0:0:0:0:
288,192,115649,128,0,116609:0:0:0:0:
