osu file format v12

[General]
AudioFilename: STYLE FIVE - Splash Free.mp3
AudioLeadIn: 0
PreviewTime: 63636
Countdown: 0
SampleSet: Soft
StackLeniency: 0.7
Mode: 0
LetterboxInBreaks: 0

[Editor]
DistanceSpacing: 1.1
BeatDivisor: 2
GridSize: 4

[Metadata]
Title:SPLASH FREE (TV Size)
TitleUnicode:SPLASH FREE (TV Size)
Artist:STYLE FIVE
ArtistUnicode:STYLE FIVE
Creator:Konei
Version:Hard
Source:Free!
Tags:ed ending swimming Iwatobi Swim Club Kyoto Animation irreversible
BeatmapID:274077
BeatmapSetID:104169

[Difficulty]
HPDrainRate:6
CircleSize:4
OverallDifficulty:6
ApproachRate:7
SliderMultiplier:1.6
SliderTickRate:1

[Events]
//Background and Video events
Video,-160,"Splashuehue.avi"
0,0,"Ahuehue.jpg",0,0
//Break Periods
//Storyboard Layer 0 (Background)
//Storyboard Layer 1 (Fail)
//Storyboard Layer 2 (Pass)
//Storyboard Layer 3 (Foreground)
//Storyboard Sound Samples
//Background Colour Transformations
3,100,163,162,255

[TimingPoints]
590,468.75,4,2,1,5,1,0
2465,-100,4,2,1,65,0,0
17465,-100,4,2,1,75,0,1
17582,-100,4,2,1,75,0,0
32465,-100,4,2,1,5,0,0
33871,-100,4,2,1,70,0,0
34340,-100,4,2,1,60,0,0
37152,-100,4,2,1,50,0,0
37621,-100,4,2,1,40,0,0
44652,-100,4,2,1,50,0,0
45121,-100,4,2,1,40,0,0
45590,-100,4,2,1,60,0,0
64340,-100,4,2,1,80,0,1
79222,-100,4,2,1,80,0,0
79340,-100,4,2,1,80,0,1
86371,-100,4,2,1,80,0,0
86840,-100,4,2,1,5,0,0

[Colours]
Combo1 : 107,71,216
Combo2 : 235,214,65
Combo3 : 249,104,104
Combo4 : 240,70,21
Combo5 : 34,71,200
Combo6 : 39,141,224
Combo7 : 52,230,43
Combo8 : 232,85,221

[HitObjects]
86,66,2465,2,0,B|109:139|70:158|105:229,1,160,4|0,0:0|0:0,0:0:0:0:
169,286,3168,1,0,0:0:0:0:
169,286,3636,1,0,0:0:0:0:
255,328,3871,1,0,0:0:0:0:
339,282,4105,2,0,B|391:296|429:286|429:286|452:257|505:257,1,160
255,37,5511,69,8,0:0:0:0:
255,37,5746,1,8,0:0:0:0:
255,124,5980,54,0,P|265:182|249:283,1,160
182,338,6683,2,0,P|270:325|348:341,2,160
112,283,7855,2,0,P|96:183|106:125,2,160
255,180,9261,69,8,0:0:0:0:
255,180,9496,1,8,0:0:0:0:
371,312,9965,22,0,P|425:269|425:180,1,160,4|0,0:0|0:0,0:0:0:0:
455,99,10668,2,0,P|410:98|320:16,1,160
256,83,11371,1,0,0:0:0:0:
189,26,11605,2,0,P|104:96|59:97,1,160
256,340,13011,101,8,0:0:0:0:
256,340,13246,1,8,0:0:0:0:
205,273,13480,6,0,B|173:302|173:344|173:344|91:354|17:275,1,240
19,202,14418,1,0,0:0:0:0:
56,122,14652,1,0,0:0:0:0:
143,125,14886,2,0,P|217:127|305:71,1,160
346,254,15824,2,0,P|272:252|184:308,1,160
256,105,16761,5,8,0:0:0:0:
256,105,16996,1,8,0:0:0:0:
100,141,17465,6,0,P|93:190|107:230,1,80,4|2,0:0|0:0,0:0:0:0:
136,298,17933,1,8,0:0:0:0:
212,342,18168,1,2,0:0:0:0:
299,342,18402,2,0,P|341:348|397:330,1,80,0|2,0:0|0:0,0:0:0:0:
449,267,18871,1,8,0:0:0:0:
427,181,19105,86,0,P|362:188|344:285,1,160,2|2,0:0|0:0,0:0:0:0:
85,181,20043,2,0,P|150:188|176:269,1,160,2|10,0:0|0:0,0:0:0:0:
255,308,20746,1,8,0:0:0:0:
255,131,21215,6,0,P|257:89|245:41,1,80,4|2,0:0|0:0,0:0:0:0:
161,41,21683,1,8,0:0:0:0:
80,76,21918,1,2,0:0:0:0:
76,163,22152,2,0,P|65:245|83:326,1,160,0|8,0:0|0:0,0:0:0:0:
147,262,22855,54,0,P|205:231|168:127,1,160,2|2,0:0|0:0,0:0:0:0:
365,262,23793,2,0,P|307:231|313:146,1,160,2|10,0:0|0:0,0:0:0:0:
256,79,24496,1,8,0:0:0:0:
256,79,24730,1,0,1:0:0:0:
180,32,24965,70,0,P|137:35|84:29,1,80,4|2,0:0|0:0,0:0:0:0:
40,95,25433,1,8,0:0:0:0:
100,159,25668,1,2,0:0:0:0:
184,134,25902,2,0,B|185:188|225:206|225:206|231:241|211:282,1,160,0|8,0:0|0:0,0:0:0:0:
290,320,26605,70,0,B|370:331|370:331|457:319,1,160,2|2,0:0|0:0,0:0:0:0:
448,143,27543,2,0,B|368:132|368:132|281:144,1,160,2|10,0:0|0:0,0:0:0:0:
204,164,28246,1,8,0:0:0:0:
132,214,28480,1,2,0:0:0:0:
125,301,28715,38,0,P|159:306|213:301,1,80,4|2,0:0|0:0,0:0:0:0:
256,232,29183,1,8,0:0:0:0:
307,302,29418,2,0,P|353:306|387:301,1,80,2|0,0:0|0:0,0:0:0:0:
440,231,29886,1,2,0:0:0:0:
462,145,30121,1,8,0:0:0:0:
446,58,30355,6,0,B|398:66|380:108|380:108|345:120|297:99,1,160,0|0,1:0|1:0,0:0:0:0:
66,58,31293,2,0,B|114:66|132:108|132:108|167:120|215:99,1,160,0|8,1:0|1:2,0:0:0:0:
256,174,31996,1,4,1:0:0:0:
256,192,32465,12,8,33871,0:0:0:0:
65,113,34340,70,0,P|140:125|228:114,1,160,0|8,1:0|0:0,0:0:0:0:
394,73,35277,1,8,0:0:0:0:
464,125,35511,1,0,0:0:0:0:
418,200,35746,1,8,0:0:0:0:
288,318,36215,6,0,P|245:326|198:314,1,80,0|0,1:0|0:0,0:0:0:0:
134,273,36683,1,8,0:0:0:0:
71,210,36918,1,8,0:0:0:0:
137,152,37152,2,0,L|217:152,1,80
270,222,37621,2,0,L|190:222,1,80
137,152,38090,6,0,P|132:108|139:62,1,80,0|0,1:0|0:0,0:0:0:0:
213,30,38558,1,8,0:0:0:0:
386,60,39027,2,0,P|449:55|476:63,1,80,8|0,0:0|0:0,0:0:0:0:
501,139,39496,1,8,0:0:0:0:
406,286,39965,86,0,P|357:287|299:381,1,160,0|8,0:0|0:0,0:0:0:0:
209,370,40668,2,0,P|150:285|101:284,1,160,8|0,0:0|0:0,0:0:0:0:
23,32,41840,6,0,P|69:29|108:33,1,80,2|0,0:0|0:0,0:0:0:0:
165,93,42308,1,8,0:0:0:0:
165,93,42777,2,0,P|169:140|165:178,1,80,8|0,0:0|0:0,0:0:0:0:
160,260,43246,1,0,0:0:0:0:
157,347,43480,1,0,0:0:0:0:
82,300,43715,6,0,P|46:271|26:218,1,80,0|0,0:0|0:0,0:0:0:0:
21,154,44183,1,8,0:0:0:0:
37,67,44418,1,8,0:0:0:0:
123,83,44652,2,0,P|174:86|208:81,1,80
339,37,45121,2,0,P|288:34|254:39,1,80
272,125,45590,86,0,L|291:214,1,80,0|0,1:0|0:0,0:0:0:0:
307,289,46058,1,8,0:0:0:0:
231,334,46293,2,0,P|185:344|143:339,1,80,0|8,0:0|0:0,0:0:0:0:
78,293,46761,2,0,P|59:227|81:117,1,160
154,106,47465,2,0,P|203:110|241:97,1,80
367,51,47933,2,0,P|318:47|280:60,1,80,8|8,0:0|0:0,0:0:0:0:
257,228,48636,1,0,0:0:0:0:
25,96,49340,6,0,P|70:98|114:95,1,80,4|0,0:0|0:0,0:0:0:0:
184,57,49808,1,0,1:0:0:0:
255,108,50043,1,0,0:0:0:0:
326,56,50277,1,0,0:0:0:0:
397,106,50511,2,0,P|410:172|393:263,1,160
325,319,51215,6,0,P|279:332|245:325,1,80
236,239,51683,2,0,P|282:226|316:233,1,80,0|0,1:0|0:0,0:0:0:0:
392,194,52152,2,0,P|425:156|437:112,2,80,0|8|8,0:0|0:0|0:0,0:0:0:0:
413,279,52855,1,0,1:0:0:0:
355,345,53090,86,0,P|286:363|179:332,1,160,0|0,0:0|1:0,0:0:0:0:
135,285,53793,1,0,0:0:0:0:
75,220,54027,2,0,P|68:164|81:127,1,80
135,79,54496,1,0,1:0:0:0:
214,41,54730,6,0,B|232:88|203:129|203:129|229:161|203:211,1,160
257,267,55433,1,0,1:0:0:0:
324,323,55668,1,0,0:0:0:0:
400,279,55902,2,0,P|440:290|483:277,2,80,0|8|8,0:0|0:0|0:0,0:0:0:0:
256,176,56840,22,0,L|173:175,1,80,4|0,0:0|0:0,0:0:0:0:
100,130,57308,1,8,0:0:0:0:
26,178,57543,1,0,0:0:0:0:
94,233,57777,2,0,P|90:284|103:329,2,80,0|0|8,0:0|0:0|0:0,0:0:0:0:
173,270,58480,5,0,0:0:0:0:
245,219,58715,1,2,0:0:0:0:
328,192,58949,2,0,L|416:193,1,80,0|8,0:0|0:0,0:0:0:0:
455,118,59418,2,0,L|367:119,1,80,0|0,0:0|0:0,0:0:0:0:
288,105,59886,1,8,0:0:0:0:
206,71,60121,1,8,0:0:0:0:
134,122,60355,1,0,1:0:0:0:
73,185,60590,54,0,P|66:232|79:278,1,80
142,317,61058,1,8,0:0:0:0:
142,317,61527,1,0,0:0:0:0:
218,294,61761,2,0,P|300:282|384:300,2,160
158,240,62933,1,0,1:0:0:0:
351,127,63636,5,8,0:0:0:0:
257,192,63871,1,8,1:2:0:0:
421,337,64340,102,0,B|339:318|340:353|255:334,1,160,4|8,0:0|0:0,0:0:0:0:
169,309,65043,1,2,0:0:0:0:
88,257,65277,2,0,P|85:212|89:171,1,80,0|2,0:0|0:0,0:0:0:0:
89,81,65746,1,8,0:0:0:0:
184,87,65980,6,0,B|264:72|264:111|359:87,1,160,2|2,0:0|0:0,0:0:0:0:
438,85,66683,1,8,0:0:0:0:
427,276,67152,1,0,0:0:0:0:
348,330,67386,2,0,L|262:330,1,80,10|8,0:0|0:0,0:0:0:0:
173,312,67855,1,2,0:0:0:0:
101,248,68090,6,0,P|95:208|104:163,1,80,4|2,0:0|0:0,0:0:0:0:
197,166,68558,2,0,P|203:206|196:250,1,80,8|2,0:0|0:0,0:0:0:0:
255,320,69027,2,0,B|308:320|308:320|345:352|424:345,1,160,0|8,0:0|0:0,0:0:0:0:
471,273,69730,86,0,P|484:208|465:113,1,160,2|2,0:0|0:0,0:0:0:0:
371,106,70433,1,8,0:0:0:0:
287,58,70668,2,0,P|218:44|113:57,1,160,2|10,0:0|0:0,0:0:0:0:
51,108,71371,1,8,0:0:0:0:
65,202,71605,1,2,0:0:0:0:
76,297,71840,6,0,B|124:293|158:254|158:254|204:275|212:307,1,160,4|8,0:0|0:0,0:0:0:0:
303,296,72543,2,0,B|306:276|352:255|352:255|386:294|434:298,1,160,2|2,0:0|0:0,0:0:0:0:
484,216,73246,1,8,0:0:0:0:
438,131,73480,6,0,B|404:115|367:73|367:73|337:101|289:84,1,160,2|2,0:0|0:0,0:0:0:0:
207,87,74183,2,0,B|173:99|143:71|143:71|106:113|72:129,1,160,8|0,0:0|0:0,0:0:0:0:
29,214,74886,1,10,0:0:0:0:
66,302,75121,1,8,0:0:0:0:
160,287,75355,1,2,0:0:0:0:
253,309,75590,86,0,B|299:305|325:333|325:333|361:353|426:322,1,160,4|8,0:0|0:0,0:0:0:0:
476,156,76527,1,0,1:0:0:0:
383,181,76761,2,0,P|330:191|211:176,2,160,0|2|2,1:0|0:0|0:0,0:0:0:0:
446,252,77933,5,8,0:0:0:0:
379,321,78168,2,0,B|307:314|307:351|210:322,1,160,2|2,0:0|2:0,0:0:0:0:
146,264,78871,1,8,0:0:0:0:
146,264,79340,22,0,P|138:215|156:173,1,80,4|2,0:0|0:0,0:0:0:0:
242,189,79808,2,0,P|250:238|232:280,1,80,8|2,0:0|0:0,0:0:0:0:
310,332,80277,2,0,P|386:344|479:327,1,160,0|8,0:0|0:0,0:0:0:0:
490,237,80980,5,2,0:0:0:0:
364,91,81449,1,2,0:0:0:0:
256,249,81918,1,2,0:0:0:0:
112,122,82386,1,10,0:0:0:0:
112,122,82621,1,8,0:0:0:0:
215,312,83090,102,0,P|255:321|308:304,1,80,4|2,0:0|0:0,0:0:0:0:
356,241,83558,1,8,0:0:0:0:
306,158,83793,1,2,0:0:0:0:
210,158,84027,2,0,P|143:139|56:162,1,160,2|8,0:0|0:0,0:0:0:0:
21,241,84730,69,0,1:0:0:0:
175,354,85199,1,0,1:0:0:0:
328,238,85668,1,0,1:0:0:0:
172,126,86136,37,8,1:2:0:0:
172,126,86371,1,4,1:0:0:0:
256,192,86840,12,0,89183,0:0:0:0:
