osu file format v12

[General]
AudioFilename: STYLE FIVE - Splash Free.mp3
AudioLeadIn: 0
PreviewTime: 63636
Countdown: 0
SampleSet: Soft
StackLeniency: 0.7
Mode: 0
LetterboxInBreaks: 0

[Editor]
DistanceSpacing: 1
BeatDivisor: 2
GridSize: 4

[Metadata]
Title:SPLASH FREE (TV Size)
TitleUnicode:SPLASH FREE (TV Size)
Artist:STYLE FIVE
ArtistUnicode:STYLE FIVE
Creator:Konei
Version:Easy
Source:Free!
Tags:ed ending swimming Iwatobi Swim Club Kyoto Animation irreversible
BeatmapID:274076
BeatmapSetID:104169

[Difficulty]
HPDrainRate:3
CircleSize:3
OverallDifficulty:3
ApproachRate:4
SliderMultiplier:1
SliderTickRate:1

[Events]
//Background and Video events
Video,-160,"Splashuehue.avi"
0,0,"Ahuehue.jpg",0,0
//Break Periods
//Storyboard Layer 0 (Background)
//Storyboard Layer 1 (Fail)
//Storyboard Layer 2 (Pass)
//Storyboard Layer 3 (Foreground)
//Storyboard Sound Samples
//Background Colour Transformations
3,100,163,162,255

[TimingPoints]
590,468.75,4,2,1,5,1,0
2465,-100,4,2,1,65,0,0
17465,-100,4,2,1,75,0,1
17582,-100,4,2,1,75,0,0
31996,-100,4,2,1,5,0,0
34340,-100,4,2,1,60,0,0
49340,-100,4,2,1,70,0,0
64340,-100,4,2,1,80,0,1
79222,-100,4,2,1,80,0,0
79340,-100,4,2,1,80,0,1
86371,-100,4,2,1,80,0,0
86840,-100,4,2,1,5,0,0

[Colours]
Combo1 : 107,71,216
Combo2 : 235,214,65
Combo3 : 249,104,104
Combo4 : 240,70,21
Combo5 : 34,71,200
Combo6 : 39,141,224
Combo7 : 52,230,43
Combo8 : 232,85,221

[HitObjects]
256,50,2465,1,4,0:0:0:0:
327,120,2933,2,0,L|369:158,1,50
455,178,3636,2,0,P|435:224|381:235,2,100
256,341,5511,70,0,L|256:280,1,50,8|8,0:0|0:0,0:0:0:0:
256,190,6215,2,0,P|261:124|245:77,1,100
157,59,7152,1,0,0:0:0:0:
86,191,7855,2,0,P|81:244|89:295,2,100
160,123,9261,6,0,L|210:123,1,50,8|8,0:0|0:0,0:0:0:0:
256,211,9965,21,4,0:0:0:0:
298,301,10433,2,0,P|345:257|336:156,1,150
309,82,11605,2,0,L|178:82,1,100
256,276,13011,102,0,L|256:210,1,50,8|8,0:0|0:0,0:0:0:0:
256,125,13715,2,0,P|171:102|48:128,1,200
256,192,15355,12,8,16761,0:0:0:0:
348,93,17465,22,0,P|322:136|266:158,1,100,6|8,0:0|0:0,0:0:0:0:
178,159,18402,1,2,0:0:0:0:
122,241,18871,1,8,0:0:0:0:
155,277,19105,102,0,L|267:278,1,100,2|2,0:0|0:0,0:0:0:0:
331,213,20043,2,0,L|430:213,1,100,2|10,0:0|0:0,0:0:0:0:
475,70,21215,6,0,P|428:63|372:69,1,100,6|8,0:0|0:0,0:0:0:0:
295,127,22152,1,2,0:0:0:0:
205,83,22621,1,8,0:0:0:0:
163,111,22855,54,0,P|114:118|49:105,1,100,2|2,0:0|0:0,0:0:0:0:
49,209,23793,2,0,P|41:258|48:307,1,100,2|10,0:0|0:0,0:0:0:0:
197,328,24965,54,0,P|248:335|309:325,1,100,6|8,0:0|0:0,0:0:0:0:
369,261,25902,1,2,0:0:0:0:
439,189,26371,1,8,0:0:0:0:
438,139,26605,86,0,P|442:91|425:31,1,100,2|2,0:0|0:0,0:0:0:0:
329,49,27543,2,0,P|325:97|342:157,1,100,2|10,0:0|0:0,0:0:0:0:
254,272,28715,22,0,P|205:280|141:268,1,100,6|8,0:0|0:0,0:0:0:0:
154,173,29652,2,0,P|203:165|267:177,1,100,2|8,0:0|0:0,0:0:0:0:
295,147,30355,22,0,P|343:140|411:153,1,100,0|0,1:2|1:1,0:0:0:0:
393,247,31293,2,0,P|345:254|277:241,1,100,0|8,1:0|1:2,0:0:0:0:
256,192,31996,12,0,33402,0:0:0:0:
255,66,34340,70,0,P|205:71|145:64,1,100,0|8,1:0|0:0,0:0:0:0:
72,121,35277,2,0,P|67:171|71:220,1,100,8|8,0:0|0:0,0:0:0:0:
166,254,36215,2,0,P|219:271|316:251,1,150,0|8,0:0|0:0,0:0:0:0:
474,66,38090,6,0,P|425:73|361:63,1,100,0|8,1:0|0:0,0:0:0:0:
275,53,39027,1,8,0:0:0:0:
185,98,39496,1,8,0:0:0:0:
119,173,39965,2,0,B|82:134|88:93|88:93|55:102|7:80,1,150,0|8,0:0|0:0,0:0:0:0:
42,338,41840,6,0,P|90:344|143:339,1,100,2|8,0:0|0:0,0:0:0:0:
202,260,42777,1,8,0:0:0:0:
256,176,43246,1,0,0:0:0:0:
314,257,43715,2,0,P|380:262|474:250,1,150,0|8,0:0|0:0,0:0:0:0:
256,68,45590,86,0,P|205:73|141:67,1,100,0|8,1:0|0:0,0:0:0:0:
67,114,46527,1,8,0:0:0:0:
27,205,46996,1,8,0:0:0:0:
95,277,47465,6,0,B|186:249|254:313|348:273,1,250,0|2,1:0|0:0,0:0:0:0:
446,167,49340,102,0,P|425:124|373:95,1,100,4|0,0:0|1:0,0:0:0:0:
293,49,50277,1,0,0:0:0:0:
218,115,50746,1,0,1:0:0:0:
124,79,51215,2,0,P|83:111|34:123,2,100,0|0|0,0:0|1:0|0:0,0:0:0:0:
118,279,53090,6,0,P|158:300|218:304,1,100,0|0,0:0|1:0,0:0:0:0:
255,214,54027,1,0,0:0:0:0:
300,304,54496,2,0,P|354:300|394:279,1,100,0|0,1:0|0:0,0:0:0:0:
451,197,55433,1,0,1:0:0:0:
463,97,55902,1,0,0:0:0:0:
278,174,56840,22,0,P|229:196|170:192,1,100,4|8,0:0|0:0,0:0:0:0:
89,160,57777,1,0,0:0:0:0:
66,257,58246,2,0,B|73:317|120:355|120:355|183:356|211:398,1,200,8|8,0:0|0:0,0:0:0:0:
255,300,59652,5,0,0:0:0:0:
313,382,60121,2,0,B|329:356|392:355|392:355|439:317|446:257,1,200,8|8,0:0|0:0,0:0:0:0:
441,158,61527,1,0,0:0:0:0:
256,192,61996,12,0,63285,0:0:0:0:
254,76,64340,54,0,P|307:69|374:79,1,100,4|8,0:0|0:0,0:0:0:0:
357,173,65277,2,0,P|304:180|237:170,1,100,2|8,0:0|0:0,0:0:0:0:
157,171,66215,1,2,0:0:0:0:
71,222,66683,2,0,P|63:276|77:338,1,100,8|2,0:0|0:0,0:0:0:0:
168,342,67621,1,8,0:0:0:0:
256,294,68090,6,0,L|363:294,1,100,6|8,0:0|0:0,0:0:0:0:
368,194,69027,2,0,L|477:194,1,100,2|8,0:0|0:0,0:0:0:0:
503,100,69965,1,2,0:0:0:0:
417,49,70433,1,8,0:0:0:0:
338,111,70902,2,0,P|287:117|230:111,1,100,2|8,0:0|0:0,0:0:0:0:
154,167,71840,6,0,P|148:218|153:266,1,100,4|8,0:0|0:0,0:0:0:0:
217,342,72777,1,2,0:0:0:0:
306,296,73246,1,8,0:0:0:0:
401,326,73715,1,2,0:0:0:0:
470,254,74183,2,0,P|475:209|463:146,1,100,8|2,0:0|0:0,0:0:0:0:
376,111,75121,1,8,0:0:0:0:
285,68,75590,86,0,P|183:95|82:57,1,200,4|2,0:0|0:0,0:0:0:0:
58,99,76761,2,0,P|54:152|63:208,1,100,0|0,1:0|1:0,0:0:0:0:
236,293,78168,2,0,P|240:240|231:184,1,100,2|10,0:0|0:0,0:0:0:0:
353,101,79340,38,0,P|402:97|473:104,1,100,6|8,0:0|0:0,0:0:0:0:
484,195,80277,1,2,0:0:0:0:
432,280,80746,2,0,P|407:309|377:322,1,50,8|2,0:0|0:0,0:0:0:0:
297,323,81449,1,2,0:0:0:0:
213,267,81918,1,2,0:0:0:0:
135,329,82386,2,0,L|75:335,1,50,8|8,0:0|0:0,0:0:0:0:
39,244,83090,6,0,P|33:196|36:136,1,100,6|8,0:0|0:0,0:0:0:0:
106,74,84027,1,2,0:0:0:0:
195,118,84496,1,8,0:0:0:0:
235,147,84730,54,0,P|284:152|354:140,2,100,0|0|0,1:0|1:0|1:0,0:0:0:0:
156,208,86136,2,0,L|109:254,1,50,8|4,0:0|1:0,0:0:0:0:
256,192,86840,12,0,89183,0:0:0:0:
