osu file format v13

[General]
AudioFilename: ugu.mp3
AudioLeadIn: 0
PreviewTime: 51267
Countdown: 0
SampleSet: Soft
StackLeniency: 0.7
Mode: 0
LetterboxInBreaks: 0
WidescreenStoryboard: 0

[Editor]
DistanceSpacing: 1.1
BeatDivisor: 4
GridSize: 4
TimelineZoom: 1.6

[Metadata]
Title:FUTURE FISH
TitleUnicode:FUTURE FISH
Artist:STYLE FIVE
ArtistUnicode:STYLE FIVE
Creator:Yasora
Version:Normal
Source:Free! Eternal Summer
Tags:ending kyoto animation kyoani Nanase Haruka Matsuoka Rin Hazuki Nagisa Ryuugazaki Rei Tachibana Makoto
BeatmapID:456861
BeatmapSetID:191948

[Difficulty]
HPDrainRate:4
CircleSize:3
OverallDifficulty:4
ApproachRate:5
SliderMultiplier:1.2
SliderTickRate:1

[Events]
//Background and Video events
0,0,"huehue.jpg",0,0
Video,0,"ulululu.avi"
//Break Periods
//Storyboard Layer 0 (Background)
//Storyboard Layer 1 (Fail)
//Storyboard Layer 2 (Pass)
//Storyboard Layer 3 (Foreground)
//Storyboard Sound Samples
//Background Colour Transformations
3,100,163,162,255

[TimingPoints]
2121,368.098159509202,4,2,1,70,1,0
13900,-100,4,2,1,60,0,0
19605,-100,4,2,1,40,0,0
19973,-100,4,2,1,60,0,0
52182,-100,4,2,1,80,0,1
62489,-100,4,2,1,80,0,0
62673,-100,4,2,1,60,0,0
63961,-100,4,2,1,80,0,1
74636,-100,4,2,1,50,0,0
75740,-100,4,2,1,70,0,0
86691,-100,4,2,1,20,0,0

[Colours]
Combo1 : 255,106,181
Combo2 : 0,64,128
Combo3 : 255,128,64
Combo4 : 0,128,64

[HitObjects]
424,192,2120,6,0,P|384:232|320:244,1,120,4|8,0:0|0:0,0:0:0:0:
256,236,2673,1,0,0:0:0:0:
212,188,2857,2,0,P|200:132|192:108,2,60,2|0|8,0:0|0:0|0:0,0:0:0:0:
156,308,3593,5,2,0:0:0:0:
280,356,3961,1,8,0:0:0:0:
404,308,4329,1,2,0:0:0:0:
280,356,4697,1,8,0:0:0:0:
156,308,5065,6,0,P|148:236|160:180,1,120,2|8,0:0|0:0,0:0:0:0:
160,56,5801,2,0,P|196:60|236:76,1,60,2|0,0:0|0:0,0:0:0:0:
284,68,6170,2,0,P|316:60|344:60,1,60,8|0,0:0|0:0,0:0:0:0:
408,68,6538,6,0,P|424:128|404:196,1,120,2|8,0:0|0:0,0:0:0:0:
364,308,7274,1,2,0:0:0:0:
300,308,7458,2,0,L|228:308,1,60,0|8,0:0|0:0,0:0:0:0:
108,308,8010,6,0,P|100:240|112:176,1,120,4|8,0:0|0:0,0:0:0:0:
128,128,8562,1,0,0:0:0:0:
172,80,8746,2,0,P|204:72|248:72,2,60,2|0|8,0:0|0:0|0:0,0:0:0:0:
220,204,9482,5,2,0:0:0:0:
296,312,9851,1,8,0:0:0:0:
392,220,10219,1,2,0:0:0:0:
296,312,10587,1,8,0:0:0:0:
220,204,10955,6,0,P|164:224|100:220,1,120,2|8,0:0|0:0,0:0:0:0:
40,108,11691,2,0,P|40:84|52:32,1,60,2|0,0:0|0:0,0:0:0:0:
112,40,12059,2,0,P|152:40|200:32,1,60,8|0,0:0|0:0,0:0:0:0:
236,32,12427,6,0,P|292:20|352:56,1,120,2|8,0:0|0:0,0:0:0:0:
420,156,13163,1,0,0:0:0:0:
408,220,13347,1,0,0:0:0:0:
384,280,13532,2,0,P|352:287|312:284,1,60,8|0,0:0|0:0,0:0:0:0:
260,284,13900,6,0,P|208:308|144:300,2,120,4|8|2,0:0|0:0|0:0,0:0:0:0:
336,176,15004,2,0,P|392:152|452:164,2,120,8|2|8,0:0|0:0|0:0,0:0:0:0:
204,172,16108,2,0,P|180:112|196:44,1,120,2|8,0:0|0:0,0:0:0:0:
320,52,16844,6,0,P|380:36|432:60,1,120,2|8,0:0|0:0,0:0:0:0:
468,116,17397,1,0,0:0:0:0:
472,180,17581,1,2,0:0:0:0:
404,292,17949,1,8,0:0:0:0:
272,284,18317,6,0,P|272:244|280:216,1,60,2|0,0:0|0:0,0:0:0:0:
292,160,18685,2,0,P|292:112|280:80,1,60,8|0,0:0|0:0,0:0:0:0:
224,96,19053,2,0,P|200:148|188:216,1,120,2|8,0:0|0:0,0:0:0:0:
188,276,19605,2,0,P|196:320|208:344,1,60,0|0,1:0|1:0,0:0:0:0:
332,356,20157,5,8,0:0:0:0:
416,256,20525,2,0,P|404:192|380:140,1,120,2|8,0:0|0:0,0:0:0:0:
344,88,21078,1,0,0:0:0:0:
280,104,21262,6,0,P|224:116|156:104,1,120,2|8,0:0|0:0,0:0:0:0:
32,124,21998,2,0,P|32:168|48:204,1,60,2|0,0:0|0:0,0:0:0:0:
52,248,22366,2,0,P|64:284|88:324,1,60,8|0,0:0|0:0,0:0:0:0:
124,344,22734,6,0,P|180:356|244:340,1,120,2|8,0:0|0:0,0:0:0:0:
344,260,23470,1,2,0:0:0:0:
356,128,23838,2,0,L|272:120,1,60,8|0,0:0|0:0,0:0:0:0:
232,116,24206,5,2,0:0:0:0:
184,240,24574,1,8,0:0:0:0:
100,140,24943,1,2,0:0:0:0:
184,240,25311,1,8,0:0:0:0:
100,140,25679,6,0,P|64:136|36:140,1,60,4|2,0:0|0:0,0:0:0:0:
44,272,26231,2,0,P|80:276|108:272,1,60,2|2,0:0|0:0,0:0:0:0:
200,180,26783,2,0,L|188:104,1,60,8|2,0:0|0:0,0:0:0:0:
320,152,27335,6,0,L|332:224,1,60,2|8,0:0|0:0,0:0:0:0:
344,276,27703,2,0,P|400:288|460:252,1,120,2|0,0:0|0:0,0:0:0:0:
488,204,28255,1,8,0:0:0:0:
428,88,28624,6,0,P|372:76|312:108,1,120,2|8,0:0|0:0,0:0:0:0:
232,204,29360,1,2,0:0:0:0:
344,276,29728,2,0,P|356:248|364:204,1,60,8|0,0:0|0:0,0:0:0:0:
352,156,30096,6,0,P|320:104|264:80,1,120,2|8,0:0|0:0,0:0:0:0:
136,96,30832,2,0,P|112:136|104:168,1,60,2|0,0:0|0:0,0:0:0:0:
104,216,31200,2,0,P|112:252|128:280,1,60,8|0,0:0|0:0,0:0:0:0:
160,324,31568,6,0,L|224:296,1,60,4|2,0:0|0:0,0:0:0:0:
344,276,32120,2,0,L|424:312,1,60,2|2,0:0|0:0,0:0:0:0:
364,172,32673,2,0,L|284:136,1,60,8|2,0:0|0:0,0:0:0:0:
200,72,33225,6,0,P|180:100|172:140,1,60,2|8,0:0|0:0,0:0:0:0:
164,188,33593,2,0,P|160:248|180:308,1,120,2|0,0:0|0:0,0:0:0:0:
212,360,34145,1,8,0:0:0:0:
336,316,34513,6,0,P|392:312|440:268,1,120,2|8,0:0|0:0,0:0:0:0:
472,144,35249,1,2,0:0:0:0:
380,48,35617,2,0,P|344:52|316:76,1,60,8|0,0:0|0:0,0:0:0:0:
276,112,35986,6,0,P|232:152|168:160,1,120,2|8,0:0|0:0,0:0:0:0:
176,28,36722,1,2,0:0:0:0:
276,112,37090,2,0,L|280:196,1,60,8|0,0:0|0:0,0:0:0:0:
284,236,37458,6,0,P|332:284|384:288,2,120,2|4|0,0:0|0:0|0:0,0:0:0:0:
220,224,38378,2,0,P|188:212|148:212,1,60,4|0,0:0|0:0,0:0:0:0:
96,204,38746,2,0,P|84:144|88:80,1,120,4|2,0:0|0:0,0:0:0:0:
128,32,39298,1,8,0:0:0:0:
188,56,39482,2,0,P|248:64|312:40,1,120,2|0,0:0|0:0,0:0:0:0:
368,32,40035,2,0,P|376:68|392:104,1,60,8|0,0:0|0:0,0:0:0:0:
404,152,40403,6,0,L|388:292,1,120,4|8,0:0|0:0,0:0:0:0:
272,328,41139,1,2,0:0:0:0:
148,280,41507,2,0,L|136:204,1,60,8|0,0:0|0:0,0:0:0:0:
124,156,41875,2,0,L|100:28,2,120,2|8|2,0:0|0:0|0:0,0:0:0:0:
256,136,42979,2,0,L|268:216,1,60,8|0,0:0|0:0,0:0:0:0:
300,252,43347,6,0,P|360:260|416:232,2,120,2|4|0,0:0|0:0|0:0,0:0:0:0:
232,248,44268,2,0,P|196:248|164:268,1,60,4|0,0:0|0:0,0:0:0:0:
128,304,44636,2,0,P|72:312|28:252,1,120,4|2,0:0|0:0,0:0:0:0:
28,204,45188,1,8,0:0:0:0:
28,140,45372,2,0,P|67:98|125:105,1,120,2|0,0:0|0:0,0:0:0:0:
188,124,45924,2,0,L|268:108,1,60,8|0,0:0|0:0,0:0:0:0:
312,104,46292,6,0,P|332:168|336:232,1,120,4|8,0:0|0:0,0:0:0:0:
252,320,47028,1,2,0:0:0:0:
120,336,47397,2,0,P|124:292|136:264,1,60,8|0,0:0|0:0,0:0:0:0:
164,220,47765,2,0,P|192:160|196:92,2,120,2|8|2,0:0|0:0|0:0,0:0:0:0:
292,256,48869,2,0,P|308:216|312:184,1,60,8|0,0:0|0:0,0:0:0:0:
320,136,49237,5,4,0:0:0:0:
128,88,49789,1,4,0:0:0:0:
164,284,50341,1,8,0:0:0:0:
164,284,50709,2,0,L|145:351,2,60,4|2|2,0:0|0:0|0:0,0:0:0:0:
280,224,51446,6,0,L|352:244,1,60,0|0,0:0|0:0,0:0:0:0:
404,252,51814,2,0,P|416:216|420:172,1,60,0|0,0:0|0:0,0:0:0:0:
408,128,52182,6,0,L|284:96,1,120,4|8,0:0|0:0,0:0:0:0:
160,120,52918,1,2,0:0:0:0:
96,236,53286,2,0,P|108:272|128:312,1,60,8|0,0:0|0:0,0:0:0:0:
168,336,53654,2,0,P|224:344|296:336,1,120,2|8,0:0|0:0,0:0:0:0:
388,256,54390,1,2,0:0:0:0:
400,124,54759,2,0,P|364:124|332:140,1,60,8|0,0:0|0:0,0:0:0:0:
284,160,55127,6,0,P|224:176|164:156,1,120,2|8,0:0|0:0,0:0:0:0:
76,64,55863,1,2,0:0:0:0:
56,196,56231,2,0,P|56:244|64:272,1,60,8|0,0:0|0:0,0:0:0:0:
88,316,56599,2,0,P|140:296|204:304,1,120,2|8,0:0|0:0,0:0:0:0:
328,340,57335,1,2,0:0:0:0:
428,252,57703,2,0,P|436:200|436:168,1,60,8|0,0:0|0:0,0:0:0:0:
416,128,58071,6,0,P|384:112|348:108,1,60,4|0,0:0|0:0,0:0:0:0:
296,108,58440,2,0,L|148:116,1,120,8|2,0:0|0:0,0:0:0:0:
76,200,59176,1,8,0:0:0:0:
136,316,59544,2,0,P|200:312|244:260,1,120,2|8,0:0|0:0,0:0:0:0:
340,188,60280,1,2,0:0:0:0:
404,180,60464,2,0,L|473:173,2,60,8|8|0,0:0|0:0|0:0,0:0:0:0:
340,188,61016,6,0,P|284:196|224:152,1,120,4|8,0:0|0:0,0:0:0:0:
100,148,61752,2,0,P|108:212|144:268,1,120,2|8,0:0|0:0,0:0:0:0:
184,304,62305,1,0,0:0:0:0:
244,332,62489,2,0,L|316:360,2,60,2|0|0,0:0|1:0|1:0,0:0:0:0:
216,204,63225,6,0,P|248:208|280:204,1,60,2|0,0:0|0:0,0:0:0:0:
316,152,63593,2,0,P|348:148|388:156,1,60,8|0,0:0|0:0,0:0:0:0:
436,176,63961,6,0,P|432:240|416:296,1,120,4|8,0:0|0:0,0:0:0:0:
292,340,64697,1,2,0:0:0:0:
168,292,65065,2,0,P|156:252|152:216,1,60,8|0,0:0|0:0,0:0:0:0:
148,168,65433,2,0,B|204:144|216:200|272:172,1,120,2|8,0:0|0:0,0:0:0:0:
384,116,66170,1,2,0:0:0:0:
456,228,66538,2,0,P|448:276|440:304,1,60,8|0,0:0|0:0,0:0:0:0:
404,340,66906,6,0,B|364:308|340:360|288:324,1,120,2|8,0:0|0:0,0:0:0:0:
164,288,67642,1,2,0:0:0:0:
92,180,68010,2,0,P|128:164|172:168,1,60,8|0,0:0|0:0,0:0:0:0:
212,152,68378,2,0,L|352:136,1,120,2|8,0:0|0:0,0:0:0:0:
396,132,68930,2,0,P|408:204|396:268,1,120,2|2,0:0|0:0,0:0:0:0:
376,312,69482,2,0,P|344:312|300:340,1,60,8|0,0:0|0:0,0:0:0:0:
260,352,69851,6,0,P|224:348|188:328,1,60,4|0,0:0|0:0,0:0:0:0:
148,300,70219,2,0,P|132:244|140:172,1,120,8|2,0:0|0:0,0:0:0:0:
204,68,70955,2,0,L|292:76,1,60,8|0,0:0|0:0,0:0:0:0:
328,84,71323,2,0,P|356:136|368:200,1,120,2|8,0:0|0:0,0:0:0:0:
392,256,71875,2,0,L|472:244,2,60,0|2|8,0:0|0:0|0:0,0:0:0:0:
328,264,72427,1,8,0:0:0:0:
204,220,72795,6,0,P|200:280|164:336,1,120,4|8,0:0|0:0,0:0:0:0:
104,328,73347,2,0,P|73:276|69:217,1,120,2|2,0:0|0:0,0:0:0:0:
84,152,73900,2,0,P|140:132|204:160,1,120,8|2,0:0|0:0,0:0:0:0:
312,88,74636,1,0,0:0:0:0:
412,172,75004,5,2,0:0:0:0:
420,236,75188,1,2,0:0:0:0:
400,300,75372,2,0,P|364:312|332:312,1,60,0|2,0:0|0:0,0:0:0:0:
276,312,75740,6,0,P|212:296|160:248,1,120,4|8,0:0|0:0,0:0:0:0:
132,208,76292,1,0,0:0:0:0:
100,148,76476,2,0,P|60:148|28:156,2,60,2|0|8,0:0|0:0|0:0,0:0:0:0:
208,68,77213,5,2,0:0:0:0:
284,176,77581,1,8,0:0:0:0:
384,88,77949,1,2,0:0:0:0:
284,176,78317,1,8,0:0:0:0:
384,88,78685,6,0,P|412:144|412:216,1,120,2|8,0:0|0:0,0:0:0:0:
384,328,79421,2,0,P|349:324|315:315,1,60,2|0,0:0|0:0,0:0:0:0:
268,288,79789,2,0,P|228:292|196:308,1,60,8|0,0:0|0:0,0:0:0:0:
152,332,80157,6,0,P|124:264|124:192,1,120,2|8,0:0|0:0,0:0:0:0:
160,92,80894,1,2,0:0:0:0:
224,104,81078,2,0,L|300:116,1,60,0|8,0:0|0:0,0:0:0:0:
408,76,81630,6,0,P|412:144|384:196,1,120,4|8,0:0|0:0,0:0:0:0:
352,244,82182,1,0,0:0:0:0:
308,292,82366,2,0,P|304:328|312:368,2,60,2|0|8,0:0|0:0|0:0,0:0:0:0:
196,220,83102,5,2,0:0:0:0:
116,116,83470,1,8,0:0:0:0:
244,92,83838,1,2,0:0:0:0:
196,220,84206,1,8,0:0:0:0:
64,232,84574,6,0,P|80:296|124:332,1,120,2|8,0:0|0:0,0:0:0:0:
184,332,85127,2,0,P|232:308|264:308,1,60,0|2,0:0|0:0,0:0:0:0:
304,316,85495,2,0,P|340:332|376:324,1,60,0|8,0:0|0:0,0:0:0:0:
424,312,85863,2,0,P|428:244|416:184,1,120,2|2,0:0|0:0,0:0:0:0:
400,128,86415,2,0,L|320:120,1,60,8|4,0:0|0:0,0:0:0:0:
256,192,86691,12,0,87887,0:0:0:0:
