osu file format v13

[General]
AudioFilename: ugu.mp3
AudioLeadIn: 0
PreviewTime: 51267
Countdown: 0
SampleSet: Soft
StackLeniency: 0.7
Mode: 0
LetterboxInBreaks: 0
WidescreenStoryboard: 0

[Editor]
DistanceSpacing: 1.2
BeatDivisor: 4
GridSize: 4
TimelineZoom: 1.6

[Metadata]
Title:FUTURE FISH
TitleUnicode:FUTURE FISH
Artist:STYLE FIVE
ArtistUnicode:STYLE FIVE
Creator:Yasora
Version:Insane
Source:Free! Eternal Summer
Tags:ending kyoto animation kyoani Nanase Haruka Matsuoka Rin Hazuki Nagisa Ryuugazaki Rei Tachibana Makoto
BeatmapID:456667
BeatmapSetID:191948

[Difficulty]
HPDrainRate:7
CircleSize:4
OverallDifficulty:7
ApproachRate:8.5
SliderMultiplier:1.8
SliderTickRate:1

[Events]
//Background and Video events
0,0,"huehue.jpg",0,0
Video,0,"ulululu.avi"
//Break Periods
//Storyboard Layer 0 (Background)
//Storyboard Layer 1 (Fail)
//Storyboard Layer 2 (Pass)
//Storyboard Layer 3 (Foreground)
//Storyboard Sound Samples
//Background Colour Transformations
3,100,163,162,255

[TimingPoints]
2121,368.098159509202,4,2,1,70,1,0
13900,-100,4,2,1,60,0,0
52182,-100,4,2,1,80,0,1
62489,-100,4,2,1,80,0,0
62672,-100,4,2,1,60,0,0
63961,-100,4,2,1,80,0,1
74636,-200,4,2,1,50,0,0
75740,-100,4,2,1,70,0,0
86691,-100,4,2,1,20,0,0

[Colours]
Combo1 : 255,106,181
Combo2 : 0,64,128
Combo3 : 255,128,64
Combo4 : 0,128,64

[HitObjects]
41,76,2120,6,0,L|138:62,1,90,4|0,0:0|0:0,0:0:0:0:
204,144,2489,2,0,P|212:204|224:240,1,90,8|0,0:0|0:0,0:0:0:0:
419,271,2857,1,2,0:0:0:0:
304,320,3041,1,0,0:0:0:0:
407,147,3225,2,0,P|399:87|387:51,1,90,8|2,0:0|0:0,0:0:0:0:
221,57,3593,6,0,P|208:100|204:144,1,90,2|2,0:0|0:0,0:0:0:0:
304,216,3961,1,8,0:0:0:0:
183,337,4145,2,0,P|138:335|87:317,1,90,2|2,0:0|0:0,0:0:0:0:
53,196,4513,1,8,0:0:0:0:
102,68,4697,1,8,0:0:0:0:
102,68,4789,1,0,0:0:0:0:
102,68,4881,1,0,0:0:0:0:
225,115,5065,6,0,P|261:142|304:156,1,90,2|0,0:0|0:0,0:0:0:0:
420,208,5433,1,8,0:0:0:0:
308,295,5617,1,0,0:0:0:0:
304,156,5801,1,2,0:0:0:0:
424,288,5986,2,0,P|420:336|392:380,1,90,0|8,0:0|0:0,0:0:0:0:
308,296,6354,1,0,0:0:0:0:
220,368,6538,6,0,P|196:272|248:200,1,180,2|8,0:0|0:0,0:0:0:0:
108,80,7090,2,0,L|124:184,1,90,0|2,0:0|0:0,0:0:0:0:
100,284,7458,1,0,0:0:0:0:
224,152,7642,1,8,0:0:0:0:
248,136,7734,1,0,0:0:0:0:
272,120,7826,1,0,0:0:0:0:
296,104,7918,1,0,0:0:0:0:
320,88,8010,6,0,P|352:144|384:168,1,90,4|0,0:0|0:0,0:0:0:0:
484,296,8378,2,0,L|388:296,1,90,8|0,0:0|0:0,0:0:0:0:
304,240,8746,1,2,0:0:0:0:
252,336,8930,1,0,0:0:0:0:
116,228,9114,2,0,P|164:220|208:244,1,90,8|2,0:0|0:0,0:0:0:0:
144,336,9482,6,0,P|96:344|52:320,1,90,2|2,0:0|0:0,0:0:0:0:
40,212,9851,1,8,0:0:0:0:
96,120,10035,1,2,0:0:0:0:
200,88,10219,2,0,L|296:96,1,90,2|8,0:0|0:0,0:0:0:0:
376,272,10587,1,8,0:0:0:0:
376,272,10679,1,0,0:0:0:0:
376,272,10771,1,0,0:0:0:0:
432,184,10955,5,2,0:0:0:0:
392,80,11139,1,0,0:0:0:0:
280,240,11323,2,0,P|272:288|288:328,1,90,8|0,0:0|0:0,0:0:0:0:
296,136,11691,1,2,0:0:0:0:
200,80,11875,1,0,0:0:0:0:
160,184,12059,1,8,0:0:0:0:
184,40,12243,1,0,0:0:0:0:
176,224,12427,6,0,L|160:320,1,90,2|0,0:0|0:0,0:0:0:0:
296,344,12795,2,0,L|320:360,4,22.5,8|0|0|0|0,0:0|0:0|0:0|0:0|0:0,0:0:0:0:
280,240,13163,1,0,0:0:0:0:
248,112,13347,1,0,0:0:0:0:
272,88,13440,1,0,0:0:0:0:
304,80,13532,1,8,0:0:0:0:
336,88,13624,1,0,0:0:0:0:
360,112,13716,1,0,0:0:0:0:
368,144,13808,1,0,0:0:0:0:
376,176,13900,6,0,P|376:224|368:280,1,90,4|0,0:0|0:0,0:0:0:0:
240,344,14268,1,8,0:0:0:0:
128,176,14452,2,0,L|224:192,1,90,0|0,1:0|0:0,0:0:0:0:
344,288,14820,1,0,1:0:0:0:
128,344,15004,2,0,P|116:304|124:248,1,90,8|0,0:0|0:0,0:0:0:0:
72,84,15372,5,2,0:0:0:0:
164,32,15556,1,0,0:0:0:0:
224,124,15740,2,0,P|236:164|228:220,1,90,8|0,0:0|1:0,0:0:0:0:
128,176,16108,1,0,0:0:0:0:
316,64,16292,1,0,1:0:0:0:
416,144,16476,6,0,P|416:232|360:320,1,180,8|2,0:0|0:0,0:0:0:0:
256,288,17028,1,0,0:0:0:0:
140,272,17213,2,0,P|140:316|164:368,2,90,8|0|0,0:0|1:0|0:0,0:0:0:0:
84,180,17765,1,0,1:0:0:0:
124,80,17949,2,0,L|228:48,1,90,8|0,0:0|0:0,0:0:0:0:
328,52,18317,5,2,0:0:0:0:
272,148,18501,1,0,0:0:0:0:
352,304,18685,2,0,P|368:232|368:192,2,90,8|0|2,0:0|1:0|0:0,0:0:0:0:
176,280,19237,1,0,1:0:0:0:
292,200,19421,1,8,0:0:0:0:
256,344,19605,1,0,1:0:0:0:
104,216,19789,6,0,P|104:152|112:104,1,90,0|0,1:0|0:0,0:0:0:0:
200,72,20157,1,8,0:0:0:0:
384,192,20341,2,0,P|384:248|376:288,1,90,0|0,1:0|0:0,0:0:0:0:
268,248,20709,1,0,1:0:0:0:
356,100,20894,2,0,P|404:96|448:120,1,90,8|0,0:0|0:0,0:0:0:0:
384,192,21262,5,2,0:0:0:0:
200,144,21446,1,0,0:0:0:0:
384,192,21630,1,8,0:0:0:0:
232,232,21814,1,0,1:0:0:0:
356,100,21998,2,0,P|300:92|252:108,1,90,0|0,0:0|1:0,0:0:0:0:
408,288,22366,2,0,P|451:296|495:288,1,90,8|0,0:0|1:0,0:0:0:0:
304,320,22734,5,0,1:0:0:0:
192,328,22918,2,0,P|160:296|128:256,1,90,0|8,0:0|0:0,0:0:0:0:
80,168,23286,1,0,1:0:0:0:
256,112,23470,2,0,P|248:192|240:240,2,90,0|0|8,0:0|1:0|0:0,0:0:0:0:
152,80,24022,1,0,0:0:0:0:
80,168,24206,6,0,P|96:216|128:256,1,90,2|0,0:0|0:0,0:0:0:0:
216,296,24574,2,0,B|272:256|328:336|400:272,1,180,8|2,0:0|0:0,0:0:0:0:
288,120,25127,2,0,P|304:168|344:208,1,90,0|8,0:0|0:0,0:0:0:0:
400,112,25495,1,0,0:0:0:0:
192,72,25679,6,0,P|184:128|192:176,1,90,4|2,0:0|0:0,0:0:0:0:
240,256,26047,1,8,0:0:0:0:
80,152,26231,2,0,P|88:208|120:256,1,90,2|2,0:0|0:0,0:0:0:0:
224,296,26599,1,0,0:0:0:0:
376,368,26783,2,0,P|368:312|336:264,1,90,8|2,0:0|0:0,0:0:0:0:
224,224,27151,5,2,0:0:0:0:
300,112,27335,1,0,0:0:0:0:
348,236,27519,1,8,0:0:0:0:
224,128,27703,2,0,P|258:45|351:54,1,180,2|0,0:0|0:0,0:0:0:0:
436,92,28255,1,8,0:0:0:0:
436,92,28347,1,0,0:0:0:0:
436,92,28440,1,0,0:0:0:0:
408,200,28624,5,2,0:0:0:0:
456,344,28808,1,0,0:0:0:0:
400,184,28992,1,8,0:0:0:0:
312,304,29176,5,0,0:0:0:0:
192,352,29360,1,2,0:0:0:0:
328,296,29544,1,0,0:0:0:0:
208,208,29728,5,8,0:0:0:0:
168,96,29912,1,0,0:0:0:0:
216,224,30096,1,2,0:0:0:0:
88,67,30280,6,0,P|84:115|112:163,1,90,0|8,0:0|0:0,0:0:0:0:
256,152,30648,1,0,1:0:0:0:
336,72,30832,1,0,0:0:0:0:
224,48,31016,1,0,1:0:0:0:
368,160,31200,5,8,0:0:0:0:
328,40,31384,1,0,0:0:0:0:
256,152,31568,1,4,0:0:0:0:
392,320,31752,6,0,P|416:288|424:232,1,90,2|8,0:0|0:0,0:0:0:0:
256,248,32120,1,2,0:0:0:0:
120,336,32305,2,0,L|232:336,1,90,2|0,0:0|0:0,0:0:0:0:
176,184,32673,2,0,L|64:184,1,90,8|2,0:0|0:0,0:0:0:0:
256,248,33041,6,0,P|272:288|312:320,1,90,2|0,0:0|0:0,0:0:0:0:
424,240,33409,1,8,0:0:0:0:
428,108,33593,2,0,P|340:84|256:116,1,180,2|0,0:0|0:0,0:0:0:0:
112,120,34145,1,8,0:0:0:0:
112,120,34237,1,0,0:0:0:0:
112,120,34329,1,0,0:0:0:0:
192,192,34513,5,2,0:0:0:0:
64,224,34697,1,0,0:0:0:0:
256,272,34881,1,8,0:0:0:0:
32,320,35065,1,0,1:0:0:0:
160,336,35249,2,0,L|248:368,1,90,0|0,0:0|1:0,0:0:0:0:
312,192,35617,1,8,0:0:0:0:
416,88,35801,6,0,P|328:64|256:112,1,180,2|0,0:0|0:0,0:0:0:0:
257,109,36262,1,0,0:0:0:0:
257,109,36354,1,8,0:0:0:0:
376,288,36538,2,0,P|412:244|420:208,1,90,0|2,0:0|0:0,0:0:0:0:
312,192,36906,5,0,0:0:0:0:
160,224,37090,1,8,0:0:0:0:
264,336,37274,1,0,0:0:0:0:
184,144,37458,6,0,P|140:140|100:164,1,90,2|0,0:0|0:0,0:0:0:0:
80,216,37734,1,0,0:0:0:0:
96,272,37826,2,0,P|152:308|236:248,1,180,4|0,0:0|0:0,0:0:0:0:
344,120,38378,2,0,P|296:112|248:144,1,90,4|0,0:0|0:0,0:0:0:0:
444,196,38746,6,0,P|464:104|416:24,1,180,4|0,0:0|0:0,0:0:0:0:
344,120,39298,1,8,0:0:0:0:
304,226,39482,2,0,P|336:312|420:344,1,180,2|2,0:0|0:0,0:0:0:0:
200,208,40035,1,8,0:0:0:0:
232,316,40219,1,0,0:0:0:0:
240,104,40403,6,0,P|200:80|144:72,1,90,4|0,0:0|0:0,0:0:0:0:
200,208,40771,2,0,P|240:216|304:200,1,90,8|0,0:0|0:0,0:0:0:0:
352,120,41139,1,2,0:0:0:0:
240,104,41323,1,2,0:0:0:0:
200,208,41507,1,8,0:0:0:0:
280,288,41691,1,0,0:0:0:0:
372,240,41875,5,2,0:0:0:0:
288,184,42059,1,2,0:0:0:0:
196,240,42243,1,8,0:0:0:0:
200,344,42427,1,0,0:0:0:0:
200,344,42519,1,0,0:0:0:0:
200,344,42611,1,2,0:0:0:0:
352,352,42795,5,0,0:0:0:0:
288,184,42979,1,8,0:0:0:0:
200,344,43163,1,0,0:0:0:0:
372,240,43347,6,0,P|388:196|384:148,1,90,2|0,0:0|0:0,0:0:0:0:
364,104,43624,1,0,0:0:0:0:
328,64,43716,2,0,P|244:56|176:120,1,180,4|0,0:0|0:0,0:0:0:0:
112,264,44268,2,0,P|152:272|192:248,1,90,4|0,0:0|0:0,0:0:0:0:
64,192,44636,6,0,P|28:280|80:344,1,180,4|0,0:0|0:0,0:0:0:0:
112,264,45188,1,8,0:0:0:0:
152,96,45372,2,0,B|136:144|148:184|148:184|192:204|200:256,1,180,2|2,0:0|0:0,0:0:0:0:
212,288,45832,1,0,0:0:0:0:
224,320,45924,1,8,0:0:0:0:
320,272,46108,1,0,0:0:0:0:
376,160,46292,5,4,0:0:0:0:
344,56,46476,2,0,L|232:72,1,90,0|8,0:0|0:0,0:0:0:0:
152,96,46844,2,0,P|144:136|144:192,1,90,2|0,0:0|0:0,0:0:0:0:
152,224,47120,1,0,0:0:0:0:
160,256,47213,1,2,0:0:0:0:
168,288,47305,1,0,0:0:0:0:
176,320,47397,2,0,L|280:336,1,90,8|0,0:0|0:0,0:0:0:0:
441,283,47765,6,0,L|352:272,1,90,2|0,0:0|0:0,0:0:0:0:
288,184,48133,1,8,0:0:0:0:
248,80,48317,1,2,0:0:0:0:
248,80,48409,1,0,0:0:0:0:
248,80,48501,2,0,P|212:100|184:144,1,90,0|2,0:0|0:0,0:0:0:0:
352,96,48869,2,0,L|448:80,1,90,8|0,0:0|0:0,0:0:0:0:
376,216,49237,6,0,P|328:272|216:240,1,180,4|0,0:0|0:0,0:0:0:0:
64,96,49789,2,0,P|144:96|172:192,1,180,4|0,0:0|0:0,0:0:0:0:
96,248,50341,2,0,L|104:152,1,90,4|0,0:0|0:0,0:0:0:0:
256,304,50709,5,4,0:0:0:0:
104,288,50894,1,2,0:0:0:0:
200,144,51078,1,2,0:0:0:0:
224,128,51446,5,0,0:0:0:0:
336,248,51630,1,0,0:0:0:0:
288,64,51814,1,0,0:0:0:0:
256,216,51998,1,0,0:0:0:0:
400,320,52182,6,0,P|420:288|426:233,1,90,4|0,0:0|0:0,0:0:0:0:
440,88,52550,2,0,B|384:88|384:88|336:144|256:112,1,180,8|2,0:0|0:0,0:0:0:0:
72,88,53102,2,0,P|108:57|160:56,1,90,0|8,0:0|0:0,0:0:0:0:
152,160,53470,1,0,0:0:0:0:
280,288,53654,6,0,P|224:312|112:248,1,180,2|8,0:0|0:0,0:0:0:0:
152,160,54206,1,0,0:0:0:0:
328,128,54390,2,0,P|328:184|320:224,1,90,2|0,0:0|0:0,0:0:0:0:
224,72,54759,1,8,0:0:0:0:
321,217,54943,1,0,0:0:0:0:
384,344,55127,6,0,L|272:344,1,90,2|0,0:0|0:0,0:0:0:0:
184,352,55495,2,0,P|208:288|152:176,1,180,8|2,0:0|0:0,0:0:0:0:
72,48,56047,2,0,P|64:96|84:144,1,90,0|8,0:0|0:0,0:0:0:0:
176,80,56415,1,0,0:0:0:0:
192,240,56599,6,0,P|256:192|280:96,1,180,2|8,0:0|0:0,0:0:0:0:
104,168,57151,1,0,0:0:0:0:
148,336,57335,2,0,P|189:347|244:328,1,90,2|0,0:0|0:0,0:0:0:0:
336,288,57703,1,8,0:0:0:0:
388,188,57887,1,0,0:0:0:0:
176,80,58071,6,0,L|184:184,1,90,4|0,0:0|0:0,0:0:0:0:
336,288,58440,2,0,L|328:184,1,90,8|0,0:0|0:0,0:0:0:0:
88,56,58808,2,0,L|104:248,1,180,2|8,0:0|0:0,0:0:0:0:
192,320,59360,1,0,0:0:0:0:
240,160,59544,5,2,0:0:0:0:
336,288,59728,2,0,P|304:336|272:360,1,90,0|8,0:0|0:0,0:0:0:0:
216,240,60096,1,0,0:0:0:0:
264,80,60280,2,0,P|304:64|368:80,1,90,2|8,0:0|0:0,0:0:0:0:
160,136,60648,2,0,P|144:104|136:72,2,45,8|0|0,0:0|0:0|0:0,0:0:0:0:
264,344,61016,6,0,P|304:352|368:336,1,90,4|0,0:0|0:0,0:0:0:0:
424,264,61384,1,8,0:0:0:0:
280,176,61568,2,0,L|184:200,1,90,0|2,0:0|0:0,0:0:0:0:
160,300,61936,1,0,0:0:0:0:
284,264,62120,1,8,0:0:0:0:
48,164,62305,2,0,P|40:220|64:268,1,90,0|2,0:0|0:0,0:0:0:0:
136,200,62673,5,0,1:0:0:0:
144,32,62857,1,0,1:0:0:0:
144,32,63225,5,2,0:0:0:0:
256,160,63409,1,0,0:0:0:0:
384,56,63593,1,8,0:0:0:0:
200,100,63777,1,0,0:0:0:0:
320,104,63961,6,0,L|348:192,1,90,4|0,0:0|0:0,0:0:0:0:
286,333,64329,2,0,B|270:269|270:269|278:237|278:237|254:149,1,180,8|2,0:0|0:0,0:0:0:0:
50,259,64881,2,0,P|94:276|147:272,1,90,0|8,0:0|0:0,0:0:0:0:
112,168,65249,1,0,0:0:0:0:
110,57,65433,6,0,P|66:63|32:92,1,90,2|0,0:0|0:0,0:0:0:0:
208,208,65801,2,0,P|256:216|295:198,1,90,8|0,0:0|0:0,0:0:0:0:
376,136,66170,1,2,0:0:0:0:
320,40,66354,1,0,0:0:0:0:
240,112,66538,1,8,0:0:0:0:
240,112,66630,1,0,0:0:0:0:
240,112,66722,1,0,0:0:0:0:
476,176,66906,6,0,P|484:120|468:80,1,90,2|0,0:0|0:0,0:0:0:0:
296,200,67274,2,0,P|296:264|352:368,1,180,8|2,0:0|0:0,0:0:0:0:
200,320,67826,2,0,L|96:312,1,90,0|8,0:0|0:0,0:0:0:0:
64,216,68194,1,0,0:0:0:0:
40,112,68378,6,0,P|80:108|132:132,1,90,2|0,0:0|0:0,0:0:0:0:
272,280,68746,2,0,L|272:184,1,90,8|0,0:0|0:0,0:0:0:0:
224,80,69114,1,2,0:0:0:0:
168,240,69298,1,0,0:0:0:0:
328,208,69482,1,8,0:0:0:0:
224,80,69667,1,0,0:0:0:0:
272,280,69851,6,0,P|312:300|360:296,1,90,4|0,0:0|0:0,0:0:0:0:
344,112,70219,1,8,0:0:0:0:
328,208,70403,1,0,0:0:0:0:
184,312,70587,2,0,P|168:232|184:136,1,180,2|8,0:0|0:0,0:0:0:0:
120,48,71139,1,0,0:0:0:0:
80,160,71323,6,0,P|72:208|80:272,1,90,2|0,0:0|0:0,0:0:0:0:
104,352,71691,1,8,0:0:0:0:
264,320,71875,1,0,0:0:0:0:
408,368,72059,2,0,P|416:304|424:264,1,90,2|8,0:0|0:0,0:0:0:0:
428,148,72427,1,8,0:0:0:0:
430,116,72519,1,0,0:0:0:0:
432,84,72611,1,0,0:0:0:0:
288,64,72795,6,0,P|296:112|296:184,1,90,4|0,0:0|0:0,0:0:0:0:
208,216,73163,1,8,0:0:0:0:
104,224,73347,2,0,P|96:176|96:104,1,90,0|2,0:0|0:0,0:0:0:0:
168,56,73716,1,0,0:0:0:0:
208,216,73900,5,8,0:0:0:0:
216,248,73992,1,0,0:0:0:0:
224,280,74084,1,0,0:0:0:0:
232,312,74176,1,0,0:0:0:0:
240,344,74268,2,0,L|352:352,1,90,2|0,0:0|0:0,0:0:0:0:
424,272,74636,6,0,B|448:240|400:216|432:176,1,90,0|2,0:0|0:0,0:0:0:0:
384,96,75188,1,2,0:0:0:0:
312,216,75372,1,0,0:0:0:0:
264,64,75556,1,2,0:0:0:0:
136,32,75740,6,0,P|136:84|148:124,1,90,4|0,0:0|0:0,0:0:0:0:
248,152,76108,1,8,0:0:0:0:
172,232,76292,2,0,P|124:232|60:256,1,90,0|2,0:0|0:0,0:0:0:0:
256,344,76660,2,0,P|304:344|352:328,1,90,0|8,0:0|0:0,0:0:0:0:
424,260,77028,1,2,0:0:0:0:
408,152,77213,6,0,L|304:136,1,90,2|2,0:0|0:0,0:0:0:0:
176,328,77581,2,0,L|192:224,1,90,8|2,0:0|0:0,0:0:0:0:
352,240,77949,1,2,0:0:0:0:
200,160,78133,1,8,0:0:0:0:
336,64,78317,1,8,0:0:0:0:
264,224,78501,1,0,0:0:0:0:
232,72,78685,6,0,P|188:64|136:76,1,90,2|0,0:0|0:0,0:0:0:0:
80,248,79053,2,0,P|120:256|168:248,1,90,8|0,0:0|0:0,0:0:0:0:
72,144,79421,1,2,0:0:0:0:
88,344,79605,1,0,0:0:0:0:
56,112,79789,1,8,0:0:0:0:
104,372,79973,1,0,0:0:0:0:
200,280,80157,6,0,P|256:264|360:328,1,180,2|8,0:0|0:0,0:0:0:0:
448,272,80709,1,0,0:0:0:0:
424,168,80894,2,0,P|408:128|408:80,1,90,2|0,0:0|0:0,0:0:0:0:
304,56,81262,1,8,0:0:0:0:
288,88,81354,1,0,0:0:0:0:
272,120,81446,1,0,0:0:0:0:
256,152,81538,1,0,0:0:0:0:
240,184,81630,6,0,P|208:200|160:240,1,90,4|0,0:0|0:0,0:0:0:0:
336,272,81998,2,0,P|368:240|400:192,1,90,8|0,0:0|0:0,0:0:0:0:
168,272,82366,2,0,P|192:296|256:328,1,90,2|0,0:0|0:0,0:0:0:0:
492,212,82734,2,0,P|460:192|404:176,1,90,8|2,0:0|0:0,0:0:0:0:
240,340,83102,6,0,L|260:232,1,90,2|2,0:0|0:0,0:0:0:0:
124,356,83470,2,0,L|148:260,1,90,8|2,0:0|0:0,0:0:0:0:
356,224,83838,2,0,L|340:324,1,90,2|8,0:0|0:0,0:0:0:0:
264,156,84206,1,8,0:0:0:0:
176,88,84390,5,0,0:0:0:0:
176,88,84482,1,0,0:0:0:0:
176,88,84574,2,0,L|152:184,1,90,2|0,0:0|0:0,0:0:0:0:
68,252,84943,1,8,0:0:0:0:
140,328,85127,1,0,0:0:0:0:
236,276,85311,5,2,0:0:0:0:
272,268,85403,1,0,0:0:0:0:
308,260,85495,1,0,0:0:0:0:
396,204,85679,1,8,0:0:0:0:
440,104,85863,2,0,P|396:96|352:104,1,90,2|0,0:0|0:0,0:0:0:0:
248,128,86231,5,2,0:0:0:0:
212,136,86323,1,0,0:0:0:0:
176,144,86415,1,8,0:0:0:0:
72,168,86599,1,4,0:0:0:0:
256,192,86691,12,0,87887,0:0:0:0:
