osu file format v13

[General]
AudioFilename: ugu.mp3
AudioLeadIn: 0
PreviewTime: 51267
Countdown: 0
SampleSet: Soft
StackLeniency: 0.7
Mode: 0
LetterboxInBreaks: 0
WidescreenStoryboard: 0

[Editor]
DistanceSpacing: 1.2
BeatDivisor: 4
GridSize: 4
TimelineZoom: 1.6

[Metadata]
Title:FUTURE FISH
TitleUnicode:FUTURE FISH
Artist:STYLE FIVE
ArtistUnicode:STYLE FIVE
Creator:Yasora
Version:Hard
Source:Free! Eternal Summer
Tags:ending kyoto animation kyoani Nanase Haruka Matsuoka Rin Hazuki Nagisa Ryuugazaki Rei Tachibana Makoto
BeatmapID:456693
BeatmapSetID:191948

[Difficulty]
HPDrainRate:6
CircleSize:4
OverallDifficulty:6
ApproachRate:7
SliderMultiplier:1.6
SliderTickRate:1

[Events]
//Background and Video events
0,0,"huehue.jpg",0,0
Video,0,"ulululu.avi"
//Break Periods
//Storyboard Layer 0 (Background)
//Storyboard Layer 1 (Fail)
//Storyboard Layer 2 (Pass)
//Storyboard Layer 3 (Foreground)
//Storyboard Sound Samples
//Background Colour Transformations
3,100,163,162,255

[TimingPoints]
2121,368.098159509202,4,2,1,70,1,0
13900,-100,4,2,1,60,0,0
52182,-100,4,2,1,80,0,1
62489,-100,4,2,1,80,0,0
62673,-100,4,2,1,60,0,0
63961,-100,4,2,1,80,0,1
74636,-100,4,2,1,50,0,0
75740,-100,4,2,1,70,0,0
86691,-100,4,2,1,20,0,0

[Colours]
Combo1 : 255,106,181
Combo2 : 0,64,128
Combo3 : 255,128,64
Combo4 : 0,128,64

[HitObjects]
176,148,2120,6,0,P|168:188|180:232,1,80,4|0,0:0|0:0,0:0:0:0:
268,260,2489,2,0,P|284:188|256:96,1,160,8|2,0:0|0:0,0:0:0:0:
176,60,3041,2,0,P|136:68|100:104,1,80,0|8,0:0|0:0,0:0:0:0:
92,188,3409,5,2,0:0:0:0:
102,226,3777,1,2,0:0:0:0:
113,265,4145,1,2,0:0:0:0:
122,304,4513,2,0,P|158:308|202:320,1,80,0|8,0:0|0:0,0:0:0:0:
292,345,4881,1,0,0:0:0:0:
376,299,5065,6,0,P|392:263|404:215,1,80,2|0,0:0|0:0,0:0:0:0:
380,132,5433,2,0,P|332:120|276:140,1,80,8|0,0:0|0:0,0:0:0:0:
220,172,5801,1,2,0:0:0:0:
132,136,5986,1,0,0:0:0:0:
68,208,6170,2,0,L|80:304,1,80,8|0,0:0|0:0,0:0:0:0:
148,356,6538,6,0,P|220:320|316:340,1,160,2|8,0:0|0:0,0:0:0:0:
388,364,7090,1,0,0:0:0:0:
472,316,7274,1,2,0:0:0:0:
472,316,7458,1,0,0:0:0:0:
456,220,7642,2,0,L|452:160,3,40,8|0|0|0,0:0|0:0|0:0|0:0,0:0:0:0:
448,132,8010,6,0,B|396:132|396:132|344:108,1,80,4|0,0:0|0:0,0:0:0:0:
288,68,8378,2,0,P|264:100|216:216,1,160,8|2,0:0|0:0,0:0:0:0:
244,300,8930,2,0,P|204:304|164:288,1,80,0|8,0:0|0:0,0:0:0:0:
80,252,9298,5,2,0:0:0:0:
84,212,9667,1,2,0:0:0:0:
89,172,10035,1,2,0:0:0:0:
95,133,10403,2,0,P|139:105|183:93,1,80,0|8,0:0|0:0,0:0:0:0:
261,100,10771,1,0,0:0:0:0:
336,40,10955,6,0,P|360:80|408:120,1,80,2|0,0:0|0:0,0:0:0:0:
460,164,11323,2,0,P|468:204|456:244,1,80,8|0,0:0|0:0,0:0:0:0:
388,308,11691,1,2,0:0:0:0:
292,292,11875,1,0,0:0:0:0:
216,352,12059,2,0,P|172:356|136:340,1,80,8|0,0:0|0:0,0:0:0:0:
184,260,12427,6,0,P|168:176|220:116,2,160,2|8|0,0:0|0:0|0:0,0:0:0:0:
256,201,13347,2,0,L|340:217,1,80,0|8,0:0|0:0,0:0:0:0:
384,292,13716,1,0,0:0:0:0:
384,292,13808,1,0,0:0:0:0:
384,292,13900,6,0,P|423:228|384:144,1,160,4|8,0:0|0:0,0:0:0:0:
364,64,14452,2,0,L|260:80,1,80,0|0,1:0|0:0,0:0:0:0:
168,76,14820,1,0,1:0:0:0:
92,132,15004,2,0,P|160:169|233:142,2,160,8|2|8,0:0|0:0|0:0,0:0:0:0:
20,68,15924,1,0,1:0:0:0:
28,200,16108,6,0,L|48:300,1,80,0|0,0:0|1:0,0:0:0:0:
116,340,16476,2,0,P|188:348|268:296,1,160,8|2,0:0|0:0,0:0:0:0:
312,224,17028,1,0,0:0:0:0:
404,192,17213,2,0,P|408:240|392:280,1,80,8|0,0:0|1:0,0:0:0:0:
312,224,17581,2,0,P|308:176|328:136,1,80,0|0,0:0|1:0,0:0:0:0:
484,236,17949,6,0,P|472:292|400:376,2,160,8|2|8,0:0|0:0|0:0,0:0:0:0:
476,140,18869,2,0,L|384:116,1,80,0|0,1:0|0:0,0:0:0:0:
304,104,19237,1,0,1:0:0:0:
212,124,19421,2,0,P|216:160|204:208,1,80,8|0,0:0|1:0,0:0:0:0:
108,228,19789,6,0,P|104:140|132:72,1,160,0|8,1:0|0:0,0:0:0:0:
212,124,20341,1,0,1:0:0:0:
280,192,20525,2,0,L|292:280,1,80,0|0,0:0|1:0,0:0:0:0:
384,336,20894,2,0,L|372:248,1,80,8|0,0:0|0:0,0:0:0:0:
440,188,21262,5,2,0:0:0:0:
404,100,21446,1,0,0:0:0:0:
308,100,21630,1,8,0:0:0:0:
236,36,21814,2,0,P|216:72|220:128,2,80,0|0|0,1:0|0:0|1:0,0:0:0:0:
308,100,22366,2,0,L|328:208,1,80,8|0,0:0|1:0,0:0:0:0:
336,272,22734,6,0,B|296:292|296:292|240:268|184:288,1,160,0|8,1:0|0:0,0:0:0:0:
96,324,23286,1,0,1:0:0:0:
56,236,23470,2,0,P|56:180|68:152,1,80,0|0,0:0|1:0,0:0:0:0:
56,60,23838,2,0,P|96:64|136:92,1,80,8|0,0:0|0:0,0:0:0:0:
188,160,24206,6,0,P|248:192|348:168,1,160,2|8,0:0|0:0,0:0:0:0:
392,96,24759,1,0,0:0:0:0:
452,172,24943,2,0,P|468:208|468:256,1,80,2|0,0:0|0:0,0:0:0:0:
376,260,25311,2,0,P|363:297|361:337,1,80,8|0,0:0|0:0,0:0:0:0:
256,284,25679,6,0,L|148:276,1,80,4|2,0:0|0:0,0:0:0:0:
116,208,26047,1,8,0:0:0:0:
256,192,26231,2,0,L|344:176,1,80,2|2,0:0|0:0,0:0:0:0:
412,120,26599,1,0,0:0:0:0:
256,100,26783,2,0,L|164:76,1,80,8|2,0:0|0:0,0:0:0:0:
84,60,27151,6,0,P|52:112|52:156,1,80,2|0,0:0|0:0,0:0:0:0:
48,224,27519,1,8,0:0:0:0:
84,312,27703,2,0,P|144:340|232:264,1,160,2|0,0:0|0:0,0:0:0:0:
292,236,28255,2,0,P|344:252|368:264,1,80,8|0,0:0|0:0,0:0:0:0:
444,208,28624,6,0,P|412:176|360:144,1,80,2|0,0:0|0:0,0:0:0:0:
320,80,28992,2,0,P|364:68|424:72,2,80,8|0|2,0:0|0:0|0:0,0:0:0:0:
232,120,29544,1,0,0:0:0:0:
140,92,29728,2,0,P|136:144|120:176,1,80,8|0,0:0|0:0,0:0:0:0:
68,244,30096,6,0,L|104:316,1,80,2|0,0:0|0:0,0:0:0:0:
218,319,30464,2,0,L|176:248,1,80,8|0,0:0|0:0,0:0:0:0:
281,242,30832,2,0,L|328:308,1,80,2|0,0:0|0:0,0:0:0:0:
372,204,31200,2,0,L|316:136,1,80,8|0,0:0|0:0,0:0:0:0:
256,72,31568,6,0,P|216:64|152:72,1,80,4|2,0:0|0:0,0:0:0:0:
96,116,31936,1,8,0:0:0:0:
44,236,32120,2,0,P|80:244|136:244,1,80,2|2,0:0|0:0,0:0:0:0:
216,232,32489,1,0,0:0:0:0:
364,164,32673,2,0,P|304:160|264:172,1,80,8|2,0:0|0:0,0:0:0:0:
324,252,33041,6,0,P|364:260|416:240,1,80,2|0,0:0|0:0,0:0:0:0:
452,168,33409,1,8,0:0:0:0:
396,88,33593,2,0,P|328:76|232:100,1,160,2|0,0:0|0:0,0:0:0:0:
148,124,34145,2,0,L|136:216,1,80,8|0,0:0|0:0,0:0:0:0:
76,276,34513,6,0,P|88:324|112:352,1,80,2|0,0:0|0:0,0:0:0:0:
172,276,34881,2,0,P|212:288|256:272,1,80,8|0,0:0|0:0,0:0:0:0:
276,156,35249,2,0,P|236:172|208:212,2,80,2|0|8,0:0|0:0|0:0,0:0:0:0:
368,188,35801,6,0,P|412:240|492:184,1,160,2|0,0:0|0:0,0:0:0:0:
485,207,36262,1,0,0:0:0:0:
485,207,36354,1,8,0:0:0:0:
440,124,36538,2,0,P|404:96|360:96,1,80,0|2,0:0|0:0,0:0:0:0:
276,80,36906,5,0,0:0:0:0:
200,152,37090,1,8,0:0:0:0:
200,252,37274,1,0,0:0:0:0:
240,340,37458,6,0,P|300:352|380:296,1,160,2|4,0:0|0:0,0:0:0:0:
408,208,38010,1,0,0:0:0:0:
364,124,38194,1,2,0:0:0:0:
316,44,38378,2,0,P|288:68|272:120,1,80,4|0,0:0|0:0,0:0:0:0:
204,44,38746,6,0,P|188:108|208:212,1,160,4|0,0:0|0:0,0:0:0:0:
276,260,39298,1,8,0:0:0:0:
212,324,39482,2,0,P|172:332|132:320,1,80,0|2,0:0|0:0,0:0:0:0:
60,260,39851,1,0,0:0:0:0:
80,168,40035,2,0,L|92:68,1,80,8|0,0:0|0:0,0:0:0:0:
180,40,40403,6,0,L|172:128,1,80,4|0,0:0|0:0,0:0:0:0:
256,168,40771,1,8,0:0:0:0:
332,224,40955,2,0,P|356:264|372:312,1,80,0|2,0:0|0:0,0:0:0:0:
288,352,41323,2,0,P|252:352|204:336,1,80,0|8,0:0|0:0,0:0:0:0:
196,244,41691,1,0,0:0:0:0:
160,156,41875,6,0,L|120:72,2,80,2|0|8,0:0|0:0|0:0,0:0:0:0:
256,168,42427,1,0,0:0:0:0:
348,152,42611,2,0,L|388:68,2,80,2|0|8,0:0|0:0|0:0,0:0:0:0:
316,244,43163,1,0,0:0:0:0:
257,319,43347,6,0,P|193:343|109:275,1,160,2|4,0:0|0:0,0:0:0:0:
48,236,43900,1,0,0:0:0:0:
80,144,44084,1,2,0:0:0:0:
36,64,44268,2,0,P|73:50|124:64,1,80,4|0,0:0|0:0,0:0:0:0:
212,48,44636,6,0,P|200:88|240:200,1,160,4|0,0:0|0:0,0:0:0:0:
316,244,45188,1,8,0:0:0:0:
392,312,45372,2,0,P|408:280|416:232,1,80,0|2,0:0|0:0,0:0:0:0:
352,160,45740,2,0,L|360:104,2,40,0|0|8,0:0|0:0|0:0,0:0:0:0:
316,244,46108,1,0,0:0:0:0:
244,304,46292,6,0,L|144:328,1,80,4|0,0:0|0:0,0:0:0:0:
184,228,46660,2,0,L|92:220,1,80,8|0,0:0|0:0,0:0:0:0:
152,136,47028,2,0,L|68:112,2,80,2|0|8,0:0|0:0|0:0,0:0:0:0:
245,157,47581,1,0,0:0:0:0:
216,72,47765,6,0,P|296:80|336:148,1,160,2|8,0:0|0:0,0:0:0:0:
376,232,48317,1,0,0:0:0:0:
376,232,48409,1,0,0:0:0:0:
376,232,48501,2,0,L|364:328,1,80,2|0,0:0|0:0,0:0:0:0:
288,364,48869,2,0,L|268:276,1,80,8|0,0:0|0:0,0:0:0:0:
168,272,49237,6,0,B|120:252|120:204|120:204|120:120,1,160,4|0,0:0|0:0,0:0:0:0:
172,52,49789,2,0,B|220:72|220:120|220:120|220:190,1,160,4|0,0:0|0:0,0:0:0:0:
312,240,50341,2,0,L|312:156,1,80,8|0,0:0|0:0,0:0:0:0:
312,64,50709,5,4,0:0:0:0:
404,36,50894,1,2,0:0:0:0:
384,128,51078,1,2,0:0:0:0:
136,192,51446,5,0,0:0:0:0:
124,288,51630,1,0,0:0:0:0:
223,300,51814,1,0,0:0:0:0:
235,201,51998,1,0,0:0:0:0:
136,192,52182,6,0,L|40:212,1,80,4|0,0:0|0:0,0:0:0:0:
76,116,52550,2,0,L|240:84,1,160,8|2,0:0|0:0,0:0:0:0:
324,56,53102,2,0,P|332:104|348:144,1,80,0|8,0:0|0:0,0:0:0:0:
400,208,53470,1,0,0:0:0:0:
408,328,53654,6,0,P|336:292|260:328,1,160,2|8,0:0|0:0,0:0:0:0:
180,356,54206,1,0,0:0:0:0:
100,300,54390,2,0,P|96:240|100:200,1,80,2|0,0:0|0:0,0:0:0:0:
184,112,54759,2,0,P|188:156|184:196,1,80,8|0,0:0|0:0,0:0:0:0:
268,240,55127,6,0,L|372:244,1,80,2|0,0:0|0:0,0:0:0:0:
316,152,55495,2,0,L|156:148,1,160,8|2,0:0|0:0,0:0:0:0:
84,212,56047,2,0,P|88:264|104:296,1,80,0|8,0:0|0:0,0:0:0:0:
188,328,56415,1,0,0:0:0:0:
280,360,56599,6,0,P|340:348|416:276,1,160,2|8,0:0|0:0,0:0:0:0:
436,192,57151,1,0,0:0:0:0:
400,104,57335,2,0,L|312:96,1,80,2|0,0:0|0:0,0:0:0:0:
200,164,57703,2,0,L|292:176,1,80,8|0,0:0|0:0,0:0:0:0:
202,57,58071,6,0,P|136:70|98:162,1,160,4|8,0:0|0:0,0:0:0:0:
128,238,58624,1,0,0:0:0:0:
255,292,58808,2,0,P|262:225|186:160,1,160,2|8,0:0|0:0,0:0:0:0:
128,238,59360,1,0,0:0:0:0:
50,182,59544,6,0,L|42:102,1,80,2|0,0:0|0:0,0:0:0:0:
124,52,59912,2,0,P|176:48|224:72,1,80,8|0,0:0|0:0,0:0:0:0:
264,128,60280,2,0,L|284:208,2,80,2|8|8,0:0|0:0|0:0,0:0:0:0:
324,52,60832,1,0,0:0:0:0:
404,104,61016,6,0,P|404:164|380:268,1,160,4|8,0:0|0:0,0:0:0:0:
288,284,61568,2,0,P|248:272|204:276,1,80,0|2,0:0|0:0,0:0:0:0:
120,308,61936,1,0,0:0:0:0:
36,352,62120,2,0,P|28:304|40:260,1,80,8|0,0:0|0:0,0:0:0:0:
36,176,62489,5,2,0:0:0:0:
80,92,62673,1,0,1:0:0:0:
80,92,62857,1,0,1:0:0:0:
328,88,63225,6,0,P|336:136|336:168,1,80,2|0,0:0|0:0,0:0:0:0:
424,208,63593,2,0,P|408:252|380:288,1,80,8|0,0:0|0:0,0:0:0:0:
300,312,63961,6,0,P|256:292|220:300,1,80,4|0,0:0|0:0,0:0:0:0:
144,344,64329,2,0,P|132:292|200:208,1,160,8|2,0:0|0:0,0:0:0:0:
244,132,64881,2,0,L|324:168,1,80,0|8,0:0|0:0,0:0:0:0:
404,204,65249,1,0,0:0:0:0:
336,80,65433,6,0,B|236:40|236:40|176:80,1,160,2|8,0:0|0:0,0:0:0:0:
112,124,65986,1,0,0:0:0:0:
64,208,66170,2,0,L|88:288,1,80,2|0,0:0|0:0,0:0:0:0:
172,344,66538,2,0,L|188:236,1,80,8|0,0:0|0:0,0:0:0:0:
284,216,66906,6,0,P|276:276|296:312,1,80,2|0,0:0|0:0,0:0:0:0:
360,348,67274,2,0,B|384:296|360:256|360:256|360:224|376:192,1,160,8|2,0:0|0:0,0:0:0:0:
448,132,67826,2,0,P|416:108|367:104,1,80,0|8,0:0|0:0,0:0:0:0:
284,116,68194,1,0,0:0:0:0:
204,172,68378,6,0,P|136:200|76:136,1,160,2|8,0:0|0:0,0:0:0:0:
169,48,68930,2,0,L|145:136,1,80,0|2,0:0|0:0,0:0:0:0:
292,196,69298,2,0,L|284:116,1,80,0|8,0:0|0:0,0:0:0:0:
356,52,69667,1,0,0:0:0:0:
428,116,69851,6,0,P|444:180|424:288,1,160,4|8,0:0|0:0,0:0:0:0:
352,352,70403,2,0,L|340:268,1,80,0|2,0:0|0:0,0:0:0:0:
256,316,70771,1,0,0:0:0:0:
171,272,70955,2,0,L|160:352,1,80,8|0,0:0|0:0,0:0:0:0:
80,256,71323,6,0,P|92:188|136:96,1,160,2|8,0:0|0:0,0:0:0:0:
208,48,71875,1,0,0:0:0:0:
260,128,72059,2,0,L|356:120,2,80,2|8|8,0:0|0:0|0:0,0:0:0:0:
164,140,72611,1,0,0:0:0:0:
220,216,72795,6,0,P|256:248|376:248,1,160,4|8,0:0|0:0,0:0:0:0:
460,260,73347,2,0,P|444:308|424:332,1,80,0|2,0:0|0:0,0:0:0:0:
332,348,73716,1,0,0:0:0:0:
240,328,73900,2,0,P|156:296|96:336,1,160,8|2,0:0|0:0,0:0:0:0:
88,104,74636,5,0,0:0:0:0:
88,104,75004,2,0,L|192:120,2,80,2|2|0,0:0|0:0|0:0,0:0:0:0:
40,188,75556,1,2,0:0:0:0:
80,276,75740,6,0,P|128:280|176:268,1,80,4|0,0:0|0:0,0:0:0:0:
208,192,76108,2,0,P|292:176|336:232,1,160,8|2,0:0|0:0,0:0:0:0:
332,324,76660,2,0,P|376:316|408:288,1,80,0|8,0:0|0:0,0:0:0:0:
444,208,77028,5,2,0:0:0:0:
451,168,77397,1,2,0:0:0:0:
460,129,77765,1,2,0:0:0:0:
464,90,78133,2,0,P|404:78|368:86,1,80,0|8,0:0|0:0,0:0:0:0:
295,112,78501,1,0,0:0:0:0:
203,83,78685,6,0,P|163:81|125:92,1,80,2|0,0:0|0:0,0:0:0:0:
46,147,79053,2,0,P|82:179|122:187,1,80,8|0,0:0|0:0,0:0:0:0:
186,247,79421,1,2,0:0:0:0:
269,294,79605,1,0,0:0:0:0:
364,283,79789,2,0,P|368:227|360:195,1,80,8|0,0:0|0:0,0:0:0:0:
396,108,80157,6,0,P|336:92|240:120,1,160,2|8,0:0|0:0,0:0:0:0:
156,160,80709,1,0,0:0:0:0:
108,244,80894,1,2,0:0:0:0:
108,244,81078,1,0,0:0:0:0:
140,336,81262,2,0,L|196:340,3,40,8|0|0|0,0:0|0:0|0:0|0:0,0:0:0:0:
228,344,81630,6,0,P|260:356|324:332,1,80,4|0,0:0|0:0,0:0:0:0:
396,316,81998,2,0,P|408:256|396:152,1,160,8|2,0:0|0:0,0:0:0:0:
316,108,82550,2,0,P|276:100|232:112,1,80,0|8,0:0|0:0,0:0:0:0:
156,156,82918,5,2,0:0:0:0:
129,186,83286,1,2,0:0:0:0:
101,214,83654,1,2,0:0:0:0:
75,244,84022,2,0,P|99:288|123:316,1,80,0|8,0:0|0:0,0:0:0:0:
210,338,84390,1,0,0:0:0:0:
302,313,84574,6,0,P|342:317|382:313,1,80,2|0,0:0|0:0,0:0:0:0:
442,238,84943,2,0,P|438:174|430:146,1,80,8|0,0:0|0:0,0:0:0:0:
382,77,85311,1,2,0:0:0:0:
307,137,85495,1,0,0:0:0:0:
228,77,85679,1,8,0:0:0:0:
160,144,85863,6,0,P|152:212|172:316,1,160,2|2,0:0|0:0,0:0:0:0:
176,328,86323,1,0,0:0:0:0:
188,356,86415,1,8,0:0:0:0:
304,292,86599,1,4,0:0:0:0:
256,192,86691,12,0,87887,0:0:0:0:
