osu file format v13

[General]
AudioFilename: ugu.mp3
AudioLeadIn: 0
PreviewTime: 51267
Countdown: 0
SampleSet: Soft
StackLeniency: 0.7
Mode: 0
LetterboxInBreaks: 0
WidescreenStoryboard: 0

[Editor]
DistanceSpacing: 1.2
BeatDivisor: 4
GridSize: 4
TimelineZoom: 1.6

[Metadata]
Title:FUTURE FISH
TitleUnicode:FUTURE FISH
Artist:STYLE FIVE
ArtistUnicode:STYLE FIVE
Creator:Yasora
Version:Future
Source:Free! Eternal Summer
Tags:ending kyoto animation kyoani Nanase Haruka Matsuoka Rin Hazuki Nagisa Ryuugazaki Rei Tachibana Makoto
BeatmapID:456990
BeatmapSetID:191948

[Difficulty]
HPDrainRate:8
CircleSize:5
OverallDifficulty:8
ApproachRate:9
SliderMultiplier:1.9
SliderTickRate:1

[Events]
//Background and Video events
0,0,"huehue.jpg",0,0
Video,0,"ulululu.avi"
//Break Periods
//Storyboard Layer 0 (Background)
//Storyboard Layer 1 (Fail)
//Storyboard Layer 2 (Pass)
//Storyboard Layer 3 (Foreground)
//Storyboard Sound Samples
//Background Colour Transformations
3,100,163,162,255

[TimingPoints]
2121,368.098159509202,4,2,1,70,1,0
13900,-100,4,2,1,60,0,0
52182,-100,4,2,1,80,0,1
62489,-100,4,2,1,80,0,0
62673,-100,4,2,1,60,0,0
63961,-100,4,2,1,80,0,1
74636,-200,4,2,1,50,0,0
75740,-100,4,2,1,70,0,0
86691,-100,4,2,1,20,0,0

[Colours]
Combo1 : 255,106,181
Combo2 : 0,64,128
Combo3 : 255,128,64
Combo4 : 0,128,64

[HitObjects]
116,120,2120,5,4,0:0:0:0:
216,64,2305,1,0,0:0:0:0:
332,48,2489,2,0,P|332:92|304:144,1,95,8|0,0:0|0:0,0:0:0:0:
208,188,2857,1,2,0:0:0:0:
352,228,3041,1,0,0:0:0:0:
244,332,3225,1,8,0:0:0:0:
208,188,3409,1,2,0:0:0:0:
116,120,3593,6,0,P|117:72|140:32,1,95,2|2,0:0|0:0,0:0:0:0:
264,116,3961,1,8,0:0:0:0:
168,300,4145,2,0,P|128:276|104:224,1,95,2|2,0:0|0:0,0:0:0:0:
208,188,4513,1,2,0:0:0:0:
316,44,4697,1,8,0:0:0:0:
336,72,4789,1,0,0:0:0:0:
356,100,4881,1,0,0:0:0:0:
392,228,5065,6,0,P|396:272|372:324,1,95,2|0,0:0|0:0,0:0:0:0:
280,256,5433,1,8,0:0:0:0:
140,200,5617,1,0,0:0:0:0:
264,80,5801,1,2,0:0:0:0:
280,256,5986,1,0,0:0:0:0:
140,200,6170,1,8,0:0:0:0:
404,262,6354,6,0,P|396:303|364:349,1,95,0|2,0:0|0:0,0:0:0:0:
264,80,6722,2,0,P|312:72|360:92,1,95,0|8,0:0|0:0,0:0:0:0:
440,164,7090,1,0,0:0:0:0:
208,236,7274,1,2,0:0:0:0:
324,236,7458,1,0,0:0:0:0:
264,80,7642,1,8,0:0:0:0:
228,96,7734,1,0,0:0:0:0:
196,108,7826,1,0,0:0:0:0:
164,120,7918,1,0,0:0:0:0:
132,136,8010,6,0,P|116:188|84:228,1,95,4|0,0:0|0:0,0:0:0:0:
256,340,8378,2,0,P|304:328|350:340,1,95,8|0,0:0|0:0,0:0:0:0:
452,292,8746,1,2,0:0:0:0:
352,56,8930,2,0,L|344:164,1,95,0|8,0:0|0:0,0:0:0:0:
384,256,9298,1,2,0:0:0:0:
248,214,9482,6,0,L|256:118,1,95,2|2,0:0|0:0,0:0:0:0:
412,104,9851,1,8,0:0:0:0:
356,268,10035,1,2,0:0:0:0:
256,120,10219,1,2,0:0:0:0:
96,172,10403,5,8,0:0:0:0:
216,284,10587,1,8,0:0:0:0:
216,284,10679,1,0,0:0:0:0:
216,284,10771,1,0,0:0:0:0:
452,344,10955,6,0,P|452:292|432:252,1,95,2|0,0:0|0:0,0:0:0:0:
324,352,11323,1,8,0:0:0:0:
224,156,11507,1,0,0:0:0:0:
444,68,11691,2,0,P|444:120|424:160,1,95,2|0,0:0|0:0,0:0:0:0:
324,220,12059,1,8,0:0:0:0:
130,142,12243,2,0,L|242:158,1,95,0|2,0:0|0:0,0:0:0:0:
376,284,12611,5,0,0:0:0:0:
212,300,12795,2,0,L|208:340,4,23.75,8|0|0|0|0,0:0|0:0|0:0|0:0|0:0,0:0:0:0:
276,136,13163,1,0,0:0:0:0:
276,136,13255,1,0,0:0:0:0:
276,136,13347,1,0,0:0:0:0:
456,284,13532,1,8,0:0:0:0:
444,320,13624,1,0,0:0:0:0:
420,348,13716,1,0,0:0:0:0:
384,360,13808,1,0,0:0:0:0:
348,356,13900,6,0,P|308:320|300:276,1,95,4|0,0:0|0:0,0:0:0:0:
412,52,14268,2,0,P|420:100|404:148,1,95,8|0,0:0|1:0,0:0:0:0:
248,132,14636,1,0,0:0:0:0:
384,56,14820,1,0,1:0:0:0:
160,184,15004,2,0,P|160:80|228:32,1,190,8|2,0:0|0:0,0:0:0:0:
212,268,15556,5,0,0:0:0:0:
120,332,15740,1,8,0:0:0:0:
64,232,15924,1,0,1:0:0:0:
232,300,16108,2,0,L|336:312,1,95,0|0,0:0|1:0,0:0:0:0:
108,116,16476,2,0,P|109:164|124:208,1,95,8|0,0:0|0:0,0:0:0:0:
308,200,16844,5,2,0:0:0:0:
416,188,17028,1,0,0:0:0:0:
420,352,17213,2,0,L|316:340,1,95,8|0,0:0|1:0,0:0:0:0:
308,200,17581,1,0,0:0:0:0:
416,268,17765,1,0,1:0:0:0:
350,96,17949,2,0,P|303:86|254:101,1,95,8|0,0:0|0:0,0:0:0:0:
80,276,18317,6,0,P|124:288|180:270,1,95,2|0,0:0|0:0,0:0:0:0:
228,128,18685,1,8,0:0:0:0:
96,192,18869,1,0,1:0:0:0:
272,200,19053,1,0,0:0:0:0:
192,48,19237,1,0,1:0:0:0:
264,224,19421,2,0,L|308:312,1,95,8|0,0:0|1:0,0:0:0:0:
416,64,19789,6,0,P|368:56|316:68,1,95,0|0,1:0|0:0,0:0:0:0:
228,128,20157,1,8,0:0:0:0:
140,280,20341,1,0,1:0:0:0:
264,224,20525,2,0,P|312:232|364:224,1,95,0|0,0:0|1:0,0:0:0:0:
200,132,20894,1,8,0:0:0:0:
168,276,21078,1,0,0:0:0:0:
344,260,21262,6,0,P|351:213|332:168,1,95,2|0,0:0|0:0,0:0:0:0:
68,252,21630,2,0,P|60:296|88:348,1,95,8|0,0:0|1:0,0:0:0:0:
196,372,21998,2,0,P|244:372|292:352,1,95,0|0,0:0|1:0,0:0:0:0:
404,196,22366,1,8,0:0:0:0:
244,236,22550,1,0,1:0:0:0:
180,120,22734,6,0,P|236:120|276:132,1,95,0|0,1:0|0:0,0:0:0:0:
136,296,23102,2,0,P|84:292|36:272,1,95,8|0,0:0|1:0,0:0:0:0:
160,100,23470,1,0,0:0:0:0:
152,312,23654,1,0,1:0:0:0:
296,264,23838,2,0,P|343:261|388:276,1,95,8|0,0:0|0:0,0:0:0:0:
432,88,24206,6,0,B|388:72|376:104|320:76,1,95,2|0,0:0|0:0,0:0:0:0:
112,184,24574,2,0,B|144:172|172:196|212:176,1,95,8|0,0:0|0:0,0:0:0:0:
368,176,24943,1,2,0:0:0:0:
414,182,25035,1,0,0:0:0:0:
449,213,25127,1,0,0:0:0:0:
462,258,25219,1,0,0:0:0:0:
460,308,25311,2,0,P|420:344|376:360,1,95,8|0,0:0|0:0,0:0:0:0:
256,320,25679,5,4,0:0:0:0:
112,280,25863,1,2,0:0:0:0:
224,160,26047,1,8,0:0:0:0:
256,320,26231,5,2,0:0:0:0:
288,160,26415,1,2,0:0:0:0:
400,280,26599,1,0,0:0:0:0:
256,320,26783,5,8,0:0:0:0:
112,280,26967,1,2,0:0:0:0:
224,160,27151,1,2,0:0:0:0:
336,260,27335,6,0,P|352:300|360:364,1,95,2|8,0:0|0:0,0:0:0:0:
156,352,27703,2,0,P|172:260|216:172,1,190,2|0,0:0|0:0,0:0:0:0:
328,80,28255,1,8,0:0:0:0:
328,80,28347,1,0,0:0:0:0:
328,80,28440,1,0,0:0:0:0:
432,180,28624,6,0,P|436:248|432:288,1,95,2|0,0:0|0:0,0:0:0:0:
180,156,28992,2,0,P|184:88|200:48,1,95,8|0,0:0|0:0,0:0:0:0:
352,140,29360,1,2,0:0:0:0:
272,212,29544,1,0,0:0:0:0:
180,156,29728,1,8,0:0:0:0:
108,216,29912,1,0,0:0:0:0:
384,252,30096,6,0,L|348:352,1,95,2|0,0:0|0:0,0:0:0:0:
268,112,30464,2,0,L|304:16,1,95,8|0,0:0|1:0,0:0:0:0:
384,252,30832,1,2,0:0:0:0:
272,212,31016,1,0,1:0:0:0:
368,120,31200,1,8,0:0:0:0:
384,252,31384,1,0,0:0:0:0:
92,272,31568,5,4,0:0:0:0:
240,200,31752,1,2,0:0:0:0:
152,352,31936,1,8,0:0:0:0:
136,176,32120,5,2,0:0:0:0:
224,48,32305,1,2,0:0:0:0:
240,200,32489,1,0,0:0:0:0:
136,80,32673,5,8,0:0:0:0:
304,116,32857,1,2,0:0:0:0:
136,176,33041,1,2,0:0:0:0:
312,27,33225,6,0,L|416:43,1,95,2|8,0:0|0:0,0:0:0:0:
447,231,33593,2,0,L|251:203,1,190,2|0,0:0|0:0,0:0:0:0:
88,284,34145,1,8,0:0:0:0:
88,284,34237,1,0,0:0:0:0:
88,284,34329,1,0,0:0:0:0:
256,328,34513,5,2,0:0:0:0:
144,224,34697,1,0,0:0:0:0:
180,356,34881,1,8,0:0:0:0:
280,220,35065,1,0,1:0:0:0:
312,376,35249,1,0,0:0:0:0:
212,180,35433,1,0,1:0:0:0:
364,320,35617,1,8,0:0:0:0:
312,152,35801,6,0,P|384:140|484:204,1,190,2|0,0:0|0:0,0:0:0:0:
492,228,36262,1,0,0:0:0:0:
488,260,36354,1,8,0:0:0:0:
212,180,36538,2,0,P|216:120|240:84,1,95,0|2,0:0|0:0,0:0:0:0:
312,152,36906,1,0,0:0:0:0:
292,340,37090,2,0,L|180:328,1,95,8|0,0:0|0:0,0:0:0:0:
116,200,37458,5,2,0:0:0:0:
112,164,37550,1,0,0:0:0:0:
120,124,37642,1,0,0:0:0:0:
144,96,37734,1,0,0:0:0:0:
176,72,37826,2,0,P|272:76|312:160,1,190,4|0,0:0|0:0,0:0:0:0:
112,328,38378,2,0,L|28:284,1,95,4|0,0:0|0:0,0:0:0:0:
264,268,38746,6,0,P|348:240|444:308,1,190,4|0,0:0|0:0,0:0:0:0:
448,316,39206,1,0,0:0:0:0:
460,348,39298,1,8,0:0:0:0:
256,164,39482,2,0,P|308:148|360:152,2,95,0|2|0,0:0|0:0|0:0,0:0:0:0:
208,336,40035,1,8,0:0:0:0:
48,264,40219,1,0,0:0:0:0:
48,264,40311,1,0,0:0:0:0:
48,264,40403,6,0,P|72:192|92:156,1,95,4|0,0:0|0:0,0:0:0:0:
208,72,40771,1,8,0:0:0:0:
296,264,40955,2,0,P|248:272|196:252,1,95,0|2,0:0|0:0,0:0:0:0:
256,164,41323,1,0,0:0:0:0:
364,176,41507,1,8,0:0:0:0:
296,264,41691,1,0,0:0:0:0:
400,72,41875,6,0,P|439:93|467:137,1,95,2|0,0:0|0:0,0:0:0:0:
432,248,42243,1,8,0:0:0:0:
424,272,42335,1,0,0:0:0:0:
416,296,42427,1,0,0:0:0:0:
408,320,42519,1,0,0:0:0:0:
400,344,42611,2,0,P|352:360|288:336,1,95,2|0,0:0|0:0,0:0:0:0:
136,280,42979,1,8,0:0:0:0:
272,176,43163,1,0,0:0:0:0:
248,344,43347,5,2,0:0:0:0:
216,328,43440,1,0,0:0:0:0:
188,312,43532,1,0,0:0:0:0:
164,296,43624,1,0,0:0:0:0:
136,280,43716,2,0,P|96:216|140:96,1,190,4|0,0:0|0:0,0:0:0:0:
356,188,44268,2,0,P|300:196|268:172,1,95,4|0,0:0|0:0,0:0:0:0:
436,120,44636,6,0,P|460:196|400:284,1,190,4|0,0:0|0:0,0:0:0:0:
402,282,45096,1,0,0:0:0:0:
402,282,45188,1,8,0:0:0:0:
208,88,45372,2,0,P|256:80|304:108,1,95,0|2,0:0|0:0,0:0:0:0:
296,316,45740,1,0,0:0:0:0:
269,325,45832,1,0,0:0:0:0:
240,328,45924,1,8,0:0:0:0:
212,324,46016,1,0,0:0:0:0:
186,313,46108,1,0,0:0:0:0:
163,296,46200,1,0,0:0:0:0:
140,276,46292,6,0,P|120:228|120:180,1,95,4|0,0:0|0:0,0:0:0:0:
144,76,46660,1,8,0:0:0:0:
260,100,46844,2,0,P|308:88|360:112,1,95,2|0,0:0|0:0,0:0:0:0:
384,124,47120,1,0,0:0:0:0:
404,156,47213,1,2,0:0:0:0:
416,192,47305,1,0,0:0:0:0:
424,228,47397,2,0,P|372:240|324:220,1,95,8|0,0:0|0:0,0:0:0:0:
184,232,47765,6,0,P|138:245|93:232,1,95,2|0,0:0|0:0,0:0:0:0:
88,120,48133,1,8,0:0:0:0:
112,92,48225,1,0,0:0:0:0:
148,80,48317,1,2,0:0:0:0:
184,84,48409,1,0,0:0:0:0:
212,108,48501,2,0,P|256:144|292:156,1,95,0|2,0:0|0:0,0:0:0:0:
472,112,48869,1,8,0:0:0:0:
416,280,49053,1,0,0:0:0:0:
240,304,49237,6,0,B|152:256|152:352|48:288,1,190,4|0,0:0|0:0,0:0:0:0:
172,108,49789,2,0,B|260:156|260:60|364:124,1,190,4|0,0:0|0:0,0:0:0:0:
464,280,50341,1,4,0:0:0:0:
468,252,50433,1,0,0:0:0:0:
472,224,50525,1,0,0:0:0:0:
368,352,50709,5,4,0:0:0:0:
208,320,50894,1,2,0:0:0:0:
320,192,51078,1,2,0:0:0:0:
348,188,51446,5,0,0:0:0:0:
228,96,51630,1,0,0:0:0:0:
312,288,51814,1,0,0:0:0:0:
408,104,51998,1,0,0:0:0:0:
132,96,52182,6,0,P|144:144|196:188,1,95,4|0,0:0|0:0,0:0:0:0:
440,328,52550,2,0,P|364:296|276:352,1,190,8|2,0:0|0:0,0:0:0:0:
68,200,53102,2,0,P|108:184|160:192,1,95,0|8,0:0|0:0,0:0:0:0:
124,296,53470,1,0,0:0:0:0:
232,100,53654,2,0,P|260:136|280:196,1,95,2|0,0:0|0:0,0:0:0:0:
140,328,54022,2,0,P|152:280|184:228,1,95,8|0,0:0|0:0,0:0:0:0:
388,332,54390,1,2,0:0:0:0:
252,292,54574,1,0,0:0:0:0:
356,180,54759,1,8,0:0:0:0:
356,180,54851,1,0,0:0:0:0:
356,180,54943,1,0,0:0:0:0:
468,348,55127,6,0,P|420:360|388:332,1,95,2|0,0:0|0:0,0:0:0:0:
172,68,55495,2,0,P|236:40|320:120,1,190,8|2,0:0|0:0,0:0:0:0:
136,332,56047,2,0,P|84:320|51:280,1,95,0|8,0:0|0:0,0:0:0:0:
140,224,56415,1,0,0:0:0:0:
336,180,56599,2,0,P|328:232|304:280,1,95,2|0,0:0|0:0,0:0:0:0:
120,184,56967,2,0,P|132:132|156:92,1,95,8|0,0:0|0:0,0:0:0:0:
328,88,57335,1,2,0:0:0:0:
424,256,57519,2,0,P|420:308|384:360,1,95,0|8,0:0|0:0,0:0:0:0:
248,328,57887,1,0,0:0:0:0:
152,140,58071,6,0,L|252:140,1,95,4|0,0:0|0:0,0:0:0:0:
300,236,58440,1,8,0:0:0:0:
280,344,58624,1,0,0:0:0:0:
96,204,58808,2,0,P|68:112|148:56,1,190,2|8,0:0|0:0,0:0:0:0:
232,156,59360,1,0,0:0:0:0:
132,324,59544,6,0,P|88:336|36:312,1,95,2|0,0:0|0:0,0:0:0:0:
96,204,59912,1,8,0:0:0:0:
296,256,60096,1,0,0:0:0:0:
168,88,60280,2,0,P|212:64|272:76,1,95,2|8,0:0|0:0,0:0:0:0:
188,256,60648,1,8,0:0:0:0:
188,256,60740,1,0,0:0:0:0:
188,256,60832,1,0,0:0:0:0:
328,330,61016,6,0,P|372:347|420:348,1,95,4|0,0:0|0:0,0:0:0:0:
496,164,61384,2,0,P|504:204|496:268,1,95,8|0,0:0|0:0,0:0:0:0:
312,168,61752,1,2,0:0:0:0:
432,120,61936,1,0,0:0:0:0:
416,260,62120,1,8,0:0:0:0:
236,92,62305,2,0,P|241:138|232:203,1,95,0|2,0:0|0:0,0:0:0:0:
152,300,62673,5,0,1:0:0:0:
124,92,62857,1,0,1:0:0:0:
124,92,63225,5,2,0:0:0:0:
123,119,63317,1,0,0:0:0:0:
129,145,63409,1,0,0:0:0:0:
141,169,63501,1,0,0:0:0:0:
159,189,63593,1,8,0:0:0:0:
182,204,63685,1,0,0:0:0:0:
207,213,63777,1,0,0:0:0:0:
234,216,63869,1,0,0:0:0:0:
260,216,63961,6,0,P|320:196|384:216,1,95,4|0,0:0|0:0,0:0:0:0:
220,336,64329,2,0,P|140:328|56:248,1,190,8|2,0:0|0:0,0:0:0:0:
240,124,64881,2,0,P|284:104|332:104,1,95,0|8,0:0|0:0,0:0:0:0:
416,176,65249,1,0,0:0:0:0:
220,336,65433,2,0,P|224:276|244:232,1,95,2|0,0:0|0:0,0:0:0:0:
456,64,65801,2,0,P|460:112|440:168,1,95,8|0,0:0|0:0,0:0:0:0:
224,108,66170,1,2,0:0:0:0:
372,52,66354,1,0,0:0:0:0:
324,208,66538,1,8,0:0:0:0:
324,208,66630,1,0,0:0:0:0:
324,208,66722,1,0,0:0:0:0:
92,140,66906,6,0,P|92:84|112:48,1,95,2|0,0:0|0:0,0:0:0:0:
360,324,67274,2,0,P|276:332|216:244,1,190,8|2,0:0|0:0,0:0:0:0:
440,132,67826,2,0,L|428:228,1,95,0|8,0:0|0:0,0:0:0:0:
360,324,68194,1,0,0:0:0:0:
232,88,68378,2,0,P|296:96|336:108,1,95,2|0,0:0|0:0,0:0:0:0:
232,236,68746,1,8,0:0:0:0:
136,124,68930,1,0,0:0:0:0:
372,180,69114,2,0,P|360:240|340:288,1,95,2|0,0:0|0:0,0:0:0:0:
152,344,69482,1,8,0:0:0:0:
152,344,69574,1,0,0:0:0:0:
152,344,69667,1,0,0:0:0:0:
56,184,69851,6,0,P|52:132|60:84,1,95,4|0,0:0|0:0,0:0:0:0:
164,44,70219,1,8,0:0:0:0:
220,144,70403,1,0,0:0:0:0:
64,316,70587,2,0,P|100:272|160:264,1,95,2|0,0:0|0:0,0:0:0:0:
240,308,70955,1,8,0:0:0:0:
348,268,71139,1,0,0:0:0:0:
256,64,71323,6,0,P|328:72|352:96,1,95,2|0,0:0|0:0,0:0:0:0:
416,312,71691,2,0,P|380:344|328:352,1,95,8|0,0:0|0:0,0:0:0:0:
276,196,72059,1,2,0:0:0:0:
424,208,72243,1,8,0:0:0:0:
336,352,72427,1,8,0:0:0:0:
336,352,72519,1,0,0:0:0:0:
336,352,72611,1,0,0:0:0:0:
128,308,72795,6,0,P|124:252|132:200,1,95,4|0,0:0|0:0,0:0:0:0:
156,104,73163,1,8,0:0:0:0:
352,160,73347,2,0,P|347:251|256:280,1,190,0|0,0:0|0:0,0:0:0:0:
252,56,73900,1,8,0:0:0:0:
248,88,73992,1,0,0:0:0:0:
244,120,74084,1,0,0:0:0:0:
240,152,74176,1,0,0:0:0:0:
234,184,74268,2,0,L|214:296,1,95,2|0,0:0|0:0,0:0:0:0:
64,352,74636,6,0,L|80:296,1,47.5,0|0,0:0|0:0,0:0:0:0:
108,176,75004,1,2,0:0:0:0:
144,80,75188,1,2,0:0:0:0:
112,204,75372,1,0,0:0:0:0:
80,28,75556,1,2,0:0:0:0:
228,64,75740,6,0,P|256:104|320:116,1,95,4|0,0:0|0:0,0:0:0:0:
436,276,76108,2,0,L|324:304,1,95,8|0,0:0|0:0,0:0:0:0:
240,328,76476,1,2,0:0:0:0:
364,180,76660,1,0,0:0:0:0:
212,292,76844,2,0,L|144:320,2,47.5,8|0|2,0:0|0:0|0:0,0:0:0:0:
276,136,77213,5,2,0:0:0:0:
192,32,77397,1,2,0:0:0:0:
244,212,77581,1,8,0:0:0:0:
384,76,77765,1,2,0:0:0:0:
192,148,77949,1,2,0:0:0:0:
364,180,78133,5,8,0:0:0:0:
160,224,78317,1,8,0:0:0:0:
160,224,78409,1,0,0:0:0:0:
160,224,78501,1,0,0:0:0:0:
256,332,78685,6,0,P|300:340|356:308,1,95,2|0,0:0|0:0,0:0:0:0:
440,220,79053,1,8,0:0:0:0:
288,244,79237,1,0,0:0:0:0:
412,336,79421,1,2,0:0:0:0:
312,160,79605,1,0,0:0:0:0:
492,296,79789,1,8,0:0:0:0:
404,120,79973,6,0,P|368:76|310:67,1,95,0|2,0:0|0:0,0:0:0:0:
220,120,80341,1,0,0:0:0:0:
176,256,80525,1,8,0:0:0:0:
288,244,80709,1,0,0:0:0:0:
112,92,80894,2,0,P|112:140|132:188,1,95,2|0,0:0|0:0,0:0:0:0:
224,336,81262,1,8,0:0:0:0:
260,332,81354,1,0,0:0:0:0:
296,324,81446,1,0,0:0:0:0:
332,316,81538,1,0,0:0:0:0:
368,304,81630,6,0,P|424:292|452:264,1,95,4|0,0:0|0:0,0:0:0:0:
220,80,81998,2,0,P|216:140|232:184,1,95,8|0,0:0|0:0,0:0:0:0:
340,116,82366,1,2,0:0:0:0:
220,80,82550,1,0,0:0:0:0:
136,172,82734,1,8,0:0:0:0:
136,172,82826,1,0,0:0:0:0:
136,172,82918,1,2,0:0:0:0:
144,316,83102,5,2,0:0:0:0:
256,264,83286,1,2,0:0:0:0:
64,196,83470,1,8,0:0:0:0:
224,336,83654,1,2,0:0:0:0:
232,168,83838,1,2,0:0:0:0:
344,284,84022,5,8,0:0:0:0:
376,72,84206,1,8,0:0:0:0:
232,168,84390,5,0,0:0:0:0:
228,152,84482,1,0,0:0:0:0:
224,136,84574,2,0,P|200:88|156:60,1,95,2|0,0:0|0:0,0:0:0:0:
64,196,84943,5,8,0:0:0:0:
116,352,85127,1,0,0:0:0:0:
268,252,85311,1,2,0:0:0:0:
304,236,85403,1,0,0:0:0:0:
340,244,85495,1,0,0:0:0:0:
364,272,85587,1,0,0:0:0:0:
372,308,85679,2,0,P|396:356|440:372,2,95,8|2|0,0:0|0:0|0:0,0:0:0:0:
340,120,86231,5,2,0:0:0:0:
292,112,86323,1,0,0:0:0:0:
248,132,86415,1,8,0:0:0:0:
124,264,86599,5,4,0:0:0:0:
256,192,86691,12,0,87887,0:0:0:0:
