osu file format v13

[General]
AudioFilename: ugu.mp3
AudioLeadIn: 0
PreviewTime: 51267
Countdown: 0
SampleSet: Soft
StackLeniency: 0.7
Mode: 0
LetterboxInBreaks: 0
WidescreenStoryboard: 0

[Editor]
DistanceSpacing: 1
BeatDivisor: 4
GridSize: 4
TimelineZoom: 1.6

[Metadata]
Title:FUTURE FISH
TitleUnicode:FUTURE FISH
Artist:STYLE FIVE
ArtistUnicode:STYLE FIVE
Creator:Yasora
Version:Easy
Source:Free! Eternal Summer
Tags:ending kyoto animation kyoani Nanase Haruka Matsuoka Rin Hazuki Nagisa Ryuugazaki Rei Tachibana Makoto
BeatmapID:456877
BeatmapSetID:191948

[Difficulty]
HPDrainRate:2
CircleSize:3
OverallDifficulty:2
ApproachRate:3
SliderMultiplier:1
SliderTickRate:1

[Events]
//Background and Video events
0,0,"huehue.jpg",0,0
Video,0,"ulululu.avi"
//Break Periods
//Storyboard Layer 0 (Background)
//Storyboard Layer 1 (Fail)
//Storyboard Layer 2 (Pass)
//Storyboard Layer 3 (Foreground)
//Storyboard Sound Samples
//Background Colour Transformations
3,100,163,162,255

[TimingPoints]
2121,368.098159509202,4,2,1,70,1,0
13900,-100,4,2,1,60,0,0
52182,-100,4,2,1,80,0,1
62489,-100,4,2,1,60,0,0
63961,-100,4,2,1,80,0,1
74636,-100,4,2,1,60,0,0
75740,-100,4,2,1,70,0,0
86691,-100,4,2,1,20,0,0

[Colours]
Combo1 : 255,106,181
Combo2 : 0,64,128
Combo3 : 255,128,64
Combo4 : 0,128,64

[HitObjects]
480,104,2120,5,4,0:0:0:0:
432,192,2489,2,0,P|400:228|336:228,1,100,8|2,0:0|0:0,0:0:0:0:
264,200,3225,2,0,P|176:176|104:252,2,200,8|8|8,0:0|0:0|0:0,0:0:0:0:
200,272,5065,6,0,P|272:296|360:208,1,200,2|2,0:0|0:0,0:0:0:0:
380,124,6170,1,8,0:0:0:0:
308,56,6538,2,0,P|236:32|148:120,1,200,2|2,0:0|0:0,0:0:0:0:
136,208,7642,1,8,0:0:0:0:
168,304,8010,6,0,P|260:331|352:288,1,200,4|2,0:0|0:0,0:0:0:0:
416,216,9114,2,0,P|440:144|372:40,2,200,8|8|8,0:0|0:0|0:0,0:0:0:0:
320,188,10955,6,0,B|292:244|216:252|168:212|168:212|88:260|88:260|104:180|104:180|60:120|60:120|152:132|152:132|184:76|264:68|312:112,1,700,2|8,0:0|0:0,0:0:0:0:
408,92,13900,6,0,P|456:80|520:72,2,100,4|8|2,0:0|0:0|0:0,0:0:0:0:
310,111,15004,1,8,0:0:0:0:
265,200,15372,2,0,P|257:248|241:312,2,100,2|8|2,0:0|0:0|0:0,0:0:0:0:
176,156,16476,1,8,0:0:0:0:
76,136,16844,6,0,P|96:88|148:60,1,100,2|8,0:0|0:0,0:0:0:0:
232,76,17581,2,0,L|328:124,1,100,2|8,0:0|0:0,0:0:0:0:
368,208,18317,2,0,P|408:172|416:116,2,100,2|8|2,0:0|0:0|0:0,0:0:0:0:
268,204,19421,1,8,0:0:0:0:
176,160,19789,6,0,L|148:60,2,100,2|8|2,0:0|0:0|0:0,0:0:0:0:
144,256,20894,1,8,0:0:0:0:
204,332,21262,2,0,P|244:308|304:320,1,100,2|8,0:0|0:0,0:0:0:0:
392,340,21998,2,0,P|444:356|488:348,1,100,2|8,0:0|0:0,0:0:0:0:
448,252,22734,5,2,0:0:0:0:
464,152,23102,2,0,P|392:84|308:148,1,200,8|8,0:0|0:0,0:0:0:0:
216,136,24206,1,2,0:0:0:0:
120,160,24574,2,0,P|64:172|28:208,2,100,8|2|8,0:0|0:0|0:0,0:0:0:0:
116,264,25679,6,0,P|156:292|212:304,1,100,4|8,0:0|0:0,0:0:0:0:
304,300,26415,2,0,P|352:288|393:260,1,100,2|8,0:0|0:0,0:0:0:0:
448,176,27151,2,0,P|444:80|352:40,1,200,2|2,0:0|0:0,0:0:0:0:
364,132,28255,1,8,0:0:0:0:
264,136,28624,6,0,P|216:140|168:116,1,100,2|8,0:0|0:0,0:0:0:0:
96,56,29360,2,0,P|76:104|88:168,1,100,2|8,0:0|0:0,0:0:0:0:
132,236,30096,5,2,0:0:0:0:
212,292,30464,2,0,P|260:300|316:292,1,100,8|2,0:0|0:0,0:0:0:0:
384,236,31200,1,8,0:0:0:0:
376,136,31568,6,0,P|340:96|296:80,1,100,4|8,0:0|0:0,0:0:0:0:
195,80,32305,2,0,P|165:118|118:134,1,100,2|8,0:0|0:0,0:0:0:0:
36,80,33041,2,0,P|32:184|112:236,1,200,2|2,0:0|0:0,0:0:0:0:
184,296,34145,1,8,0:0:0:0:
280,316,34513,6,0,P|332:320|388:292,1,100,2|8,0:0|0:0,0:0:0:0:
372,204,35249,2,0,P|416:180|440:128,1,100,2|8,0:0|0:0,0:0:0:0:
344,112,35986,5,2,0:0:0:0:
244,96,36354,2,0,P|204:120|176:176,1,100,8|2,0:0|0:0,0:0:0:0:
176,264,37090,2,0,P|199:307|241:333,1,100,8|2,0:0|0:0,0:0:0:0:
320,272,37826,6,0,P|392:288|464:248,1,150,4|4,0:0|0:0,0:0:0:0:
444,156,38746,2,0,P|372:140|300:180,1,150,4|8,0:0|0:0,0:0:0:0:
208,172,39667,2,0,P|176:96|156:68,1,100,2|8,0:0|0:0,0:0:0:0:
68,84,40403,6,0,P|44:132|28:188,1,100,4|8,0:0|0:0,0:0:0:0:
116,228,41139,2,0,P|130:275|153:320,1,100,2|8,0:0|0:0,0:0:0:0:
248,348,41875,6,0,L|360:356,1,100,2|8,0:0|0:0,0:0:0:0:
444,324,42611,1,2,0:0:0:0:
464,228,42979,2,0,P|452:172|416:140,1,100,8|2,0:0|0:0,0:0:0:0:
364,224,43716,6,0,P|308:256|220:224,1,150,4|4,0:0|0:0,0:0:0:0:
292,156,44636,2,0,P|308:112|260:20,1,150,4|8,0:0|0:0,0:0:0:0:
204,104,45556,2,0,P|148:96|96:112,1,100,2|8,0:0|0:0,0:0:0:0:
72,200,46292,5,4,0:0:0:0:
108,292,46660,1,8,0:0:0:0:
192,344,47028,2,0,P|240:344|296:320,1,100,2|8,0:0|0:0,0:0:0:0:
384,336,47765,6,0,P|400:288|392:228,1,100,2|8,0:0|0:0,0:0:0:0:
368,144,48501,1,2,0:0:0:0:
296,72,48869,1,8,0:0:0:0:
224,136,49237,6,0,B|176:120|176:120|136:144|120:216,2,150,4|4|8,0:0|0:0|0:0,0:0:0:0:
288,216,50709,2,0,L|304:288,2,50,4|2|2,0:0|0:0|0:0,0:0:0:0:
384,216,51446,2,0,L|408:336,1,100,0|0,0:0|0:0,0:0:0:0:
488,256,52182,6,0,L|464:144,2,100,4|8|2,0:0|0:0|0:0,0:0:0:0:
423,336,53286,2,0,P|328:341|279:259,1,200,8|8,0:0|0:0,0:0:0:0:
224,176,54390,1,2,0:0:0:0:
248,80,54759,1,8,0:0:0:0:
344,56,55127,6,0,P|392:44|448:64,2,100,2|8|2,0:0|0:0|0:0,0:0:0:0:
248,80,56231,2,0,P|160:64|112:160,1,200,8|8,0:0|0:0,0:0:0:0:
136,248,57335,1,2,0:0:0:0:
184,336,57703,1,8,0:0:0:0:
240,248,58071,6,0,P|264:280|320:320,1,100,4|8,0:0|0:0,0:0:0:0:
376,240,58808,2,0,P|424:240|480:224,1,100,2|8,0:0|0:0,0:0:0:0:
456,128,59544,2,0,P|408:128|352:144,1,100,2|8,0:0|0:0,0:0:0:0:
264,120,60280,2,0,P|260:88|264:56,2,50,2|8|8,0:0|0:0|0:0,0:0:0:0:
256,216,61016,6,0,P|240:264|208:320,1,100,4|8,0:0|0:0,0:0:0:0:
120,328,61752,1,2,0:0:0:0:
48,256,62120,2,0,P|56:184|72:136,2,100,8|4|8,0:0|0:0|0:0,0:0:0:0:
120,328,63225,1,2,0:0:0:0:
208,280,63593,1,8,0:0:0:0:
288,336,63961,6,0,P|336:348|388:336,2,100,4|8|2,0:0|0:0|0:0,0:0:0:0:
336,248,65065,2,0,B|376:176|272:120|344:48,1,200,8|8,0:0|0:0,0:0:0:0:
432,88,66170,1,2,0:0:0:0:
464,184,66538,1,8,0:0:0:0:
444,280,66906,6,0,P|424:332|376:360,2,100,2|8|2,0:0|0:0|0:0,0:0:0:0:
344,264,68010,2,0,B|320:232|272:232|248:264|248:264|216:232|160:240,1,200,8|8,0:0|0:0,0:0:0:0:
72,280,69114,1,2,0:0:0:0:
80,184,69482,1,8,0:0:0:0:
144,112,69851,6,0,P|192:96|256:96,1,100,4|8,0:0|0:0,0:0:0:0:
320,32,70587,2,0,P|368:64|392:112,1,100,2|8,0:0|0:0,0:0:0:0:
328,176,71323,2,0,P|320:232|288:288,1,100,2|8,0:0|0:0,0:0:0:0:
208,304,72059,2,0,P|160:288|112:240,1,100,2|8,0:0|0:0,0:0:0:0:
80,168,72795,6,0,P|152:104|256:128,1,200,4|2,0:0|0:0,0:0:0:0:
328,176,73900,1,8,0:0:0:0:
336,272,74268,2,0,P|380:256|416:208,1,100,2|0,0:0|0:0,0:0:0:0:
404,120,75004,2,0,P|364:88|300:88,1,100,0|2,0:0|0:0,0:0:0:0:
232,140,75740,5,4,0:0:0:0:
136,116,76108,2,0,P|136:172|168:220,1,100,8|2,0:0|0:0,0:0:0:0:
252,240,76844,2,0,P|364:240|396:336,2,200,8|8|8,0:0|0:0|0:0,0:0:0:0:
160,280,78685,6,0,P|120:192|168:88,1,200,2|2,0:0|0:0,0:0:0:0:
236,44,79789,1,8,0:0:0:0:
320,100,80157,2,0,P|354:191|314:279,1,200,2|2,0:0|0:0,0:0:0:0:
236,344,81262,1,8,0:0:0:0:
176,264,81630,5,4,0:0:0:0:
132,176,81998,2,0,P|144:120|190:86,1,100,8|2,0:0|0:0,0:0:0:0:
234,172,82734,2,0,P|310:220|422:236,2,200,8|8|8,0:0|0:0|0:0,0:0:0:0:
310,107,84574,6,0,P|350:131|406:139,2,100,2|8|2,0:0|0:0|0:0,0:0:0:0:
224,56,85679,1,8,0:0:0:0:
155,128,86047,2,0,P|144:208|168:284,1,150,2|4,0:0|0:0,0:0:0:0:
256,192,86691,12,0,87887,0:0:0:0:
