osu file format v14

[General]
AudioFilename: Mirano.mp3
AudioLeadIn: 0
PreviewTime: 587
Countdown: 0
SampleSet: Normal
StackLeniency: 0.7
Mode: 0
LetterboxInBreaks: 0
WidescreenStoryboard: 0

[Editor]
DistanceSpacing: 1
BeatDivisor: 4
GridSize: 4
TimelineZoom: 1.6

[Metadata]
Title:Mirano Shutsugeki!
TitleUnicode:ミラノ出撃!
Artist:STING
ArtistUnicode:STING
Creator:Sauziteoi
Version:Normal
Source:ユグドラ・ユニオン
Tags:Yggdra Union
BeatmapID:566812
BeatmapSetID:245995

[Difficulty]
HPDrainRate:4
CircleSize:3
OverallDifficulty:5
ApproachRate:5
SliderMultiplier:1
SliderTickRate:1

[Events]
//Background and Video events
0,0,"BG.jpg",0,0
//Break Periods
//Storyboard Layer 0 (Background)
//Storyboard Layer 1 (Fail)
//Storyboard Layer 2 (Pass)
//Storyboard Layer 3 (Foreground)
//Storyboard Sound Samples

[TimingPoints]
-447,344.827586206897,4,1,1,70,1,0
587,-100,4,1,1,70,0,1
3690,-100,4,1,1,60,0,0
25759,-100,4,1,1,50,0,0
36794,-100,4,1,1,70,0,0
39553,-133.333333333333,4,1,1,50,0,0
49208,-100,4,1,1,60,0,0
50587,-100,4,2,1,50,0,0
61621,-100,4,1,1,60,0,0
83690,-100,4,1,1,60,0,1
86449,-100,4,1,1,60,0,0
89208,-100,4,1,1,60,0,1
91966,-100,4,1,1,60,0,0
94725,-100,4,1,1,60,0,1
98690,-100,4,1,1,60,0,0
98777,-100,4,2,1,30,0,0

[Colours]
Combo1 : 86,103,172
Combo2 : 34,122,158
Combo3 : 88,172,175
Combo4 : 132,220,235

[HitObjects]
413,69,587,5,0,0:0:0:0:
372,160,932,2,0,P|328:192|216:200,1,150,8|2,0:0|0:0,0:0:0:0:
192,184,1621,2,0,P|152:160|44:180,1,150,8|2,0:0|0:0,0:0:0:0:
16,208,2311,2,0,P|28:264|44:360,2,150,8|0|0,0:0|0:0|0:0,0:0:0:0:
56,116,3690,6,0,P|116:112|220:104,2,150,4|0|8,0:0|0:0|0:0,0:0:0:0:
24,212,5070,2,0,P|16:268|124:344,1,200
212,308,6104,1,8,0:0:0:0:
308,284,6449,6,0,P|352:280|452:344,2,150,0|0|8,0:0|0:0|0:0,0:0:0:0:
234,215,7828,2,0,P|198:159|274:43,1,200
351,32,8863,1,8,0:0:0:0:
439,79,9208,6,0,P|459:123|479:235,2,150,4|0|8,0:2|0:0|0:0,0:0:0:0:
351,32,10587,2,0,L|231:40,1,100,0|8,0:0|0:0,0:0:0:0:
179,108,11277,2,0,L|59:116,1,100,0|8,0:0|0:0,0:0:0:0:
28,200,11966,2,0,P|36:232|120:320,2,150,0|0|8,0:0|0:0|0:0,0:0:0:0:
98,129,13346,2,0,P|134:121|242:233,1,200
226,319,14380,1,8,0:0:0:0:
324,344,14725,6,0,P|384:344|452:280,2,150,4|0|8,0:0|0:0|0:0,0:0:0:0:
356,248,16104,2,0,L|368:88,2,150,0|0|8,0:0|0:0|0:0,0:0:0:0:
264,288,17484,2,0,P|208:308|124:264,1,150
204,212,18346,1,0,0:0:0:0:
304,196,18690,2,0,P|348:220|404:264,1,100
472,196,19380,2,0,P|492:140|448:48,1,150,0|8,0:0|0:0,0:0:0:0:
360,56,20242,6,0,P|324:84|176:52,1,200,4|0,0:2|0:0,0:0:0:0:
96,16,21277,1,8,0:0:0:0:
44,96,21621,2,0,L|24:200,1,100,0|8,0:0|0:0,0:0:0:0:
108,252,22311,2,0,L|88:356,1,100,0|8,0:0|0:0,0:0:0:0:
188,344,23001,2,0,P|232:328|340:360,2,150,4|4|8,0:2|0:2|0:0,0:0:0:0:
97,299,24380,2,0,L|108:251,1,50,4|4,0:2|0:2,0:0:0:0:
256,192,24639,12,4,25759,0:0:0:0:
104,324,26449,6,0,P|56:284|48:192,1,150,4|4,0:2|0:2,0:0:0:0:
96,116,27311,1,8,0:0:0:0:
176,56,27656,2,0,L|336:84,1,150,4|8,0:2|0:0,0:0:0:0:
416,120,28518,6,0,P|447:212|401:297,1,200,4|8,0:2|0:0,0:0:0:0:
308,332,29553,1,0,0:0:0:0:
212,298,29897,2,0,P|165:212|197:120,1,200,8|8,0:0|0:0,0:0:0:0:
280,64,30932,1,0,0:0:0:0:
372,100,31277,6,0,B|444:128|476:172|476:172|448:208|368:232,1,250,4|4,0:0|0:2,0:0:0:0:
272,224,32484,2,0,P|236:200|168:200,1,100,4|0,0:2|0:0,0:0:0:0:
104,260,33173,2,0,P|52:240|24:144,1,150,4|0,0:2|0:0,0:0:0:0:
64,64,34035,6,0,P|108:52|220:68,2,150,4|0|8,0:2|0:0|0:0,0:0:0:0:
64,164,35415,2,0,P|108:176|220:160,2,150,0|0|8,0:0|0:0|0:0,0:0:0:0:
64,64,36794,6,0,P|108:52|220:68,1,150,4|4,0:2|0:2,0:0:0:0:
303,100,37656,1,0,0:0:0:0:
396,63,38001,2,0,L|392:175,1,100,4|0,0:2|0:0,0:0:0:0:
300,199,38690,2,0,L|304:100,1,100,4|0,0:2|0:0,0:0:0:0:
212,141,39380,6,0,L|208:213,1,50,0|4,0:0|0:2,0:0:0:0:
411,359,40759,2,0,L|411:321,1,37.5000014305115,8|8,0:0|0:0,0:0:0:0:
124,232,42311,5,0,0:0:0:0:
356,108,43518,2,0,L|356:156,1,37.5000014305115,8|8,0:0|0:0,0:0:0:0:
108,316,45070,6,0,P|88:272|140:176,1,150.000005722046
208,181,46104,2,0,L|260:169,2,37.5000014305115,0|8|8,0:0|0:0|0:0,0:0:0:0:
172,255,46794,1,0,0:0:0:0:
205,330,47139,1,0,0:0:0:0:
286,343,47484,1,0,0:0:0:0:
340,280,47828,6,0,L|356:120,1,150.000005722046
295,79,48863,1,0,0:0:0:0:
232,32,49208,2,0,P|188:24|76:64,2,150,8|0|0,0:0|0:0|0:0,0:0:0:0:
324,68,50587,6,0,P|396:72|444:60,2,100,0|8|0,0:0|0:0|0:0,0:0:0:0:
244,128,51621,1,8,0:0:0:0:
164,188,51966,2,0,P|116:180|52:184,1,100,0|8,0:0|0:0,0:0:0:0:
28,216,52484,2,0,P|20:264|40:328,1,100,2|2,0:0|0:0,0:0:0:0:
64,352,53001,1,8,0:0:0:0:
148,296,53346,6,0,P|204:276|260:288,1,100,0|8,0:0|0:0,0:0:0:0:
340,308,54035,1,0,0:0:0:0:
432,344,54380,1,8,0:0:0:0:
480,256,54725,6,0,P|496:192|488:148,1,100,0|8,0:0|0:0,0:0:0:0:
424,84,55415,2,0,P|392:68|308:76,1,100,0|8,0:0|0:0,0:0:0:0:
236,104,56104,6,0,P|176:96|136:72,2,100,4|8|0,0:0|0:0|0:0,0:0:0:0:
328,140,57139,1,8,0:0:0:0:
404,204,57484,2,0,P|428:232|432:308,1,100,0|8,0:0|0:0,0:0:0:0:
408,332,58001,2,0,P|344:328|300:344,1,100,2|2,0:0|0:0,0:0:0:0:
264,356,58518,1,8,0:0:0:0:
256,192,58863,12,0,60932,0:0:0:0:
366,284,61621,2,0,P|396:222|383:141,2,150,4|0|8,0:0|0:0|0:0,0:0:0:0:
274,323,63001,2,0,P|208:304|114:289,2,150,0|0|8,0:0|0:0|0:0,0:0:0:0:
366,284,64380,6,0,P|423:266|472:271,1,100,0|8,0:0|0:0,0:0:0:0:
461,168,65070,2,0,P|404:186|355:181,1,100,0|8,0:0|0:0,0:0:0:0:
287,119,65759,2,0,P|260:83|152:66,2,150,0|0|8,0:0|0:0|0:0,0:0:0:0:
302,218,67139,6,0,L|288:375,2,150,4|0|8,0:2|0:0|0:0,0:0:0:0:
358,135,68518,2,0,P|387:118|464:127,1,100,0|8,0:0|0:0,0:0:0:0:
468,219,69208,2,0,L|470:277,2,50,0|0|8,0:0|0:0|0:0,0:0:0:0:
370,242,69897,1,0,0:0:0:0:
256,192,69984,12,4,71966,0:0:0:0:
104,146,72656,6,0,L|93:310,2,150,0|0|8,0:0|0:0|0:0,0:0:0:0:
196,120,74035,2,0,B|265:154|265:154|331:123,2,150,0|0|8,0:0|0:0|0:0,0:0:0:0:
120,56,75415,6,0,P|92:40|-4:96,2,150,4|4|8,0:2|0:2|0:0,0:0:0:0:
156,92,76621,2,0,P|152:136|144:208,1,100,0|0,0:0|0:0,0:0:0:0:
112,288,77311,2,0,P|152:280|256:308,1,150
356,312,78173,6,0,P|340:268|212:176,1,200,4|0,0:2|0:0,0:0:0:0:
168,92,79208,1,8,0:0:0:0:
266,74,79553,2,0,L|387:93,1,100
382,188,80242,2,0,L|261:169,1,100
187,143,80932,6,0,P|165:84|197:0,2,150,4|4|8,0:2|0:2|0:0,0:0:0:0:
277,187,82311,2,0,L|345:179,1,50,4|4,0:2|0:2,0:0:0:0:
256,192,82570,12,4,83690,0:0:0:0:
344,136,84380,6,0,P|372:172|344:268,1,150,0|4,0:0|0:2,0:0:0:0:
257,304,85242,1,0,0:0:0:0:
169,252,85587,2,0,P|111:216|23:235,1,150,4|0,0:2|0:0,0:0:0:0:
88,316,86449,6,0,P|171:355|258:302,1,200,4|8,0:2|0:0,0:0:0:0:
301,213,87484,1,0,0:0:0:0:
343,122,87828,2,0,P|430:82|512:132,1,200,0|8,0:0|0:0,0:0:0:0:
461,219,88863,1,0,0:0:0:0:
368,257,89208,6,0,L|256:241,1,100,4|8,0:2|0:0,0:0:0:0:
176,204,89897,2,0,P|152:164|180:60,1,150,0|4,0:0|0:2,0:0:0:0:
267,37,90759,1,0,0:0:0:0:
336,108,91104,2,0,P|388:132|480:100,1,150,4|8,0:2|0:0,0:0:0:0:
484,208,91966,6,0,P|460:244|460:352,2,150,4|0|8,0:2|0:0|0:0,0:0:0:0:
384,192,93346,2,0,P|408:156|408:48,2,150,0|0|8,0:0|0:0|0:0,0:0:0:0:
300,248,94725,6,0,P|244:224|144:248,1,150,4|4,0:2|0:2,0:0:0:0:
76,296,95587,1,4,0:2:0:0:
48,200,95932,2,0,P|44:148|56:96,1,100,4|0,0:2|0:0,0:0:0:0:
148,64,96621,1,4,0:2:0:0:
228,120,96966,2,0,P|260:152|364:128,1,150,0|4,0:0|0:2,0:0:0:0:
428,68,97828,5,0,0:0:0:0:
492,144,98173,2,0,P|507:202|492:256,1,100
452,256,98690,6,0,P|344:220|224:288,1,250,4|0,0:0|0:0,0:0:0:0:
