osu file format v14

[General]
AudioFilename: Mirano.mp3
AudioLeadIn: 0
PreviewTime: 587
Countdown: 0
SampleSet: Normal
StackLeniency: 0.7
Mode: 0
LetterboxInBreaks: 0
WidescreenStoryboard: 0

[Editor]
DistanceSpacing: 0.6
BeatDivisor: 4
GridSize: 4
TimelineZoom: 1.6

[Metadata]
Title:Mirano Shutsugeki!
TitleUnicode:ミラノ出撃!
Artist:STING
ArtistUnicode:STING
Creator:Sauziteoi
Version:Expert
Source:ユグドラ・ユニオン
Tags:Yggdra Union
BeatmapID:566811
BeatmapSetID:245995

[Difficulty]
HPDrainRate:7
CircleSize:3
OverallDifficulty:8
ApproachRate:9
SliderMultiplier:2.4
SliderTickRate:1

[Events]
//Background and Video events
0,0,"BG.jpg",0,0
//Break Periods
//Storyboard Layer 0 (Background)
//Storyboard Layer 1 (Fail)
//Storyboard Layer 2 (Pass)
//Storyboard Layer 3 (Foreground)
//Storyboard Sound Samples

[TimingPoints]
-447,344.827586206897,4,1,1,60,1,0
587,-100,4,1,1,60,0,1
2828,-100,4,1,1,40,0,1
3173,-100,4,1,1,60,0,1
3690,-100,4,1,1,60,0,0
36794,-100,4,1,1,70,0,0
39553,-133.333333333333,4,1,1,50,0,0
49208,-100,4,1,1,60,0,0
50587,-200,4,2,1,45,0,0
61621,-100,4,1,1,60,0,0
83690,-100,4,1,1,60,0,1
86449,-100,4,1,1,60,0,0
89208,-100,4,1,1,60,0,1
91966,-100,4,1,1,60,0,0
94725,-100,4,1,1,70,0,1
98690,-400,4,1,1,60,0,0
98777,-400,4,2,0,30,0,0

[Colours]
Combo1 : 86,103,172
Combo2 : 34,122,158
Combo3 : 88,172,175
Combo4 : 132,220,235

[HitObjects]
64,124,587,6,0,L|40:56,1,60,0|0,0:0|3:0,0:0:0:0:
64,288,759,2,0,L|40:356,1,60,0|0,0:0|3:0,0:0:0:0:
180,131,932,2,0,P|257:93|334:132,2,180,8|8|8,0:0|0:0|0:0,0:0:0:0:
484,32,1621,2,0,P|444:109|483:186,2,180,8|8|8,0:0|0:0|0:0,0:0:0:0:
388,352,2311,5,0,0:0:0:0:
376,240,2484,1,0,0:0:0:0:
300,152,2656,1,0,0:0:0:0:
120,113,2828,2,0,P|83:222|145:320,1,240,4|0,0:0|0:0,0:0:0:0:
382,316,3346,2,0,L|265:294,1,120
442,63,3690,5,4,0:0:0:0:
470,180,3863,1,0,0:0:0:0:
338,216,4035,1,8,0:0:0:0:
211,70,4208,2,0,P|152:60|92:56,1,120
61,292,4553,1,0,0:0:0:0:
61,292,4725,1,8,0:0:0:0:
172,176,4897,5,0,0:0:0:0:
180,224,4984,1,0,0:0:0:0:
205,266,5070,2,0,P|258:291|318:290,1,120
392,32,5415,1,8,0:0:0:0:
480,188,5587,2,0,P|428:152|348:132,1,120
177,306,5932,2,0,P|225:340|282:360,1,120
274,244,6277,1,0,0:0:0:0:
274,244,6363,1,0,0:0:0:0:
274,244,6449,38,0,P|262:186|268:127,1,120
130,48,6794,1,8,0:0:0:0:
375,178,6966,1,0,0:0:0:0:
167,313,7139,2,0,P|110:296|57:268,1,120
373,78,7484,2,0,P|430:95|483:123,1,120,8|0,0:0|0:0,0:0:0:0:
376,352,7828,6,0,P|306:266|374:178,1,240,0|8,0:0|0:0,0:0:0:0:
479,307,8346,1,0,0:0:0:0:
180,357,8518,1,0,0:0:0:0:
279,86,8690,1,0,0:0:0:0:
400,226,8863,5,8,0:0:0:0:
358,249,8949,1,8,0:0:0:0:
314,269,9035,1,8,0:0:0:0:
266,263,9121,1,8,0:0:0:0:
219,245,9208,2,0,P|162:228|103:229,1,120,4|0,0:2|0:0,0:0:0:0:
71,46,9553,1,8,0:0:0:0:
411,91,9725,2,0,P|421:149|419:209,1,120
241,351,10070,1,0,0:0:0:0:
211,131,10242,1,8,0:0:0:0:
337,284,10415,1,0,0:0:0:0:
114,188,10587,6,0,P|119:74|221:23,1,240,0|8,0:0|0:0,0:0:0:0:
455,212,11104,1,0,0:0:0:0:
455,212,11190,1,0,0:0:0:0:
455,212,11277,2,0,P|462:271|460:331,1,120
270,243,11621,1,8,0:0:0:0:
80,317,11794,1,0,0:0:0:0:
269,138,11966,38,0,P|328:133|388:135,1,120
270,345,12311,2,0,P|212:324|178:276,1,120,8|0,0:0|0:0,0:0:0:0:
267,44,12656,1,0,0:0:0:0:
378,292,12828,1,0,0:0:0:0:
407,297,12915,1,0,0:0:0:0:
436,302,13001,1,8,0:0:0:0:
270,243,13173,1,0,0:0:0:0:
161,292,13346,5,0,0:0:0:0:
150,320,13433,1,0,0:0:0:0:
139,347,13518,1,0,0:0:0:0:
270,243,13690,1,8,0:0:0:0:
173,182,13863,1,0,0:0:0:0:
168,152,13949,1,0,0:0:0:0:
163,122,14035,1,0,0:0:0:0:
159,92,14121,1,0,0:0:0:0:
154,61,14208,1,0,0:0:0:0:
270,243,14380,1,8,0:0:0:0:
73,294,14553,5,0,0:0:0:0:
73,294,14639,1,0,0:0:0:0:
73,294,14725,1,4,0:0:0:0:
149,174,14897,1,0,0:0:0:0:
68,69,15070,1,8,0:0:0:0:
457,95,15242,1,0,0:0:0:0:
376,200,15415,1,0,0:0:0:0:
452,320,15587,1,0,0:0:0:0:
357,27,15759,2,0,P|298:26|241:46,1,120,8|0,0:0|0:0,0:0:0:0:
64,203,16104,5,0,0:0:0:0:
227,312,16277,1,0,0:0:0:0:
227,312,16363,1,0,0:0:0:0:
227,312,16449,1,8,0:0:0:0:
300,136,16621,1,0,0:0:0:0:
441,288,16794,1,0,0:0:0:0:
448,258,16880,1,0,0:0:0:0:
455,228,16966,1,0,0:0:0:0:
462,198,17053,1,0,0:0:0:0:
469,169,17139,1,8,0:0:0:0:
339,315,17311,1,0,0:0:0:0:
222,111,17484,38,0,P|121:61|38:137,1,240,4|8,0:2|0:0,0:0:0:0:
331,227,18001,1,4,0:2:0:0:
331,227,18087,1,0,0:0:0:0:
331,226,18173,2,0,P|369:181|391:125,1,120
56,221,18518,1,8,0:0:0:0:
261,341,18690,6,0,P|373:302|492:309,1,240
492,309,19121,1,0,0:0:0:0:
492,309,19208,1,8,0:0:0:0:
414,71,19380,2,0,P|408:130|383:184,1,120
295,240,19725,1,0,0:0:0:0:
177,231,19897,1,8,0:0:0:0:
66,187,20070,1,0,0:3:0:0:
293,80,20242,5,4,0:2:0:0:
413,312,20415,1,0,0:0:0:0:
413,312,20501,1,0,0:0:0:0:
413,311,20587,2,0,P|440:259|486:221,1,120,8|0,0:0|0:0,0:0:0:0:
286,332,20932,1,0,0:0:0:0:
152,356,21104,1,0,0:0:0:0:
61,218,21277,1,8,0:0:0:0:
195,242,21449,1,0,0:0:0:0:
288,147,21621,6,0,P|304:90|306:30,1,120
117,113,21966,1,8,0:0:0:0:
286,332,22139,1,0,0:0:0:0:
466,248,22311,2,0,L|478:125,1,120
336,138,22656,1,8,0:0:0:0:
466,248,22828,1,0,0:0:0:0:
425,67,23001,38,0,P|319:26|229:98,1,240,4|0,0:0|0:0,0:0:0:0:
6,300,23518,2,0,P|112:341|202:269,1,240,4|0,0:0|0:0,0:0:0:0:
80,109,24035,1,4,0:0:0:0:
80,109,24121,1,0,0:0:0:0:
80,109,24208,1,0,0:0:0:0:
306,337,24380,5,4,0:2:0:0:
461,193,24553,1,4,0:2:0:0:
245,155,24725,1,0,0:0:0:0:
444,341,24897,1,0,0:0:0:0:
444,341,24984,1,0,0:0:0:0:
444,341,25070,2,0,P|505:330|525:330,1,60
335,302,25242,2,0,P|298:307|260:307,1,60
413,227,25415,2,0,P|434:205|461:193,1,60
312,174,25587,2,0,L|254:159,1,60
403,106,25759,38,0,P|444:56|495:23,1,120,4|0,0:0|0:0,0:0:0:0:
335,302,26104,1,8,0:0:0:0:
182,173,26277,1,0,0:0:0:0:
182,173,26363,1,0,0:0:0:0:
182,173,26449,2,0,P|171:103|198:36,1,120,0|4,0:0|0:2,0:0:0:0:
414,226,26794,2,0,L|476:202,1,60,8|0,0:0|0:0,0:0:0:0:
324,213,26966,2,0,P|260:203|80:264,1,240,4|0,0:2|0:0,0:0:0:0:
356,327,27484,1,8,0:0:0:0:
356,327,27570,1,0,0:0:0:0:
356,327,27656,2,0,P|380:228|268:104,1,240,4|0,0:2|0:0,0:0:0:0:
32,69,28173,6,0,L|101:90,1,60,8|0,0:0|0:0,0:0:0:0:
177,165,28346,2,0,L|103:184,1,60
49,287,28518,2,0,P|80:231|247:260,1,240,4|8,0:2|0:0,0:0:0:0:
307,340,29035,1,0,0:0:0:0:
438,259,29208,2,0,L|465:109,1,120
279,190,29553,2,0,L|306:340,1,120,8|0,0:0|0:0,0:0:0:0:
356,97,29897,2,0,B|275:88|275:88|218:111|218:111|121:100,3,240,0|8|0|8,0:0|0:0|0:0|0:0,0:0:0:0:
56,313,31104,69,0,0:0:0:0:
56,313,31190,1,0,0:0:0:0:
56,313,31277,2,0,P|115:272|165:267,1,120,4|0,0:0|0:0,0:0:0:0:
354,337,31621,1,8,0:0:0:0:
459,169,31794,1,0,0:0:0:0:
459,169,31880,1,0,0:0:0:0:
459,169,31966,2,0,L|324:195,1,120,0|4,0:0|0:2,0:0:0:0:
101,205,32311,2,0,L|35:183,1,60,8|0,0:0|0:0,0:0:0:0:
191,206,32484,2,0,P|239:105|157:29,1,240,4|0,0:2|0:0,0:0:0:0:
278,297,33001,1,8,0:0:0:0:
278,297,33087,1,0,0:0:0:0:
278,297,33173,2,0,P|381:345|473:277,1,240,4|0,0:2|0:0,0:0:0:0:
388,69,33690,6,0,L|373:136,1,60
312,197,33863,2,0,L|291:124,1,60
235,68,34035,2,0,P|207:119|153:142,1,120,4|0,0:2|0:0,0:0:0:0:
39,42,34380,1,8,0:0:0:0:
86,276,34553,2,0,P|193:326|310:311,1,240
470,120,35070,1,8,0:0:0:0:
441,262,35242,1,0,0:0:0:0:
300,140,35415,6,0,P|256:78|256:13,1,120
409,44,35759,1,8,0:0:0:0:
327,260,35932,2,0,P|211:240|121:163,1,240
108,150,36363,1,0,0:0:0:0:
96,135,36449,2,0,L|76:260,1,120,8|0,0:0|0:0,0:0:0:0:
281,352,36794,53,4,0:0:0:0:
464,166,36966,1,0,0:0:0:0:
233,36,37139,1,0,0:0:0:0:
456,327,37311,1,2,0:0:0:0:
281,352,37656,1,0,0:0:0:0:
464,166,37828,1,0,0:0:0:0:
233,36,38001,5,2,0:0:0:0:
139,57,38346,1,2,0:0:0:0:
61,113,38690,1,2,0:0:0:0:
28,203,39035,2,0,P|158:222|290:265,1,240
456,346,39553,21,4,0:2:0:0:
456,346,40759,1,0,0:0:0:0:
491,167,40931,1,8,0:0:0:0:
491,167,42311,5,8,0:0:0:0:
491,167,43518,1,0,0:0:0:0:
352,328,43690,1,8,0:0:0:0:
352,328,45070,5,0,0:0:0:0:
305,250,45415,1,0,0:0:0:0:
225,208,45759,1,0,0:0:0:0:
134,207,46104,1,0,0:0:0:0:
134,207,46277,1,8,0:0:0:0:
259,44,46449,5,8,0:0:0:0:
318,111,46794,1,0,0:0:0:0:
398,150,47139,1,0,0:0:0:0:
487,157,47484,1,0,0:0:0:0:
442,321,47828,5,8,0:0:0:0:
364,275,48173,1,0,0:0:0:0:
274,263,48518,1,0,0:0:0:0:
186,283,48863,1,0,0:0:0:0:
186,283,49035,1,8,0:0:0:0:
36,140,49208,5,8,0:0:0:0:
56,232,49380,1,0,0:0:0:0:
76,324,49553,1,0,0:0:0:0:
274,262,49725,2,0,P|269:145|192:56,1,240
176,47,50156,1,0,0:0:0:0:
159,39,50242,2,0,L|5:23,1,120
92,230,50587,22,0,L|168:219,1,60,4|2,0:0|0:0,0:0:0:0:
187,342,50932,1,8,0:0:0:0:
327,188,51104,1,2,0:0:0:0:
327,188,51190,1,2,0:0:0:0:
327,188,51277,2,0,L|315:114,1,60,0|2,0:0|0:0,0:0:0:0:
426,343,51621,1,8,0:0:0:0:
476,219,51794,1,2,0:0:0:0:
415,92,51966,38,0,L|420:22,1,60,0|2,0:0|0:0,0:0:0:0:
226,101,52311,2,0,L|245:163,1,60,8|2,0:0|0:0,0:0:0:0:
69,251,52656,2,0,L|82:192,1,60,0|2,0:0|0:0,0:0:0:0:
83,193,52915,1,2,0:0:0:0:
83,193,53001,1,8,0:0:0:0:
254,346,53173,1,2,0:0:0:0:
416,256,53346,38,0,L|488:274,1,60,0|2,0:0|0:0,0:0:0:0:
334,135,53690,2,0,L|256:156,1,60,8|2,0:0|0:0,0:0:0:0:
388,56,54035,1,0,0:0:0:0:
308,224,54208,1,2,0:0:0:0:
308,224,54294,1,2,0:0:0:0:
308,224,54380,1,8,0:0:0:0:
152,104,54553,1,2,0:0:0:0:
55,239,54725,6,0,L|67:351,1,90,4|0,0:0|0:0,0:0:0:0:
144,360,55070,2,0,L|153:270,1,90,4|0,0:0|0:0,0:0:0:0:
232,240,55415,2,0,L|241:329,1,90,4|0,0:0|0:0,0:0:0:0:
320,360,55759,2,0,L|328:295,1,60,4|2,0:0|0:0,0:0:0:0:
310,79,56104,5,4,0:0:0:0:
420,243,56277,1,2,0:0:0:0:
420,243,56363,1,2,0:0:0:0:
420,243,56449,2,0,L|490:243,1,60,8|2,0:0|0:0,0:0:0:0:
366,162,56794,2,0,L|289:187,1,60,0|2,0:0|0:0,0:0:0:0:
170,86,57139,2,0,L|254:114,1,60,8|2,0:0|0:0,0:0:0:0:
452,43,57484,5,0,0:0:0:0:
420,243,57656,1,2,0:0:0:0:
420,243,57742,1,2,0:0:0:0:
420,243,57828,2,0,L|448:323,1,60,8|2,0:0|0:0,0:0:0:0:
216,327,58173,2,0,L|244:263,1,60,0|2,0:0|0:0,0:0:0:0:
66,183,58518,2,0,L|81:251,1,60,8|2,0:0|0:0,0:0:0:0:
278,190,58863,37,4,0:0:0:0:
280,175,58949,1,0,0:0:0:0:
281,160,59035,1,0,0:0:0:0:
281,145,59121,1,0,0:0:0:0:
278,130,59207,1,8,0:0:0:0:
273,116,59294,1,0,0:0:0:0:
267,102,59380,1,0,0:0:0:0:
258,90,59466,1,0,0:0:0:0:
249,79,59552,1,0,0:0:0:0:
237,69,59638,1,0,0:0:0:0:
225,60,59725,1,0,0:0:0:0:
212,53,59811,1,0,0:0:0:0:
198,48,59897,1,8,0:0:0:0:
183,45,59983,1,0,0:0:0:0:
168,44,60069,1,0,0:0:0:0:
153,45,60156,1,0,0:0:0:0:
139,47,60242,5,4,0:0:0:0:
143,61,60328,1,0,0:0:0:0:
147,75,60414,1,0,0:0:0:0:
150,90,60500,1,0,0:0:0:0:
153,105,60586,1,8,0:0:0:0:
155,119,60673,1,0,0:0:0:0:
157,134,60759,1,0,0:0:0:0:
158,149,60845,1,0,0:0:0:0:
158,164,60931,1,8,0:0:0:0:
157,179,61017,1,8,0:0:0:0:
156,194,61104,1,0,0:0:0:0:
155,209,61190,1,0,0:0:0:0:
152,224,61276,1,8,0:0:0:0:
150,239,61362,1,0,0:0:0:0:
146,253,61448,1,0,0:0:0:0:
142,268,61535,1,0,0:0:0:0:
137,282,61621,5,4,0:0:0:0:
411,133,61966,5,8,0:0:0:0:
468,277,62139,2,0,P|444:330|393:360,1,120
213,195,62484,1,0,0:0:0:0:
243,43,62656,1,8,0:0:0:0:
321,247,62828,37,0,0:0:0:0:
321,247,62915,1,0,0:0:0:0:
320,247,63001,2,0,P|281:291|226:314,1,120
66,262,63346,1,8,0:0:0:0:
210,145,63518,2,0,P|305:217|415:263,1,240
427,266,63949,1,0,0:0:0:0:
438,267,64035,2,0,P|473:219|502:167,1,120,8|0,0:0|0:0,0:0:0:0:
311,93,64380,5,0,0:0:0:0:
355,338,64553,1,0,0:0:0:0:
431,75,64725,1,8,0:0:0:0:
191,108,64897,1,0,0:0:0:0:
198,137,64984,1,0,0:0:0:0:
205,166,65070,2,0,P|245:209|302:226,1,120
116,48,65415,2,0,P|57:30|1:43,1,120,8|0,0:0|0:0,0:0:0:0:
202,308,65759,6,0,P|315:336|418:280,1,240,0|8,0:0|0:0,0:0:0:0:
463,87,66277,1,0,0:0:0:0:
463,87,66363,1,0,0:0:0:0:
463,87,66449,1,0,0:0:0:0:
213,41,66621,1,0,0:0:0:0:
313,248,66794,5,8,0:0:0:0:
342,243,66880,1,8,0:0:0:0:
371,238,66966,1,8,0:0:0:0:
400,233,67053,1,8,0:0:0:0:
430,226,67139,2,0,P|469:183|472:124,1,120,4|0,0:2|0:0,0:0:0:0:
298,50,67484,1,8,0:0:0:0:
174,239,67656,2,0,L|197:364,1,120
410,342,68001,1,0,0:0:0:0:
264,164,68173,1,8,0:0:0:0:
456,32,68346,1,0,0:0:0:0:
188,96,68518,38,0,P|174:208|271:266,1,240,0|8,0:0|0:0,0:0:0:0:
398,161,69035,1,0,0:0:0:0:
398,161,69121,1,0,0:0:0:0:
398,161,69208,2,0,L|529:136,1,120
474,353,69553,2,0,L|343:328,1,120,8|0,0:0|0:0,0:0:0:0:
311,62,69897,5,0,0:0:0:0:
426,261,70070,1,0,0:0:0:0:
426,261,70156,1,0,0:0:0:0:
426,261,70242,1,8,0:0:0:0:
229,134,70415,1,0,0:0:0:0:
416,47,70587,1,0,0:0:0:0:
303,233,70759,1,0,0:0:0:0:
303,233,70846,1,0,0:0:0:0:
303,233,70932,1,8,0:0:0:0:
311,62,71104,1,0,0:0:0:0:
426,261,71277,6,0,P|387:317|279:346,1,180
249,335,71621,1,8,0:0:0:0:
351,154,71794,1,0,0:0:0:0:
386,159,71880,1,0,0:0:0:0:
421,164,71966,1,0,0:0:0:0:
456,169,72053,1,0,0:0:0:0:
491,175,72139,1,0,0:0:0:0:
245,58,72311,1,8,0:0:0:0:
139,265,72484,5,0,0:0:0:0:
110,257,72570,1,0,0:0:0:0:
80,248,72656,2,0,P|36:216|16:152,1,120,4|0,0:0|0:0,0:0:0:0:
310,123,73001,1,8,0:0:0:0:
500,264,73173,1,0,0:0:0:0:
231,234,73346,1,0,0:0:0:0:
445,126,73518,1,0,0:0:0:0:
358,335,73690,1,8,0:0:0:0:
310,123,73863,37,0,0:0:0:0:
310,123,73949,1,0,0:0:0:0:
309,122,74035,2,0,P|261:87|206:65,1,120
248,337,74380,1,8,0:0:0:0:
405,254,74553,1,0,0:0:0:0:
411,224,74639,1,0,0:0:0:0:
417,194,74725,1,0,0:0:0:0:
423,164,74811,1,0,0:0:0:0:
429,134,74897,1,0,0:0:0:0:
478,342,75070,1,8,0:0:0:0:
272,92,75242,5,0,0:0:0:0:
272,92,75328,1,0,0:0:0:0:
271,91,75415,2,0,P|167:42|67:100,1,240,4|0,0:2|0:0,0:0:0:0:
267,261,75932,1,4,0:2:0:0:
267,261,76018,1,0,0:0:0:0:
267,261,76104,2,0,L|403:204,1,120
78,223,76449,1,4,0:2:0:0:
78,223,76535,1,0,0:0:0:0:
77,223,76621,2,0,P|45:272|31:330,1,120
190,160,76966,5,8,0:0:0:0:
284,360,77139,1,0,0:0:0:0:
284,360,77225,1,0,0:0:0:0:
284,359,77311,2,0,P|380:298|483:348,1,240
483,348,77742,1,0,0:0:0:0:
483,348,77828,1,8,0:0:0:0:
391,156,78001,1,0,0:0:0:0:
216,269,78173,5,4,0:2:0:0:
26,209,78346,1,0,0:0:0:0:
187,63,78518,1,8,0:0:0:0:
318,235,78690,2,0,P|286:346|173:366,1,240
107,136,79208,1,8,0:0:0:0:
306,87,79380,37,0,0:0:0:0:
306,87,79466,1,0,0:0:0:0:
306,87,79553,2,0,L|444:111,1,120
421,312,79897,1,8,0:0:0:0:
260,161,80070,1,0,0:0:0:0:
102,246,80242,2,0,P|75:302|76:362,1,120
360,242,80587,1,8,0:0:0:0:
152,140,80759,1,0,0:0:0:0:
277,323,80932,6,0,P|346:352|478:259,1,240,4|8,0:0|0:0,0:0:0:0:
235,66,81449,2,0,P|166:37|34:130,1,240,4|0,0:0|0:0,0:0:0:0:
256,193,81966,1,4,0:0:0:0:
256,193,82139,1,0,0:0:0:0:
453,318,82311,5,4,0:2:0:0:
464,85,82484,1,4,0:2:0:0:
158,184,82656,1,0,0:0:0:0:
326,332,82828,1,0,0:0:0:0:
326,332,82915,1,0,0:0:0:0:
326,332,83001,2,0,P|364:282|404:256,1,60
252,256,83173,2,0,L|182:269,1,60
351,192,83346,2,0,L|429:203,1,60
261,120,83518,2,0,P|216:108|181:104,1,60
356,57,83690,22,0,P|414:44|474:44,1,120,4|0,0:0|0:0,0:0:0:0:
451,302,84035,1,8,0:0:0:0:
103,166,84208,1,0,0:0:0:0:
103,166,84294,1,0,0:0:0:0:
102,165,84380,2,0,P|91:107|103:48,1,120,0|4,0:0|0:2,0:0:0:0:
197,282,84725,2,0,L|179:370,1,60,8|0,0:0|0:0,0:0:0:0:
286,351,84897,2,0,P|373:278|481:318,1,240,4|0,0:2|0:0,0:0:0:0:
299,132,85415,1,8,0:0:0:0:
299,132,85501,1,0,0:0:0:0:
298,132,85587,2,0,P|211:205|103:165,1,240,4|0,0:2|0:0,0:0:0:0:
339,46,86104,6,0,L|422:80,1,60,8|0,0:0|0:0,0:0:0:0:
497,142,86277,2,0,L|421:170,1,60
356,224,86449,2,0,P|468:226|508:331,1,240,4|8,0:2|0:0,0:0:0:0:
271,332,86966,1,0,0:0:0:0:
79,230,87139,2,0,P|82:168|103:105,1,120,0|0,0:0|0:0,0:0:0:0:
324,148,87484,2,0,P|320:210|300:273,1,120,8|0,0:0|0:0,0:0:0:0:
176,52,87828,2,0,B|255:67|255:67|320:49|320:49|428:70,3,240,0|8|0|8,0:0|0:0|0:0|0:0,0:0:0:0:
449,297,89035,69,0,0:0:0:0:
449,297,89121,1,0,0:0:0:0:
448,297,89208,2,0,P|395:322|336:315,1,120,4|0,0:0|0:0,0:0:0:0:
145,181,89553,1,8,0:0:0:0:
360,67,89725,1,0,0:0:0:0:
376,91,89811,1,0,0:0:0:0:
392,116,89897,2,0,L|375:249,1,120,0|4,0:0|0:2,0:0:0:0:
212,311,90242,2,0,L|161:343,1,60,8|0,0:0|0:0,0:0:0:0:
256,235,90415,2,0,P|252:118|174:30,1,240,4|0,0:2|0:0,0:0:0:0:
108,241,90932,1,8,0:0:0:0:
108,241,91018,1,0,0:0:0:0:
108,241,91104,2,0,P|216:288|340:260,1,240,4|0,0:2|0:0,0:0:0:0:
460,98,91621,6,0,L|492:32,1,60,8|0,0:0|0:0,0:0:0:0:
453,185,91794,2,0,L|487:252,1,60
384,134,91966,2,0,P|333:105|276:86,1,120,4|0,0:2|0:0,0:0:0:0:
182,236,92311,1,8,0:0:0:0:
364,271,92484,2,0,P|390:155|388:35,1,240
388,35,92915,1,0,0:0:0:0:
388,35,93001,1,8,0:0:0:0:
258,134,93173,1,0,0:0:0:0:
443,337,93346,6,0,P|461:273|476:211,1,120
300,63,93690,1,8,0:0:0:0:
91,128,93863,2,0,P|92:256|146:376,1,240
184,364,94294,1,0,0:0:0:0:
232,368,94380,2,0,P|272:308|284:248,1,120,8|0,0:0|0:0,0:0:0:0:
478,355,94725,69,4,0:2:0:0:
324,188,94897,1,4,0:2:0:0:
477,41,95070,1,0,0:0:0:0:
133,139,95242,1,4,0:2:0:0:
285,176,95587,5,4,0:2:0:0:
438,29,95760,1,0,0:0:0:0:
94,127,95932,5,4,0:2:0:0:
81,222,96277,1,4,0:2:0:0:
105,314,96621,1,4,0:2:0:0:
184,367,96966,1,4,0:2:0:0:
279,371,97311,69,0,0:0:0:0:
279,371,97397,1,0,0:0:0:0:
279,371,97484,1,4,0:2:0:0:
467,130,97656,1,4,0:2:0:0:
271,57,97828,1,0,0:0:0:0:
475,296,98001,1,0,0:0:0:0:
468,36,98173,5,4,2:0:0:0:
120,164,98346,1,0,0:0:0:0:
392,344,98518,1,0,0:0:0:0:
277,203,98690,6,0,B|282:142|282:142|266:108|266:108|271:49,1,150,4|0,0:0|0:0,0:0:0:0:
