osu file format v14

[General]
AudioFilename: Tsukiakari no Michishirube.mp3
AudioLeadIn: 1500
PreviewTime: 49989
Countdown: 0
SampleSet: Soft
StackLeniency: 0.7
Mode: 0
LetterboxInBreaks: 0
WidescreenStoryboard: 0

[Editor]
Bookmarks: 1335,21945,51258
DistanceSpacing: 1.1
BeatDivisor: 4
GridSize: 4
TimelineZoom: 1.2

[Metadata]
Title:Tsukiakari no Michishirube
TitleUnicode:ツキアカリのミチシルベ
Artist:STEREOPONY
ArtistUnicode:ステレオポニー
Creator:RandomEffect
Version:Normal
Source:DARKER THAN BLACK -流星の双子-
Tags:dtb Ryuusei no Gemini opening tv size
BeatmapID:709535
BeatmapSetID:318656

[Difficulty]
HPDrainRate:4
CircleSize:3.5
OverallDifficulty:5
ApproachRate:5
SliderMultiplier:1.4
SliderTickRate:1

[Events]
//Background and Video events
0,0,"bg.jpg",0,0
Video,0,"op-hq.avi"
//Break Periods
//Storyboard Layer 0 (Background)
//Storyboard Layer 1 (Fail)
//Storyboard Layer 2 (Pass)
//Storyboard Layer 3 (Foreground)
//Storyboard Sound Samples

[TimingPoints]
-507,458.015267175573,4,1,0,40,1,0
1325,-100,4,2,1,60,0,0
10256,-100,4,1,1,70,0,0
19645,-100,4,3,0,40,0,0
21935,458.015267175573,4,1,0,40,1,0
21935,-100,4,2,2,60,0,0
36591,-125,4,2,2,50,0,0
43919,-100,4,2,2,60,0,0
51247,-100,4,1,1,70,0,1
65789,-100,4,1,1,70,0,0
65904,-100,4,1,1,70,0,1
84225,-100,4,2,1,40,0,0

[Colours]
Combo1 : 126,126,126
Combo2 : 255,136,79
Combo3 : 106,106,255
Combo4 : 255,77,77

[HitObjects]
97,53,1325,6,0,P|169:29|257:45,1,140,2|0,0:0|0:0,0:0:0:0:
376,87,2241,1,2,0:0:0:0:
494,185,2699,1,0,0:0:0:0:
494,185,2928,2,0,P|431:229|386:285,1,140,2|0,0:0|0:0,0:0:0:0:
346,340,3615,2,0,P|382:366|431:376,2,70,2|0|0,0:0|0:0|0:0,0:0:0:0:
294,282,4302,2,0,L|259:197,1,70,0|2,0:0|0:0,0:0:0:0:
215,72,4989,6,0,P|152:102|117:162,1,140,2|0,0:0|0:0,0:0:0:0:
63,304,5905,2,0,L|10:165,1,140,2|0,0:0|0:0,0:0:0:0:
28,97,6592,2,0,B|52:93|52:93|55:26|129:11,1,140,2|0,0:0|0:0,0:0:0:0:
275,4,7508,1,0,0:0:0:0:
275,4,7737,2,0,P|331:46|411:44,1,140,2|0,0:0|0:0,0:0:0:0:
512,156,8653,6,0,P|477:217|497:307,1,140,2|0,0:0|0:0,0:0:0:0:
332,312,9569,2,0,L|312:220,2,70,2|0|0,0:0|0:0|0:0,0:0:0:0:
276,364,10256,2,0,P|211:386|146:363,2,140,4|4|4,0:0|0:0|0:0,0:0:0:0:
304,212,11630,2,0,P|336:192|392:188,2,70,0|8|0,0:0|0:0|0:0,0:0:0:0:
243,259,12317,6,0,L|129:157,1,140,4|8,0:0|0:0,0:0:0:0:
173,15,13233,2,0,L|277:108,1,140,0|8,0:0|0:0,0:0:0:0:
336,158,13920,1,0,0:0:0:0:
399,202,14149,2,0,P|448:144|510:127,2,140,0|8|0,0:0|0:0|0:0,0:0:0:0:
353,349,15523,2,0,L|303:298,1,70
306,222,15981,6,0,B|298:157|223:103,1,140,4|8,0:0|0:0,0:0:0:0:
110,12,16897,2,0,B|124:119|124:119|91:141,1,140,0|8,0:0|0:0,0:0:0:0:
27,169,17584,1,0,0:0:0:0:
27,169,17813,2,0,P|19:254|61:319,1,140,0|8,0:0|0:0,0:0:0:0:
188,356,18729,2,0,L|328:320,2,140,0|8|0,0:0|0:0|0:0,0:0:0:0:
256,192,19874,12,4,21248,0:0:0:0:
274,41,22393,6,0,P|342:30|400:67,1,140,8|0,0:0|0:0,0:0:0:0:
488,195,23309,2,0,L|459:266,1,70
420,325,23767,2,0,B|367:373|312:344|312:344|282:352,1,140,2|0,0:0|0:0,0:0:0:0:
217,373,24454,2,0,P|184:316|104:278,1,140,8|2,0:0|0:0,0:0:0:0:
43,278,25141,2,0,L|179:211,1,140,8|2,0:0|0:0,0:0:0:0:
310,156,26057,5,8,0:0:0:0:
202,45,26515,2,0,P|138:17|54:47,1,140
81,187,27431,2,0,L|23:134,2,70,2|2|8,0:0|0:0|0:0,0:0:0:0:
218,255,28347,2,0,L|276:202,2,70,2|8|8,0:0|0:0|0:0,0:0:0:0:
141,255,29034,1,8,0:0:0:0:
67,278,29263,6,0,P|78:345|136:381,1,140,6|8,0:0|0:0,0:0:0:0:
288,382,30179,2,0,L|404:292,1,140
456,245,30866,1,8,0:0:0:0:
468,168,31095,2,0,P|396:139|335:84,1,140,2|8,0:0|0:0,0:0:0:0:
312,31,31782,2,0,P|245:8|181:41,1,140,0|2,0:0|0:0,0:0:0:0:
138,98,32469,1,8,0:0:0:0:
119,250,32927,6,0,L|11:340,2,140,2|8|0,0:0|0:0|0:0,0:0:0:0:
256,179,34301,1,8,0:0:0:0:
392,250,34759,2,0,L|520:358,2,140,2|8|2,0:0|0:0|0:0,0:0:0:0:
333,300,35904,2,0,P|284:329|182:307,1,140,8|8,0:0|0:0,0:0:0:0:
144,272,36591,5,6,0:0:0:0:
22,249,37049,1,0,0:0:0:0:
22,249,37278,1,8,0:3:0:0:
11,310,37507,2,0,P|45:355|105:384,1,112,0|8,0:0|0:0,0:0:0:0:
153,367,38194,2,0,P|187:360|219:364,1,56,0|2,0:0|0:0,0:0:0:0:
331,380,38881,5,0,0:0:0:0:
331,380,39110,1,8,0:3:0:0:
392,376,39339,2,0,P|383:318|354:262,1,112,0|8,0:0|0:0,0:0:0:0:
412,236,40026,2,0,L|468:208,1,56,0|6,0:0|0:0,0:0:0:0:
498,92,40713,5,0,0:0:0:0:
465,39,40942,1,8,0:3:0:0:
411,8,41171,1,0,0:0:0:0:
355,35,41400,2,0,L|339:89,1,56,2|8,0:0|0:0,0:0:0:0:
305,207,42087,6,0,P|277:151|235:117,1,112,2|0,0:0|0:0,0:0:0:0:
185,90,42774,1,8,0:0:0:0:
131,119,43003,2,0,L|76:165,2,56,8|8|8,0:0|0:0|0:0,0:0:0:0:
158,270,43919,6,0,P|206:318|275:326,1,140,4|8,0:0|0:0,0:0:0:0:
277,173,44835,2,0,P|346:181|394:230,1,140,0|8,0:0|0:0,0:0:0:0:
411,305,45522,1,0,0:0:0:0:
339,334,45751,2,0,L|199:383,1,140,4|8,0:0|0:0,0:0:0:0:
130,382,46438,1,0,0:0:0:0:
128,304,46668,2,0,P|119:235|76:181,1,140,0|8,0:0|0:0,0:0:0:0:
11,41,47583,6,0,P|66:26|128:55,2,105,4|0|0,0:0|0:0|0:0,0:0:0:0:
40,112,48499,1,8,0:0:0:0:
76,182,48728,1,8,0:0:0:0:
112,249,48957,1,8,0:0:0:0:
236,339,49415,2,0,L|274:252,1,70,8|8,0:0|0:0,0:0:0:0:
356,62,50331,2,0,B|391:68|391:68|393:92|393:92|445:98|468:150,1,140
454,210,51018,1,0,0:0:0:0:
454,210,51247,6,0,P|416:267|348:275,1,140,4|8,0:0|0:0,0:0:0:0:
328,122,52164,1,0,0:0:0:0:
213,18,52622,1,8,0:0:0:0:
213,18,52851,2,0,P|176:74|110:110,1,140
39,130,53538,1,8,0:0:0:0:
39,283,53996,2,0,P|76:339|142:375,1,140,0|8,0:0|0:0,0:0:0:0:
215,379,54683,1,0,0:0:0:0:
215,379,54912,5,4,0:0:0:0:
359,324,55370,2,0,P|322:265|261:232,1,140,8|0,0:0|0:0,0:0:0:0:
110,205,56286,1,8,0:0:0:0:
110,205,56515,2,0,L|225:99,1,140
268,57,57202,1,8,0:0:0:0:
332,16,57431,2,0,P|364:3|398:5,2,70
376,78,58118,2,0,P|391:117|435:153,1,70,8|0,0:0|0:0,0:0:0:0:
461,194,58576,6,0,P|428:249|346:286,1,140,4|8,0:0|0:0,0:0:0:0:
217,331,59492,2,0,L|264:385,2,70,0|8|8,0:0|0:0|0:0,0:0:0:0:
169,270,60179,1,4,0:0:0:0:
29,204,60637,1,4,0:0:0:0:
70,55,61095,1,4,0:0:0:0:
219,18,61553,2,0,L|304:40,2,70,0|8|0,0:0|0:0|0:0,0:0:0:0:
156,63,62241,6,0,L|215:205,1,140,4|8,0:0|0:0,0:0:0:0:
287,325,63157,2,0,L|328:177,1,140,0|8,0:0|0:0,0:0:0:0:
350,117,63843,1,0,0:0:0:0:
420,85,64073,2,0,P|469:143|475:226,1,140,0|8,0:0|0:0,0:0:0:0:
468,280,64759,1,0,0:0:0:0:
411,331,64989,2,0,P|440:351|475:356,2,70,0|0|8,0:0|0:0|0:0,0:0:0:0:
348,288,65675,6,0,L|312:380,1,70,0|4,0:0|0:0,0:0:0:0:
182,307,66362,2,0,P|128:280|34:284,1,140,8|0,0:0|0:0,0:0:0:0:
19,128,67278,1,8,0:0:0:0:
19,128,67507,2,0,L|160:54,1,140
210,100,68194,2,0,B|273:130|273:130|362:87,1,140,8|0,0:0|0:0,0:0:0:0:
401,57,68881,2,0,P|376:33|343:22,2,70,0|0|0,0:0|0:0|0:0,0:0:0:0:
449,118,69569,6,0,P|469:201|444:267,1,140,4|8,0:0|0:0,0:0:0:0:
300,244,70484,2,0,P|232:254|194:310,1,140,0|8,0:0|0:0,0:0:0:0:
180,384,71171,2,0,P|159:308|97:262,1,140
50,226,71858,1,8,0:0:0:0:
50,150,72087,2,0,L|50:80,2,70,0|8|0,0:0|0:0|0:0,0:0:0:0:
50,226,72774,6,0,P|108:177|170:178,1,140,4|4,0:0|0:0,0:0:0:0:
207,326,73690,2,0,P|275:323|326:277,1,140,8|0,0:0|0:0,0:0:0:0:
377,219,74377,2,0,P|404:242|445:257,2,70,8|8|4,0:0|0:0|0:0,0:0:0:0:
275,102,75294,1,4,0:0:0:0:
130,46,75752,2,0,P|116:113|141:177,1,140,4|0,0:0|0:0,0:0:0:0:
189,237,76438,1,8,0:0:0:0:
216,308,76667,1,0,0:0:0:0:
173,372,76896,6,0,P|114:333|26:305,1,140,4|8,0:0|0:0,0:0:0:0:
23,157,77812,2,0,P|86:135|163:79,1,140,0|8,0:0|0:0,0:0:0:0:
209,50,78499,1,0,0:0:0:0:
285,54,78728,2,0,P|311:118|319:206,1,140,0|8,0:0|0:0,0:0:0:0:
309,341,79644,2,0,L|227:299,1,70,0|0,0:0|0:0,0:0:0:0:
178,344,80102,2,0,P|112:320|66:269,1,140,8|4,0:0|0:0,0:0:0:0:
22,121,81018,5,8,0:0:0:0:
176,141,81477,2,0,B|199:149|199:149|218:125|218:125|276:134|319:94,1,140,0|8,0:0|0:0,0:0:0:0:
357,58,82164,1,0,0:0:0:0:
431,40,82393,2,0,L|507:28,2,70,0|0|8,0:0|0:0|0:0,0:0:0:0:
333,159,83309,2,0,L|281:295,1,140,8|8,0:0|0:0,0:0:0:0:
256,192,84225,12,0,88118,0:0:0:0:
