osu file format v14

[General]
AudioFilename: opto.mp3
AudioLeadIn: 1500
PreviewTime: 338
Countdown: 0
SampleSet: Soft
StackLeniency: 0.7
Mode: 0
LetterboxInBreaks: 0
WidescreenStoryboard: 1

[Editor]
DistanceSpacing: 1.3
BeatDivisor: 4
GridSize: 4
TimelineZoom: 3.099999

[Metadata]
Title:Renegade
TitleUnicode:Renegade
Artist:STEREO DIVE FOUNDATION
ArtistUnicode:STEREO DIVE FOUNDATION
Creator:tutuhaha
Version:Normal
Source:GANGSTA.
Tags:ギャングスタ opening TV size AngelHoney IamKwaN
BeatmapID:731204
BeatmapSetID:329657

[Difficulty]
HPDrainRate:3
CircleSize:3
OverallDifficulty:4
ApproachRate:5.5
SliderMultiplier:1.4
SliderTickRate:1

[Events]
//Background and Video events
Video,0,"opto.flv"
0,0,"t01bf6703c4ef277bd1.jpg",0,0
//Break Periods
//Storyboard Layer 0 (Background)
//Storyboard Layer 1 (Fail)
//Storyboard Layer 2 (Pass)
//Storyboard Layer 3 (Foreground)
//Storyboard Sound Samples

[TimingPoints]
-995,444.444444444444,4,2,1,70,1,0
57671,-100,4,2,1,70,0,1
80782,-100,4,2,1,70,0,0

[Colours]
Combo1 : 106,0,213
Combo2 : 255,85,170
Combo3 : 18,124,255
Combo4 : 255,192,0

[HitObjects]
32,56,338,6,0,P|72:104|148:128,1,140,0|0,0:0|1:0,0:0:0:0:
228,92,1004,1,0,0:0:0:0:
308,48,1227,2,0,L|460:60,2,140,2|0|2,0:0|0:0|0:0,0:0:0:0:
228,92,2338,6,0,P|216:140|136:192,1,140
88,260,3004,2,0,P|132:280|180:272,1,70,2|0,0:0|0:0,0:0:0:0:
228,332,3449,2,0,L|312:344,1,70,0|0,0:0|3:0,0:0:0:0:
328,256,3893,2,0,L|258:246,1,70,2|0,0:0|0:0,0:0:0:0:
216,168,4338,6,0,P|184:112|96:92,2,140,0|2|0,1:0|0:0|0:0,0:0:0:0:
124,184,5449,2,0,L|128:264,1,70,0|2,0:0|0:0,0:0:0:0:
172,332,5893,6,0,P|240:336|312:300,1,140
392,288,6560,2,0,P|372:244|332:220,1,70,2|2,0:0|0:0,0:0:0:0:
384,144,7004,2,0,L|392:56,2,70,2|2|2,0:0|0:0|0:0,0:0:0:0:
216,212,7893,6,0,L|188:132,1,70,4|0,1:0|0:0,0:0:0:0:
140,72,8338,2,0,P|196:56|232:64,1,70,0|0,1:0|0:0,0:0:0:0:
292,24,8782,2,0,P|352:56|448:48,1,140,0|0,1:0|1:0,0:0:0:0:
480,128,9449,1,0,0:0:0:0:
408,184,9671,6,0,L|388:272,1,70,0|0,1:0|0:0,0:0:0:0:
308,288,10116,2,0,L|288:376,1,70,0|0,1:0|0:0,0:0:0:0:
200,364,10560,2,0,P|156:336|52:340,1,140,0|0,1:0|1:0,0:0:0:0:
20,160,11449,6,0,P|60:180|100:176,1,70,0|0,1:0|0:0,0:0:0:0:
124,96,11893,2,0,P|196:72|264:80,1,140,0|0,1:0|1:0,0:0:0:0:
336,32,12560,1,0,0:0:0:0:
428,32,12782,2,0,L|444:104,1,70,0|0,1:0|0:0,0:0:0:0:
460,188,13227,5,0,1:0:0:0:
340,324,13671,1,2,0:0:0:0:
188,220,14116,1,8,3:0:0:0:
188,220,14338,1,2,3:0:0:0:
188,220,14560,2,0,P|156:184|56:168,1,140,2|4,0:0|0:0,0:0:0:0:
48,76,15227,5,0,0:0:0:0:
136,48,15449,2,0,P|204:60|292:24,1,140,0|0,1:0|0:0,0:0:0:0:
360,24,16116,1,0,0:0:0:0:
448,48,16338,2,0,L|428:140,1,70,0|0,1:0|0:0,0:0:0:0:
392,196,16782,6,0,P|352:168|244:164,1,140,0|0,0:0|1:0,0:0:0:0:
176,188,17449,1,0,0:0:0:0:
104,244,17671,2,0,P|88:208|88:164,2,70,0|0|0,0:0|0:0|1:0,0:0:0:0:
248,360,18560,6,0,L|332:356,1,70
388,300,19004,2,0,P|340:272|300:184,1,140,0|0,1:0|0:0,0:0:0:0:
256,120,19671,1,0,0:0:0:0:
292,36,19893,2,0,L|384:36,1,70,0|0,1:0|0:0,0:0:0:0:
448,68,20338,6,0,P|476:116|480:180,2,105,0|0|0,3:0|1:0|3:0,0:0:0:0:
380,128,21227,1,2,0:0:0:0:
252,260,21671,1,2,0:0:0:0:
68,252,22116,6,0,P|92:196|164:152,1,140,4|0,0:0|1:0,0:0:0:0:
180,64,22782,2,0,L|332:48,1,140
412,40,23449,1,0,1:0:0:0:
432,220,23893,5,0,0:0:0:0:
272,304,24338,2,0,P|260:244|268:184,2,105,0|0|0,1:0|0:0|0:0,0:0:0:0:
184,336,25227,2,0,P|144:348|108:348,1,70,0|0,1:0|0:0,0:0:0:0:
44,292,25671,6,0,P|88:256|188:240,1,140,0|0,0:0|1:0,0:0:0:0:
252,76,26560,2,0,L|404:68,1,140,0|0,0:0|1:0,0:0:0:0:
468,236,27449,6,0,P|461:287|469:339,4,105,0|0|0|0|0,1:0|1:0|1:0|1:0|1:0,0:0:0:0:
288,208,29227,6,0,L|296:108,1,70,4|0,0:0|0:0,0:0:0:0:
384,120,29671,2,0,P|328:104|272:32,1,140,0|0,1:0|0:0,0:0:0:0:
188,20,30338,1,0,0:0:0:0:
104,52,30560,2,0,L|88:132,2,70,0|0|0,1:0|0:0|0:0,0:0:0:0:
180,220,31449,6,0,P|236:240|292:324,1,140,0|0,1:0|0:0,0:0:0:0:
376,308,32116,1,0,0:0:0:0:
432,236,32338,2,0,L|512:216,2,70,0|0|0,1:0|0:0|0:0,0:0:0:0:
328,84,33227,5,0,1:0:0:0:
152,36,33671,2,0,P|112:72|84:176,1,140,0|0,0:0|1:0,0:0:0:0:
52,236,34338,1,0,0:0:0:0:
52,236,34560,6,0,P|116:244|192:304,1,140,0|0,0:0|1:0,0:0:0:0:
260,328,35227,2,0,P|336:348|416:328,1,140
464,276,35893,1,0,1:0:0:0:
464,276,36338,1,4,0:0:0:0:
440,96,36782,6,0,P|368:92|304:132,1,140,4|0,1:0|0:0,0:0:0:0:
240,180,37449,1,0,0:0:0:0:
160,224,37671,2,0,L|76:240,2,70,0|0|0,1:0|0:0|0:0,0:0:0:0:
312,324,38560,6,0,P|376:296|416:228,1,140,0|0,1:0|0:0,0:0:0:0:
404,148,39227,1,0,0:0:0:0:
336,88,39449,2,0,P|328:48|328:16,2,70,0|0|0,1:0|0:0|0:0,0:0:0:0:
488,188,40338,5,0,1:0:0:0:
312,236,40782,2,0,P|268:224|216:236,1,70
180,292,41227,2,0,L|100:304,1,70,0|0,1:0|0:0,0:0:0:0:
52,232,41671,6,0,P|32:168|36:116,1,105,4|0,1:0|1:0,0:0:0:0:
144,48,42338,2,0,L|260:44,1,105,0|0,1:0|1:0,0:0:0:0:
372,104,43004,2,0,P|320:120|260:204,1,140,0|4,1:0|0:0,0:0:0:0:
268,364,43893,5,0,0:0:0:0:
448,328,44338,2,0,P|456:280|412:192,1,140,0|0,1:0|0:0,0:0:0:0:
328,188,45004,6,0,P|248:160|212:92,1,140,0|0,0:0|3:0,0:0:0:0:
168,40,45671,1,0,3:0:0:0:
64,188,46116,2,0,L|40:264,1,70,0|0,1:0|0:0,0:0:0:0:
124,296,46560,2,0,L|145:229,1,70
192,152,47004,6,0,P|244:124|344:128,1,140
380,192,47671,1,0,0:0:0:0:
412,276,47893,2,0,P|360:304|260:300,1,140,0|0,1:0|0:0,0:0:0:0:
192,320,48560,6,0,P|140:280|44:264,1,140,0|0,0:0|3:0,0:0:0:0:
40,176,49227,1,0,3:0:0:0:
64,88,49449,2,0,L|152:76,1,70,0|0,0:0|1:0,0:0:0:0:
212,32,49893,1,0,0:0:0:0:
304,48,50116,2,0,L|392:60,1,70
460,84,50560,6,0,P|440:144|464:232,1,140
296,308,51449,2,0,P|316:248|292:160,1,140,0|0,1:0|0:0,0:0:0:0:
228,120,52116,1,0,0:0:0:0:
152,72,52338,6,0,P|124:36|116:8,2,70,0|0|0,0:0|3:0|3:0,0:0:0:0:
148,164,53004,1,0,0:0:0:0:
128,252,53227,2,0,P|112:292|80:328,1,70,0|0,1:0|0:0,0:0:0:0:
180,348,53671,2,0,L|332:356,1,140
472,252,54560,5,0,0:0:0:0:
448,72,55004,2,0,L|308:64,1,140,0|0,1:0|0:0,0:0:0:0:
256,192,55893,12,4,57671,0:0:0:0:
284,84,58560,6,0,P|232:48|132:44,1,140,0|0,0:0|1:0,0:0:0:0:
92,104,59227,1,0,0:0:0:0:
44,180,59449,6,0,P|96:192|132:184,1,70
204,188,59893,2,0,L|212:276,1,70,0|0,1:0|0:0,0:0:0:0:
284,312,60338,2,0,P|352:316|428:268,1,140,0|0,0:0|1:0,0:0:0:0:
464,108,61227,5,0,0:0:0:0:
312,208,61671,1,0,1:0:0:0:
176,88,62116,2,0,P|92:56|28:68,1,140,0|0,0:0|1:0,0:0:0:0:
32,152,62782,6,0,P|56:196|148:236,1,140
200,296,63449,1,0,1:0:0:0:
276,344,63671,2,0,L|364:352,1,70
416,292,64116,1,0,0:0:0:0:
476,224,64338,2,0,P|432:200|392:200,1,70,0|0,1:0|0:0,0:0:0:0:
344,140,64782,6,0,P|288:176|192:176,1,140,0|0,0:0|1:0,0:0:0:0:
64,80,65671,2,0,P|120:44|216:44,1,140,0|0,0:0|1:0,0:0:0:0:
284,28,66338,6,0,P|336:44|440:32,1,140
484,104,67004,2,0,L|456:192,1,70,0|0,1:0|0:0,0:0:0:0:
440,260,67449,2,0,P|388:264|296:312,1,140,0|0,0:0|1:0,0:0:0:0:
136,360,68338,5,0,0:0:0:0:
60,196,68782,1,0,1:0:0:0:
148,36,69227,2,0,P|200:88|216:172,1,140,0|0,0:0|1:0,0:0:0:0:
296,196,69893,6,0,P|384:208|448:180,1,140
480,112,70560,1,0,1:0:0:0:
428,40,70782,2,0,P|464:24|520:24,2,70,0|0|0,0:0|1:0|0:0,0:0:0:0:
340,64,71449,2,0,L|256:60,1,70,0|0,1:0|0:0,0:0:0:0:
180,56,71893,5,4,0:0:0:0:
80,208,72338,2,0,L|40:268,2,70,0|0|0,1:0|0:0|0:0,0:0:0:0:
260,240,73227,2,0,L|298:181,2,70,0|0|0,1:0|0:0|0:0,0:0:0:0:
424,324,74116,6,0,L|384:384,2,70,0|0|0,1:0|0:0|0:0,0:0:0:0:
460,240,74782,1,0,0:0:0:0:
496,156,75004,2,0,P|456:152|408:168,1,70,0|0,1:0|0:0,0:0:0:0:
344,200,75449,5,0,0:0:0:0:
212,76,75893,2,0,L|250:17,2,70,0|0|0,1:0|0:0|0:0,0:0:0:0:
48,156,76782,2,0,L|9:214,2,70,0|0|0,1:0|0:0|0:0,0:0:0:0:
188,272,77671,6,0,L|226:213,2,70,0|0|0,1:0|0:0|0:0,0:0:0:0:
248,340,78338,1,0,0:0:0:0:
336,368,78560,2,0,P|384:360|416:344,1,70,0|0,1:0|0:0,0:0:0:0:
464,284,79004,6,0,P|440:240|348:200,1,140,0|0,0:0|1:0,0:0:0:0:
340,112,79671,2,0,P|272:120|184:76,1,140
132,40,80338,2,0,L|88:96,1,70,0|0,1:0|0:0,0:0:0:0:
44,172,80782,6,0,P|44:236|96:308,1,140,4|0,1:0|1:0,0:0:0:0:
168,336,81449,1,0,0:0:0:0:
256,360,81671,2,0,P|256:316|240:276,1,70,0|0,3:0|3:0,0:0:0:0:
236,200,82116,2,0,P|236:156|252:116,1,70,0|0,1:0|0:0,0:0:0:0:
288,52,82560,6,0,L|412:52,2,105,4|2|2,0:0|0:0|0:0,0:0:0:0:
200,24,83449,2,0,L|112:24,1,70,0|2,0:0|0:0,0:0:0:0:
40,24,83893,1,4,1:0:0:0:
36,208,84338,6,0,L|36:332,2,105,4|2|2,0:0|0:0|0:0,0:0:0:0:
124,188,85227,2,0,L|124:258,1,70,0|2,0:0|0:0,0:0:0:0:
124,348,85671,1,4,1:0:0:0:
272,244,86116,6,0,P|336:224|392:224,2,105,4|2|2,0:0|0:0|0:0,0:0:0:0:
288,332,87004,2,0,P|248:344|204:340,1,70,0|2,0:0|0:0,0:0:0:0:
124,348,87449,1,4,1:0:0:0:
72,176,87893,6,0,P|68:120|88:64,2,105,4|4|4,0:0|0:0|0:0,0:0:0:0:
