osu file format v14

[General]
AudioFilename: opto.mp3
AudioLeadIn: 1500
PreviewTime: 338
Countdown: 0
SampleSet: Soft
StackLeniency: 0.7
Mode: 0
LetterboxInBreaks: 0
WidescreenStoryboard: 1

[Editor]
DistanceSpacing: 1.3
BeatDivisor: 4
GridSize: 4
TimelineZoom: 2.4

[Metadata]
Title:Renegade
TitleUnicode:Renegade
Artist:STEREO DIVE FOUNDATION
ArtistUnicode:STEREO DIVE FOUNDATION
Creator:tutuhaha
Version:Easy
Source:GANGSTA.
Tags:ギャングスタ opening TV size AngelHoney IamKwaN
BeatmapID:730869
BeatmapSetID:329657

[Difficulty]
HPDrainRate:2
CircleSize:2
OverallDifficulty:2
ApproachRate:3
SliderMultiplier:1
SliderTickRate:1

[Events]
//Background and Video events
Video,0,"opto.flv"
0,0,"t01bf6703c4ef277bd1.jpg",0,0
//Break Periods
//Storyboard Layer 0 (Background)
//Storyboard Layer 1 (Fail)
//Storyboard Layer 2 (Pass)
//Storyboard Layer 3 (Foreground)
//Storyboard Sound Samples

[TimingPoints]
-995,444.444444444444,4,2,1,70,1,0
57671,-100,4,2,1,70,0,1
80782,-100,4,2,1,70,0,0

[Colours]
Combo1 : 106,0,213
Combo2 : 255,85,170
Combo3 : 18,124,255
Combo4 : 255,192,0

[HitObjects]
324,72,338,6,0,P|288:80|220:56,1,100,0|0,0:0|1:0,0:0:0:0:
104,28,1227,1,2,0:0:0:0:
72,152,1671,2,0,P|60:212|100:304,2,150,0|2|2,0:0|0:0|0:0,0:0:0:0:
188,208,3449,2,0,P|248:204|292:184,2,100,0|2|0,0:0|0:0|1:0,0:0:0:0:
212,80,4782,5,2,0:0:0:0:
340,60,5227,2,0,L|504:44,2,150,0|2|2,0:0|0:0|0:0,0:0:0:0:
396,176,7004,2,0,L|504:168,1,100,0|2,0:0|0:0,0:0:0:0:
464,296,7893,6,0,L|364:303,1,100,4|0,1:0|1:0,0:0:0:0:
240,340,8782,2,0,P|196:304|144:288,1,100,0|0,1:0|1:0,0:0:0:0:
36,236,9671,1,0,1:0:0:0:
44,108,10116,1,0,1:0:0:0:
156,44,10560,2,0,L|264:40,1,100,0|0,1:0|1:0,0:0:0:0:
388,40,11449,5,0,1:0:0:0:
468,144,11893,2,0,P|480:188|472:256,2,100,0|0|0,1:0|1:0|1:0,0:0:0:0:
348,200,13227,2,0,L|248:203,1,100,0|2,1:0|0:0,0:0:0:0:
116,208,14116,1,8,3:0:0:0:
44,100,14560,1,2,0:0:0:0:
172,96,15004,6,0,P|216:76|260:28,1,100,4|0,0:0|1:0,0:0:0:0:
384,44,15893,2,0,L|408:152,1,100,0|0,0:0|1:0,0:0:0:0:
432,268,16782,1,0,0:0:0:0:
328,344,17227,1,0,1:0:0:0:
212,284,17671,1,0,0:0:0:0:
108,360,18116,1,0,1:0:0:0:
72,236,18560,6,0,P|48:176|52:132,1,100,0|0,0:0|1:0,0:0:0:0:
140,48,19449,2,0,L|260:28,1,100,0|0,0:0|1:0,0:0:0:0:
340,112,20338,2,0,P|404:100|436:80,2,100,0|0|2,0:0|1:0|0:0,0:0:0:0:
288,232,21671,1,2,0:0:0:0:
248,356,22116,6,0,L|136:376,1,100,4|0,0:0|1:0,0:0:0:0:
72,268,23004,2,0,L|170:250,1,100,0|0,0:0|1:0,0:0:0:0:
240,140,23893,2,0,L|338:157,1,100,0|0,0:0|1:0,0:0:0:0:
420,56,24782,2,0,L|321:38,1,100,0|0,0:0|1:0,0:0:0:0:
196,12,25671,5,0,0:0:0:0:
96,96,26116,1,0,1:0:0:0:
44,216,26560,1,0,0:0:0:0:
144,300,27004,1,0,1:0:0:0:
212,192,27449,2,0,B|268:224|272:284|272:284|328:264|372:284,1,200,0|0,1:0|0:0,0:0:0:0:
476,328,28782,1,0,1:0:0:0:
464,200,29227,6,0,L|496:96,1,100,4|0,0:0|1:0,0:0:0:0:
384,32,30116,2,0,L|354:127,1,100,0|0,0:0|1:0,0:0:0:0:
312,252,31004,1,0,0:0:0:0:
208,176,31449,1,0,1:0:0:0:
108,256,31893,2,0,P|84:300|80:364,2,100,0|0|0,0:0|1:0|0:0,0:0:0:0:
52,136,33227,5,0,1:0:0:0:
144,44,33671,2,0,L|264:40,1,100,0|0,0:0|1:0,0:0:0:0:
332,136,34560,2,0,P|380:144|448:132,1,100,0|0,0:0|1:0,0:0:0:0:
480,260,35449,2,0,L|440:364,1,100,0|0,0:0|1:0,0:0:0:0:
316,348,36338,5,4,0:0:0:0:
252,236,36782,2,0,P|208:272|192:320,2,100,4|0|0,1:0|0:0|1:0,0:0:0:0:
348,148,38116,1,0,0:0:0:0:
476,152,38560,2,0,P|464:92|428:48,2,100,0|0|0,1:0|0:0|1:0,0:0:0:0:
408,264,39893,1,0,0:0:0:0:
280,248,40338,6,0,L|168:256,1,100,0|0,1:0|0:0,0:0:0:0:
64,196,41227,1,0,1:0:0:0:
16,76,41671,2,0,P|84:64|160:112,2,150,4|0|0,1:0|1:0|1:0,0:0:0:0:
64,196,43449,1,4,0:0:0:0:
268,356,44338,6,0,P|340:336|396:224,1,200,0|0,1:0|0:0,0:0:0:0:
268,228,45671,1,0,3:0:0:0:
240,100,46116,2,0,P|174:63|56:102,1,200,0|0,1:0|0:0,0:0:0:0:
16,220,47449,1,0,0:0:0:0:
84,332,47893,6,0,P|149:368|267:329,1,200,0|0,1:0|0:0,0:0:0:0:
344,232,49227,1,0,3:0:0:0:
396,112,49671,2,0,P|346:106|297:114,1,100,0|0,1:0|0:0,0:0:0:0:
204,204,50560,1,0,0:0:0:0:
408,368,51449,6,0,P|396:260|468:200,1,200,0|0,1:0|0:0,0:0:0:0:
428,76,52782,1,0,3:0:0:0:
308,32,53227,2,0,L|200:36,1,100,0|0,1:0|0:0,0:0:0:0:
256,192,54116,12,0,55893,0:0:0:0:
472,84,57671,6,0,L|472:184,1,100,4|0,0:0|1:0,0:0:0:0:
440,312,58560,2,0,P|388:292|332:288,1,100,0|0,0:0|1:0,0:0:0:0:
216,256,59449,2,0,L|108:268,1,100,0|0,0:0|1:0,0:0:0:0:
24,176,60338,2,0,P|68:148|128:148,1,100,0|0,0:0|1:0,0:0:0:0:
204,48,61227,5,0,0:0:0:0:
308,128,61671,1,0,1:0:0:0:
424,68,62116,2,0,P|480:52|520:24,2,100,0|0|0,0:0|1:0|0:0,0:0:0:0:
416,196,63449,1,0,1:0:0:0:
308,272,63893,2,0,P|276:320|268:372,1,100,0|0,0:0|1:0,0:0:0:0:
140,352,64782,6,0,L|128:248,1,100,0|0,0:0|1:0,0:0:0:0:
56,144,65671,1,0,0:0:0:0:
140,44,66116,1,0,1:0:0:0:
216,148,66560,2,0,P|280:152|332:136,1,100,0|0,0:0|1:0,0:0:0:0:
408,52,67449,2,0,P|456:42|506:47,1,100,0|0,0:0|1:0,0:0:0:0:
464,172,68338,6,0,L|456:292,1,100,0|0,0:0|1:0,0:0:0:0:
328,260,69227,2,0,L|320:380,1,100,0|0,0:0|1:0,0:0:0:0:
192,360,70116,1,0,0:0:0:0:
116,256,70560,1,0,1:0:0:0:
164,136,71004,1,0,1:0:0:0:
88,32,71449,1,0,1:0:0:0:
216,12,71893,6,0,P|264:40|292:92,1,100,4|0,0:0|1:0,0:0:0:0:
368,180,72782,2,0,P|416:164|456:128,1,100,0|0,0:0|1:0,0:0:0:0:
500,256,73671,2,0,L|496:360,1,100,0|0,0:0|1:0,0:0:0:0:
368,340,74560,1,0,0:0:0:0:
240,356,75004,1,0,1:0:0:0:
136,276,75449,6,0,P|176:240|236:228,1,100,0|0,0:0|1:0,0:0:0:0:
292,120,76338,2,0,L|192:88,1,100,0|0,0:0|1:0,0:0:0:0:
72,48,77227,1,0,0:0:0:0:
36,172,77671,1,0,1:0:0:0:
152,232,78116,1,0,0:0:0:0:
116,356,78560,1,0,1:0:0:0:
244,336,79004,6,0,P|296:328|336:300,1,100,0|0,0:0|1:0,0:0:0:0:
360,172,79893,2,0,P|308:180|268:208,1,100,0|0,0:0|1:0,0:0:0:0:
156,140,80782,6,0,L|168:36,2,100,4|0|0,1:0|1:0|3:0,0:0:0:0:
144,268,82116,1,0,1:0:0:0:
248,344,82560,6,0,P|320:356|404:328,2,150,4|2|4,0:0|0:0|1:0,0:0:0:0:
208,220,84338,2,0,P|136:208|52:236,2,150,4|2|4,0:0|0:0|1:0,0:0:0:0:
336,204,86116,6,0,L|424:72,2,150,4|2|4,0:0|0:0|1:0,0:0:0:0:
208,228,87893,2,0,P|160:212|136:196,2,75,4|4|4,0:0|0:0|0:0,0:0:0:0:
