osu file format v14

[General]
AudioFilename: renegade.mp3
AudioLeadIn: 0
PreviewTime: 116
Countdown: 0
SampleSet: Soft
StackLeniency: 0.7
Mode: 3
LetterboxInBreaks: 0
SpecialStyle: 0
WidescreenStoryboard: 1

[Editor]
DistanceSpacing: 1
BeatDivisor: 4
GridSize: 4
TimelineZoom: 1.500001

[Metadata]
Title:Renegade
TitleUnicode:Renegade
Artist:STEREO DIVE FOUNDATION
ArtistUnicode:STEREO DIVE FOUNDATION
Creator:bLooD raYNe
Version:NM
Source:ギャングスタ
Tags:Gangsta. twilight handymen aras25
BeatmapID:848667
BeatmapSetID:359589

[Difficulty]
HPDrainRate:7
CircleSize:4
OverallDifficulty:7
ApproachRate:5
SliderMultiplier:1.4
SliderTickRate:1

[Events]
//Background and Video events
0,0,"bg.png",0,0
//Break Periods
//Storyboard Layer 0 (Background)
//Storyboard Layer 1 (Fail)
//Storyboard Layer 2 (Pass)
//Storyboard Layer 3 (Foreground)
//Storyboard Sound Samples

[TimingPoints]
782,444.444444444444,4,2,0,50,1,0
57670,-100,4,2,0,50,0,1
71781,-100,4,2,0,50,0,0
71893,-100,4,2,0,50,0,1
80781,-100,4,2,0,50,0,0

[HitObjects]
64,192,337,128,0,782:0:0:0:0:
192,192,782,1,0,0:0:0:0:
320,192,1004,1,0,0:0:0:0:
448,192,1226,1,0,0:0:0:0:
192,192,1448,1,0,0:0:0:0:
64,192,1670,1,0,0:0:0:0:
192,192,1893,1,0,0:0:0:0:
320,192,2115,1,0,0:0:0:0:
192,192,2337,1,0,0:0:0:0:
448,192,2559,128,0,3448:0:0:0:0:
320,192,3448,1,0,0:0:0:0:
64,192,3670,1,0,0:0:0:0:
192,192,3670,1,0,0:0:0:0:
448,192,4004,1,0,0:0:0:0:
320,192,4004,1,0,0:0:0:0:
192,192,4337,1,0,0:0:0:0:
64,192,4337,1,0,0:0:0:0:
448,192,4559,1,0,0:0:0:0:
320,192,4781,1,0,0:0:0:0:
192,192,5004,1,0,0:0:0:0:
64,192,5226,1,0,0:0:0:0:
192,192,5448,1,0,0:0:0:0:
320,192,5670,1,0,0:0:0:0:
448,192,5893,1,0,0:0:0:0:
192,192,6115,128,0,7004:0:0:0:0:
320,192,7004,1,0,0:0:0:0:
64,192,7448,1,0,0:0:0:0:
192,192,7448,1,0,0:0:0:0:
448,192,7893,1,0,0:0:0:0:
64,192,8115,1,0,0:0:0:0:
192,192,8226,1,0,0:0:0:0:
320,192,8337,1,0,0:0:0:0:
448,192,8559,1,0,0:0:0:0:
320,192,8670,1,0,0:0:0:0:
192,192,8781,1,0,0:0:0:0:
448,192,9226,1,0,0:0:0:0:
64,192,9670,1,0,0:0:0:0:
448,192,9893,1,0,0:0:0:0:
320,192,10004,1,0,0:0:0:0:
192,192,10115,1,0,0:0:0:0:
64,192,10337,1,0,0:0:0:0:
192,192,10448,1,0,0:0:0:0:
320,192,10559,1,0,0:0:0:0:
448,192,11004,1,0,0:0:0:0:
64,192,11448,1,0,0:0:0:0:
448,192,11670,1,0,0:0:0:0:
320,192,11781,1,0,0:0:0:0:
192,192,11893,1,0,0:0:0:0:
320,192,12337,1,0,0:0:0:0:
64,192,12781,1,0,0:0:0:0:
192,192,13226,128,0,14115:0:0:0:0:
448,192,13226,1,0,0:0:0:0:
320,192,14115,1,0,0:0:0:0:
64,192,14337,1,0,0:0:0:0:
320,192,14559,1,0,0:0:0:0:
192,192,14670,1,0,0:0:0:0:
320,192,14781,1,0,0:0:0:0:
448,192,15004,1,0,0:0:0:0:
64,192,15004,1,0,0:0:0:0:
192,192,15226,1,0,0:0:0:0:
448,192,15448,1,0,0:0:0:0:
192,192,15670,1,0,0:0:0:0:
64,192,15893,1,0,0:0:0:0:
448,192,16115,1,0,0:0:0:0:
320,192,16226,1,0,0:0:0:0:
192,192,16337,1,0,0:0:0:0:
320,192,16448,1,0,0:0:0:0:
192,192,16559,1,0,0:0:0:0:
64,192,16670,1,0,0:0:0:0:
192,192,16781,1,0,0:0:0:0:
320,192,17004,1,0,0:0:0:0:
448,192,17226,1,0,0:0:0:0:
320,192,17448,1,0,0:0:0:0:
192,192,17670,1,0,0:0:0:0:
64,192,17893,1,0,0:0:0:0:
192,192,18004,1,0,0:0:0:0:
320,192,18115,1,0,0:0:0:0:
192,192,18226,1,0,0:0:0:0:
320,192,18337,1,0,0:0:0:0:
448,192,18448,1,0,0:0:0:0:
64,192,18559,1,0,0:0:0:0:
192,192,18781,1,0,0:0:0:0:
320,192,19004,1,0,0:0:0:0:
448,192,19226,1,0,0:0:0:0:
192,192,19448,1,0,0:0:0:0:
320,192,19559,1,0,0:0:0:0:
448,192,19670,1,0,0:0:0:0:
320,192,19781,1,0,0:0:0:0:
192,192,19893,1,0,0:0:0:0:
320,192,20004,1,0,0:0:0:0:
192,192,20115,1,0,0:0:0:0:
64,192,20337,1,0,0:0:0:0:
320,192,20670,1,0,0:0:0:0:
192,192,20781,1,0,0:0:0:0:
448,192,21004,1,0,0:0:0:0:
192,192,21226,128,0,21448:0:0:0:0:
320,192,21670,128,0,21893:0:0:0:0:
192,192,22115,1,0,0:0:0:0:
64,192,22337,1,0,0:0:0:0:
320,192,22559,1,0,0:0:0:0:
64,192,22781,1,0,0:0:0:0:
320,192,23004,1,0,0:0:0:0:
64,192,23226,1,0,0:0:0:0:
192,192,23337,1,0,0:0:0:0:
320,192,23448,1,0,0:0:0:0:
192,192,23559,1,0,0:0:0:0:
320,192,23670,1,0,0:0:0:0:
448,192,23781,1,0,0:0:0:0:
320,192,23893,1,0,0:0:0:0:
64,192,24115,1,0,0:0:0:0:
320,192,24337,1,0,0:0:0:0:
64,192,24559,1,0,0:0:0:0:
320,192,24781,1,0,0:0:0:0:
448,192,25004,1,0,0:0:0:0:
320,192,25115,1,0,0:0:0:0:
192,192,25226,1,0,0:0:0:0:
320,192,25337,1,0,0:0:0:0:
192,192,25448,1,0,0:0:0:0:
64,192,25559,1,0,0:0:0:0:
192,192,25670,1,0,0:0:0:0:
448,192,25893,1,0,0:0:0:0:
320,192,26115,1,0,0:0:0:0:
64,192,26337,1,0,0:0:0:0:
192,192,26559,1,0,0:0:0:0:
64,192,26781,1,0,0:0:0:0:
192,192,26893,1,0,0:0:0:0:
320,192,27004,1,0,0:0:0:0:
192,192,27115,1,0,0:0:0:0:
64,192,27226,1,0,0:0:0:0:
192,192,27337,1,0,0:0:0:0:
448,192,27448,1,0,0:0:0:0:
320,192,27448,1,0,0:0:0:0:
192,192,27781,1,0,0:0:0:0:
64,192,27781,1,0,0:0:0:0:
320,192,28115,1,0,0:0:0:0:
448,192,28115,1,0,0:0:0:0:
192,192,28448,1,0,0:0:0:0:
64,192,28448,1,0,0:0:0:0:
64,192,28781,1,0,0:0:0:0:
320,192,28893,1,0,0:0:0:0:
192,192,29004,1,0,0:0:0:0:
448,192,29115,1,0,0:0:0:0:
64,192,29226,1,0,0:0:0:0:
192,192,29448,1,0,0:0:0:0:
320,192,29670,1,0,0:0:0:0:
448,192,29670,1,0,0:0:0:0:
192,192,29893,1,0,0:0:0:0:
320,192,30115,1,0,0:0:0:0:
192,192,30226,1,0,0:0:0:0:
64,192,30337,1,0,0:0:0:0:
192,192,30448,1,0,0:0:0:0:
320,192,30559,1,0,0:0:0:0:
448,192,30670,1,0,0:0:0:0:
320,192,30781,1,0,0:0:0:0:
192,192,30893,1,0,0:0:0:0:
64,192,31004,1,0,0:0:0:0:
320,192,31226,1,0,0:0:0:0:
64,192,31448,1,0,0:0:0:0:
448,192,31448,1,0,0:0:0:0:
320,192,31670,1,0,0:0:0:0:
192,192,31893,1,0,0:0:0:0:
320,192,32115,1,0,0:0:0:0:
192,192,32337,1,0,0:0:0:0:
64,192,32337,1,0,0:0:0:0:
320,192,32559,1,0,0:0:0:0:
192,192,32781,1,0,0:0:0:0:
64,192,33004,1,0,0:0:0:0:
320,192,33226,1,0,0:0:0:0:
448,192,33226,1,0,0:0:0:0:
192,192,33448,1,0,0:0:0:0:
320,192,33670,1,0,0:0:0:0:
192,192,33781,1,0,0:0:0:0:
64,192,33893,1,0,0:0:0:0:
192,192,34004,1,0,0:0:0:0:
320,192,34115,1,0,0:0:0:0:
448,192,34226,1,0,0:0:0:0:
320,192,34337,1,0,0:0:0:0:
192,192,34448,1,0,0:0:0:0:
64,192,34559,1,0,0:0:0:0:
320,192,34781,1,0,0:0:0:0:
320,192,35004,1,0,0:0:0:0:
192,192,35004,1,0,0:0:0:0:
448,192,35226,1,0,0:0:0:0:
320,192,35448,1,0,0:0:0:0:
64,192,35448,1,0,0:0:0:0:
192,192,35670,1,0,0:0:0:0:
64,192,35893,1,0,0:0:0:0:
192,192,36115,1,0,0:0:0:0:
320,192,36337,128,0,36781:0:0:0:0:
192,192,36781,1,0,0:0:0:0:
64,192,37004,1,0,0:0:0:0:
192,192,37115,1,0,0:0:0:0:
320,192,37226,1,0,0:0:0:0:
448,192,37337,1,0,0:0:0:0:
320,192,37448,1,0,0:0:0:0:
192,192,37559,1,0,0:0:0:0:
64,192,37670,1,0,0:0:0:0:
192,192,37781,1,0,0:0:0:0:
320,192,37893,1,0,0:0:0:0:
448,192,38004,1,0,0:0:0:0:
192,192,38115,1,0,0:0:0:0:
320,192,38337,1,0,0:0:0:0:
192,192,38559,1,0,0:0:0:0:
448,192,38559,1,0,0:0:0:0:
320,192,38781,1,0,0:0:0:0:
448,192,39004,1,0,0:0:0:0:
192,192,39226,1,0,0:0:0:0:
320,192,39448,1,0,0:0:0:0:
64,192,39448,1,0,0:0:0:0:
192,192,39670,1,0,0:0:0:0:
320,192,39893,1,0,0:0:0:0:
192,192,40115,1,0,0:0:0:0:
448,192,40337,1,0,0:0:0:0:
64,192,40337,1,0,0:0:0:0:
320,192,40559,1,0,0:0:0:0:
192,192,40781,1,0,0:0:0:0:
320,192,40893,1,0,0:0:0:0:
448,192,41004,1,0,0:0:0:0:
320,192,41115,1,0,0:0:0:0:
192,192,41226,1,0,0:0:0:0:
64,192,41337,1,0,0:0:0:0:
192,192,41448,1,0,0:0:0:0:
320,192,41559,1,0,0:0:0:0:
448,192,41670,1,0,0:0:0:0:
320,192,41893,1,0,0:0:0:0:
192,192,42004,1,0,0:0:0:0:
448,192,42004,1,0,0:0:0:0:
64,192,42337,1,0,0:0:0:0:
320,192,42559,1,0,0:0:0:0:
448,192,42559,1,0,0:0:0:0:
64,192,42670,1,0,0:0:0:0:
192,192,43004,128,0,43448:0:0:0:0:
320,192,43448,1,0,0:0:0:0:
448,192,43448,128,0,45226:0:0:0:0:
192,192,43670,1,0,0:0:0:0:
64,192,43893,1,0,0:0:0:0:
192,192,44115,1,0,0:0:0:0:
320,192,44337,1,0,0:0:0:0:
64,192,44337,1,0,0:0:0:0:
192,192,44559,1,0,0:0:0:0:
64,192,44781,1,0,0:0:0:0:
192,192,45004,1,0,0:0:0:0:
64,192,45226,128,0,47004:0:0:0:0:
320,192,45226,1,0,0:0:0:0:
192,192,45448,1,0,0:0:0:0:
448,192,45670,1,0,0:0:0:0:
320,192,45893,1,0,0:0:0:0:
192,192,46115,1,0,0:0:0:0:
448,192,46115,1,0,0:0:0:0:
320,192,46337,1,0,0:0:0:0:
448,192,46559,1,0,0:0:0:0:
192,192,46781,1,0,0:0:0:0:
448,192,47004,128,0,48781:0:0:0:0:
320,192,47004,1,0,0:0:0:0:
192,192,47226,1,0,0:0:0:0:
64,192,47448,1,0,0:0:0:0:
192,192,47670,1,0,0:0:0:0:
320,192,47893,1,0,0:0:0:0:
64,192,47893,1,0,0:0:0:0:
192,192,48115,1,0,0:0:0:0:
64,192,48337,1,0,0:0:0:0:
192,192,48559,1,0,0:0:0:0:
64,192,48781,128,0,50559:0:0:0:0:
320,192,48781,1,0,0:0:0:0:
448,192,49004,1,0,0:0:0:0:
192,192,49226,1,0,0:0:0:0:
320,192,49448,1,0,0:0:0:0:
448,192,49670,1,0,0:0:0:0:
192,192,49670,1,0,0:0:0:0:
320,192,49893,1,0,0:0:0:0:
448,192,50115,1,0,0:0:0:0:
192,192,50337,1,0,0:0:0:0:
448,192,50559,128,0,52337:0:0:0:0:
320,192,50559,1,0,0:0:0:0:
192,192,50781,1,0,0:0:0:0:
64,192,51004,1,0,0:0:0:0:
192,192,51226,1,0,0:0:0:0:
320,192,51448,1,0,0:0:0:0:
64,192,51448,1,0,0:0:0:0:
192,192,51670,1,0,0:0:0:0:
64,192,51893,1,0,0:0:0:0:
192,192,52115,1,0,0:0:0:0:
64,192,52337,128,0,54115:0:0:0:0:
320,192,52337,1,0,0:0:0:0:
448,192,52559,1,0,0:0:0:0:
192,192,52781,1,0,0:0:0:0:
320,192,53004,1,0,0:0:0:0:
192,192,53226,1,0,0:0:0:0:
448,192,53226,1,0,0:0:0:0:
320,192,53448,1,0,0:0:0:0:
448,192,53670,1,0,0:0:0:0:
192,192,53893,1,0,0:0:0:0:
320,192,54115,1,0,0:0:0:0:
448,192,54115,128,0,57670:0:0:0:0:
192,192,54337,1,0,0:0:0:0:
320,192,54559,1,0,0:0:0:0:
192,192,54781,1,0,0:0:0:0:
64,192,55004,1,0,0:0:0:0:
192,192,55226,1,0,0:0:0:0:
320,192,55448,1,0,0:0:0:0:
192,192,55670,1,0,0:0:0:0:
64,192,55893,128,0,57670:0:0:0:0:
192,192,57670,1,0,0:0:0:0:
320,192,57893,1,0,0:0:0:0:
192,192,58115,1,0,0:0:0:0:
64,192,58115,1,0,0:0:0:0:
320,192,58337,1,0,0:0:0:0:
192,192,58559,1,0,0:0:0:0:
320,192,58781,1,0,0:0:0:0:
64,192,59004,1,0,0:0:0:0:
448,192,59004,1,0,0:0:0:0:
320,192,59226,1,0,0:0:0:0:
448,192,59448,128,0,60781:0:0:0:0:
64,192,59670,1,0,0:0:0:0:
192,192,59893,1,0,0:0:0:0:
320,192,59893,1,0,0:0:0:0:
64,192,60115,1,0,0:0:0:0:
192,192,60337,1,0,0:0:0:0:
64,192,60559,1,0,0:0:0:0:
192,192,60670,1,0,0:0:0:0:
320,192,60781,1,0,0:0:0:0:
448,192,61004,1,0,0:0:0:0:
320,192,61115,1,0,0:0:0:0:
192,192,61226,1,0,0:0:0:0:
448,192,61448,1,0,0:0:0:0:
64,192,61670,1,0,0:0:0:0:
320,192,61670,1,0,0:0:0:0:
448,192,61893,1,0,0:0:0:0:
192,192,62115,128,0,63448:0:0:0:0:
320,192,62337,1,0,0:0:0:0:
64,192,62559,1,0,0:0:0:0:
448,192,62559,1,0,0:0:0:0:
320,192,62781,1,0,0:0:0:0:
448,192,63004,1,0,0:0:0:0:
64,192,63226,1,0,0:0:0:0:
320,192,63448,1,0,0:0:0:0:
448,192,63448,1,0,0:0:0:0:
64,192,63670,1,0,0:0:0:0:
192,192,63893,1,0,0:0:0:0:
448,192,64115,1,0,0:0:0:0:
192,192,64337,1,0,0:0:0:0:
64,192,64337,1,0,0:0:0:0:
320,192,64559,1,0,0:0:0:0:
64,192,64781,128,0,66115:0:0:0:0:
192,192,65004,1,0,0:0:0:0:
320,192,65226,1,0,0:0:0:0:
448,192,65226,1,0,0:0:0:0:
192,192,65448,1,0,0:0:0:0:
448,192,65670,1,0,0:0:0:0:
192,192,65893,1,0,0:0:0:0:
448,192,66115,1,0,0:0:0:0:
320,192,66115,1,0,0:0:0:0:
192,192,66337,1,0,0:0:0:0:
320,192,66559,1,0,0:0:0:0:
192,192,66781,1,0,0:0:0:0:
64,192,67004,1,0,0:0:0:0:
320,192,67004,1,0,0:0:0:0:
192,192,67226,1,0,0:0:0:0:
320,192,67448,128,0,68781:0:0:0:0:
64,192,67670,1,0,0:0:0:0:
192,192,67781,1,0,0:0:0:0:
448,192,67893,1,0,0:0:0:0:
64,192,68115,1,0,0:0:0:0:
192,192,68226,1,0,0:0:0:0:
448,192,68337,1,0,0:0:0:0:
192,192,68559,1,0,0:0:0:0:
448,192,68781,1,0,0:0:0:0:
64,192,68781,1,0,0:0:0:0:
448,192,69004,1,0,0:0:0:0:
192,192,69226,1,0,0:0:0:0:
320,192,69448,1,0,0:0:0:0:
64,192,69670,1,0,0:0:0:0:
448,192,69670,1,0,0:0:0:0:
192,192,69893,1,0,0:0:0:0:
448,192,70115,128,0,71004:0:0:0:0:
64,192,70337,1,0,0:0:0:0:
192,192,70559,1,0,0:0:0:0:
320,192,70559,1,0,0:0:0:0:
64,192,70781,1,0,0:0:0:0:
320,192,71004,1,0,0:0:0:0:
192,192,71226,1,0,0:0:0:0:
320,192,71337,1,0,0:0:0:0:
192,192,71448,1,0,0:0:0:0:
64,192,71670,1,0,0:0:0:0:
448,192,71893,1,0,0:0:0:0:
192,192,71893,1,0,0:0:0:0:
192,192,72337,1,0,0:0:0:0:
64,192,72337,1,0,0:0:0:0:
192,192,72781,1,0,0:0:0:0:
448,192,72781,1,0,0:0:0:0:
320,192,73226,1,0,0:0:0:0:
192,192,73226,1,0,0:0:0:0:
64,192,73670,1,0,0:0:0:0:
320,192,73670,1,0,0:0:0:0:
320,192,74115,1,0,0:0:0:0:
448,192,74115,1,0,0:0:0:0:
64,192,74559,1,0,0:0:0:0:
448,192,74559,1,0,0:0:0:0:
192,192,74781,1,0,0:0:0:0:
320,192,74893,1,0,0:0:0:0:
448,192,75004,1,0,0:0:0:0:
192,192,75004,1,0,0:0:0:0:
320,192,75226,1,0,0:0:0:0:
192,192,75337,1,0,0:0:0:0:
64,192,75448,1,0,0:0:0:0:
320,192,75448,1,0,0:0:0:0:
320,192,75893,1,0,0:0:0:0:
448,192,75893,1,0,0:0:0:0:
64,192,76337,1,0,0:0:0:0:
192,192,76337,1,0,0:0:0:0:
64,192,76781,1,0,0:0:0:0:
448,192,76781,1,0,0:0:0:0:
320,192,77226,1,0,0:0:0:0:
192,192,77226,1,0,0:0:0:0:
64,192,77670,1,0,0:0:0:0:
320,192,77670,1,0,0:0:0:0:
448,192,78115,1,0,0:0:0:0:
192,192,78115,1,0,0:0:0:0:
192,192,78559,1,0,0:0:0:0:
64,192,78559,1,0,0:0:0:0:
448,192,79004,1,0,0:0:0:0:
320,192,79004,1,0,0:0:0:0:
64,192,79448,1,0,0:0:0:0:
448,192,79448,1,0,0:0:0:0:
192,192,79893,1,0,0:0:0:0:
64,192,79893,1,0,0:0:0:0:
448,192,80337,1,0,0:0:0:0:
320,192,80337,1,0,0:0:0:0:
192,192,80781,128,0,82559:0:0:0:0:
448,192,81226,1,0,0:0:0:0:
320,192,81670,1,0,0:0:0:0:
64,192,82115,1,0,0:0:0:0:
448,192,82559,1,0,0:0:0:0:
320,192,82559,128,0,84337:0:0:0:0:
64,192,82893,1,0,0:0:0:0:
448,192,83226,1,0,0:0:0:0:
64,192,83670,1,0,0:0:0:0:
64,192,83893,1,0,0:0:0:0:
448,192,84337,1,0,0:0:0:0:
192,192,84337,128,0,86115:0:0:0:0:
64,192,84670,1,0,0:0:0:0:
448,192,85004,1,0,0:0:0:0:
320,192,85448,1,0,0:0:0:0:
320,192,85670,1,0,0:0:0:0:
320,192,86115,1,0,0:0:0:0:
448,192,86115,128,0,87893:0:0:0:0:
64,192,86448,1,0,0:0:0:0:
320,192,86781,1,0,0:0:0:0:
192,192,87226,1,0,0:0:0:0:
192,192,87448,1,0,0:0:0:0:
320,192,87893,1,0,0:0:0:0:
192,192,87893,1,0,0:0:0:0:
64,192,88226,1,0,0:0:0:0:
448,192,88226,1,0,0:0:0:0:
320,192,88559,1,0,0:0:0:0:
192,192,88559,1,0,0:0:0:0:
