osu file format v14

[General]
AudioFilename: renegade.mp3
AudioLeadIn: 0
PreviewTime: 116
Countdown: 0
SampleSet: Soft
StackLeniency: 0.7
Mode: 3
LetterboxInBreaks: 0
SpecialStyle: 0
WidescreenStoryboard: 1

[Editor]
DistanceSpacing: 1
BeatDivisor: 4
GridSize: 4
TimelineZoom: 1

[Metadata]
Title:Renegade
TitleUnicode:Renegade
Artist:STEREO DIVE FOUNDATION
ArtistUnicode:STEREO DIVE FOUNDATION
Creator:bLooD raYNe
Version:EZ
Source:ギャングスタ
Tags:Gangsta. twilight handymen aras23
BeatmapID:848666
BeatmapSetID:359589

[Difficulty]
HPDrainRate:7
CircleSize:4
OverallDifficulty:7
ApproachRate:5
SliderMultiplier:1.4
SliderTickRate:1

[Events]
//Background and Video events
0,0,"bg.png",0,0
//Break Periods
//Storyboard Layer 0 (Background)
//Storyboard Layer 1 (Fail)
//Storyboard Layer 2 (Pass)
//Storyboard Layer 3 (Foreground)
//Storyboard Sound Samples

[TimingPoints]
782,444.444444444444,4,2,0,50,1,0
57670,-100,4,2,0,50,0,1
71781,-100,4,2,0,50,0,0
71893,-100,4,2,0,50,0,1
80781,-100,4,2,0,50,0,0

[HitObjects]
64,192,782,5,0,0:0:0:0:
320,192,1226,1,0,0:0:0:0:
64,192,1670,1,0,0:0:0:0:
320,192,2115,1,0,0:0:0:0:
192,192,2337,1,0,0:0:0:0:
448,192,2559,128,0,3448:0:0:0:0:
64,192,3670,1,0,0:0:0:0:
192,192,4004,1,0,0:0:0:0:
448,192,4337,1,0,0:0:0:0:
192,192,4781,1,0,0:0:0:0:
448,192,5226,1,0,0:0:0:0:
64,192,5670,1,0,0:0:0:0:
448,192,5893,128,0,6559:0:0:0:0:
64,192,6559,1,0,0:0:0:0:
192,192,6781,1,0,0:0:0:0:
64,192,7448,1,0,0:0:0:0:
448,192,7893,1,0,0:0:0:0:
192,192,8337,1,0,0:0:0:0:
320,192,8781,1,0,0:0:0:0:
64,192,9226,1,0,0:0:0:0:
448,192,9670,1,0,0:0:0:0:
320,192,10115,1,0,0:0:0:0:
192,192,10559,1,0,0:0:0:0:
320,192,11004,1,0,0:0:0:0:
64,192,11448,1,0,0:0:0:0:
448,192,11893,1,0,0:0:0:0:
192,192,12337,1,0,0:0:0:0:
320,192,12781,1,0,0:0:0:0:
448,192,13226,1,0,0:0:0:0:
64,192,13226,1,0,0:0:0:0:
64,192,14115,128,0,15004:0:0:0:0:
320,192,15004,1,0,0:0:0:0:
448,192,15448,1,0,0:0:0:0:
192,192,15893,1,0,0:0:0:0:
64,192,16337,1,0,0:0:0:0:
448,192,16781,1,0,0:0:0:0:
320,192,17226,1,0,0:0:0:0:
64,192,17670,1,0,0:0:0:0:
192,192,18115,1,0,0:0:0:0:
320,192,18559,1,0,0:0:0:0:
448,192,19004,1,0,0:0:0:0:
192,192,19448,1,0,0:0:0:0:
64,192,19893,1,0,0:0:0:0:
320,192,20337,1,0,0:0:0:0:
448,192,20781,1,0,0:0:0:0:
64,192,21226,1,0,0:0:0:0:
320,192,21670,1,0,0:0:0:0:
448,192,22115,1,0,0:0:0:0:
192,192,22559,1,0,0:0:0:0:
64,192,23004,1,0,0:0:0:0:
448,192,23448,1,0,0:0:0:0:
320,192,23893,1,0,0:0:0:0:
192,192,24337,1,0,0:0:0:0:
448,192,24781,1,0,0:0:0:0:
64,192,25226,1,0,0:0:0:0:
192,192,25670,1,0,0:0:0:0:
320,192,26115,1,0,0:0:0:0:
64,192,26559,1,0,0:0:0:0:
192,192,27004,1,0,0:0:0:0:
448,192,27448,1,0,0:0:0:0:
320,192,27781,1,0,0:0:0:0:
192,192,28115,1,0,0:0:0:0:
64,192,28448,1,0,0:0:0:0:
320,192,28781,128,0,29226:0:0:0:0:
192,192,29226,1,0,0:0:0:0:
64,192,29670,1,0,0:0:0:0:
320,192,30115,1,0,0:0:0:0:
448,192,30559,1,0,0:0:0:0:
192,192,31004,1,0,0:0:0:0:
64,192,31448,1,0,0:0:0:0:
192,192,31893,1,0,0:0:0:0:
320,192,32337,1,0,0:0:0:0:
192,192,32781,1,0,0:0:0:0:
448,192,33226,1,0,0:0:0:0:
192,192,33670,1,0,0:0:0:0:
320,192,34115,1,0,0:0:0:0:
64,192,34559,1,0,0:0:0:0:
192,192,34893,1,0,0:0:0:0:
320,192,35226,1,0,0:0:0:0:
448,192,35559,1,0,0:0:0:0:
64,192,35893,1,0,0:0:0:0:
320,192,36337,128,0,36781:0:0:0:0:
192,192,36781,1,0,0:0:0:0:
448,192,37226,1,0,0:0:0:0:
192,192,37670,1,0,0:0:0:0:
320,192,38115,1,0,0:0:0:0:
64,192,38559,1,0,0:0:0:0:
320,192,39004,1,0,0:0:0:0:
448,192,39448,1,0,0:0:0:0:
64,192,39893,1,0,0:0:0:0:
448,192,40337,1,0,0:0:0:0:
192,192,40781,1,0,0:0:0:0:
320,192,41226,1,0,0:0:0:0:
448,192,41670,1,0,0:0:0:0:
192,192,42004,1,0,0:0:0:0:
320,192,42337,1,0,0:0:0:0:
64,192,42559,1,0,0:0:0:0:
192,192,43004,1,0,0:0:0:0:
64,192,43448,1,0,0:0:0:0:
192,192,43670,1,0,0:0:0:0:
320,192,43893,1,0,0:0:0:0:
448,192,44115,1,0,0:0:0:0:
320,192,44337,1,0,0:0:0:0:
192,192,44559,1,0,0:0:0:0:
64,192,44781,1,0,0:0:0:0:
192,192,45004,1,0,0:0:0:0:
320,192,45226,1,0,0:0:0:0:
448,192,45448,1,0,0:0:0:0:
320,192,45670,1,0,0:0:0:0:
192,192,45893,1,0,0:0:0:0:
64,192,46115,1,0,0:0:0:0:
192,192,46337,1,0,0:0:0:0:
320,192,46559,1,0,0:0:0:0:
448,192,46781,1,0,0:0:0:0:
320,192,47004,1,0,0:0:0:0:
192,192,47226,1,0,0:0:0:0:
64,192,47448,1,0,0:0:0:0:
192,192,47670,1,0,0:0:0:0:
320,192,47893,1,0,0:0:0:0:
448,192,48115,1,0,0:0:0:0:
320,192,48337,1,0,0:0:0:0:
192,192,48559,1,0,0:0:0:0:
64,192,48781,1,0,0:0:0:0:
192,192,49004,1,0,0:0:0:0:
320,192,49226,1,0,0:0:0:0:
448,192,49448,1,0,0:0:0:0:
320,192,49670,1,0,0:0:0:0:
192,192,49893,1,0,0:0:0:0:
64,192,50115,1,0,0:0:0:0:
192,192,50337,1,0,0:0:0:0:
320,192,50559,1,0,0:0:0:0:
448,192,50781,1,0,0:0:0:0:
320,192,51004,1,0,0:0:0:0:
192,192,51226,1,0,0:0:0:0:
64,192,51448,1,0,0:0:0:0:
192,192,51670,1,0,0:0:0:0:
320,192,51893,1,0,0:0:0:0:
448,192,52115,1,0,0:0:0:0:
320,192,52337,1,0,0:0:0:0:
192,192,52559,1,0,0:0:0:0:
64,192,52781,1,0,0:0:0:0:
192,192,53004,1,0,0:0:0:0:
320,192,53226,1,0,0:0:0:0:
448,192,53448,1,0,0:0:0:0:
320,192,53670,1,0,0:0:0:0:
192,192,53893,1,0,0:0:0:0:
64,192,54115,1,0,0:0:0:0:
192,192,54337,1,0,0:0:0:0:
320,192,54559,1,0,0:0:0:0:
448,192,54781,1,0,0:0:0:0:
320,192,55004,1,0,0:0:0:0:
192,192,55226,1,0,0:0:0:0:
64,192,55448,1,0,0:0:0:0:
192,192,55670,1,0,0:0:0:0:
320,192,55893,128,0,57670:0:0:0:0:
192,192,57670,1,0,0:0:0:0:
64,192,58115,1,0,0:0:0:0:
192,192,58559,1,0,0:0:0:0:
320,192,59004,1,0,0:0:0:0:
64,192,59448,1,0,0:0:0:0:
448,192,59893,1,0,0:0:0:0:
192,192,60337,1,0,0:0:0:0:
320,192,60781,1,0,0:0:0:0:
64,192,61226,1,0,0:0:0:0:
448,192,61670,1,0,0:0:0:0:
192,192,62115,1,0,0:0:0:0:
320,192,62559,1,0,0:0:0:0:
64,192,63004,1,0,0:0:0:0:
192,192,63448,1,0,0:0:0:0:
448,192,63893,1,0,0:0:0:0:
64,192,64337,1,0,0:0:0:0:
320,192,64781,1,0,0:0:0:0:
192,192,65226,1,0,0:0:0:0:
64,192,65670,1,0,0:0:0:0:
448,192,66115,1,0,0:0:0:0:
192,192,66559,1,0,0:0:0:0:
320,192,67004,1,0,0:0:0:0:
64,192,67448,1,0,0:0:0:0:
448,192,67893,1,0,0:0:0:0:
192,192,68337,1,0,0:0:0:0:
64,192,68781,1,0,0:0:0:0:
320,192,69226,1,0,0:0:0:0:
448,192,69670,1,0,0:0:0:0:
320,192,70115,1,0,0:0:0:0:
192,192,70559,1,0,0:0:0:0:
448,192,71004,1,0,0:0:0:0:
64,192,71448,1,0,0:0:0:0:
192,192,71893,1,0,0:0:0:0:
320,192,72337,1,0,0:0:0:0:
448,192,72781,1,0,0:0:0:0:
64,192,73226,1,0,0:0:0:0:
448,192,73670,1,0,0:0:0:0:
320,192,74115,1,0,0:0:0:0:
192,192,74559,1,0,0:0:0:0:
64,192,75004,1,0,0:0:0:0:
320,192,75448,1,0,0:0:0:0:
192,192,75893,1,0,0:0:0:0:
448,192,76337,1,0,0:0:0:0:
192,192,76781,1,0,0:0:0:0:
64,192,77226,1,0,0:0:0:0:
448,192,77670,1,0,0:0:0:0:
192,192,78115,1,0,0:0:0:0:
320,192,78559,1,0,0:0:0:0:
64,192,79004,1,0,0:0:0:0:
448,192,79448,1,0,0:0:0:0:
192,192,79893,1,0,0:0:0:0:
320,192,80337,1,0,0:0:0:0:
64,192,80781,128,0,82115:0:0:0:0:
192,192,82115,1,0,0:0:0:0:
320,192,82559,1,0,0:0:0:0:
64,192,82893,1,0,0:0:0:0:
448,192,83226,1,0,0:0:0:0:
64,192,83893,1,0,0:0:0:0:
448,192,84337,1,0,0:0:0:0:
64,192,84670,1,0,0:0:0:0:
320,192,85004,1,0,0:0:0:0:
192,192,85670,1,0,0:0:0:0:
320,192,86115,1,0,0:0:0:0:
64,192,86448,1,0,0:0:0:0:
448,192,86781,1,0,0:0:0:0:
320,192,87448,1,0,0:0:0:0:
64,192,87893,1,0,0:0:0:0:
192,192,88226,1,0,0:0:0:0:
320,192,88559,1,0,0:0:0:0:
