osu file format v14

[General]
AudioFilename: sta.mp3
AudioLeadIn: 750
PreviewTime: 57670
Countdown: 0
SampleSet: Soft
StackLeniency: 0.3
Mode: 0
LetterboxInBreaks: 0
WidescreenStoryboard: 0

[Editor]
Bookmarks: 15004
DistanceSpacing: 1
BeatDivisor: 4
GridSize: 4
TimelineZoom: 1.1

[Metadata]
Title:Renegade
TitleUnicode:Renegade
Artist:STEREO DIVE FOUNDATION
ArtistUnicode:STEREO DIVE FOUNDATION
Creator:Kihhou
Version:Twilight
Source:GANGSTA.
Tags:ギャングスタ opening op theme tv size R・O・N
BeatmapID:735383
BeatmapSetID:332101

[Difficulty]
HPDrainRate:6
CircleSize:4
OverallDifficulty:6.5
ApproachRate:9
SliderMultiplier:1.9
SliderTickRate:1

[Events]
//Background and Video events
0,0,"editedbyTHEringating.png",0,0
Video,0,"opto.flv"
//Break Periods
//Storyboard Layer 0 (Background)
//Storyboard Layer 1 (Fail)
//Storyboard Layer 2 (Pass)
//Storyboard Layer 3 (Foreground)
//Storyboard Sound Samples

[TimingPoints]
782,444.444444444444,4,2,1,60,1,0
782,-90.9090909090909,4,2,1,60,0,0
1226,-166.666666666667,4,2,1,60,0,0
2559,-66.6666666666667,4,2,11,60,0,0
2670,-66.6666666666667,4,2,1,60,0,0
2893,-100,4,2,1,60,0,0
3115,-166.666666666667,4,2,1,60,0,0
3670,-100,4,2,1,60,0,0
5115,-166.666666666667,4,2,1,60,0,0
6115,-62.5,4,2,1,40,0,0
6559,-55.5555555555556,4,2,1,40,0,0
7448,-50,4,2,1,40,0,0
7893,-100,4,2,1,65,0,0
12337,-100,4,2,1,70,0,0
13670,-100,4,2,1,25,0,0
14115,-100,4,2,1,50,0,0
15004,-100,4,2,1,65,0,0
16337,-100,4,2,2,65,0,0
16448,-100,4,2,1,65,0,0
18115,-100,4,2,2,65,0,0
18226,-100,4,2,1,65,0,0
21670,-76.9230769230769,4,2,2,65,0,0
22115,-100,4,2,1,65,0,0
23004,-76.9230769230769,4,2,1,65,0,0
23448,-100,4,2,2,65,0,0
23559,-100,4,2,1,65,0,0
24781,-76.9230769230769,4,2,1,65,0,0
25226,-100,4,2,2,65,0,0
25337,-100,4,2,1,65,0,0
26559,-76.9230769230769,4,2,1,65,0,0
27004,-100,4,2,2,65,0,0
27115,-100,4,2,1,65,0,0
27448,-133.333333333333,4,2,1,70,0,0
27670,-133.333333333333,4,2,1,15,0,0
27781,-133.333333333333,4,2,1,70,0,0
28004,-133.333333333333,4,2,1,15,0,0
28115,-133.333333333333,4,2,1,70,0,0
28337,-133.333333333333,4,2,1,15,0,0
28448,-133.333333333333,4,2,1,70,0,0
28670,-133.333333333333,4,2,1,15,0,0
28781,-100,4,2,1,50,0,0
29226,-90.9090909090909,4,2,3,40,0,0
30115,-90.9090909090909,4,2,4,40,0,0
30559,-90.9090909090909,4,2,3,40,0,0
30670,-90.9090909090909,4,2,4,40,0,0
31004,-90.9090909090909,4,2,3,40,0,0
33670,-90.9090909090909,4,2,4,40,0,0
34115,-90.9090909090909,4,2,3,40,0,0
34226,-90.9090909090909,4,2,4,40,0,0
34559,-125,4,2,3,40,0,0
35893,-76.9230769230769,4,2,3,40,0,0
36337,-66.6666666666667,4,2,66,50,0,0
36448,-66.6666666666667,4,2,66,15,0,0
36781,-90.9090909090909,4,2,3,40,0,0
37004,-90.9090909090909,4,2,44,45,0,0
37226,-90.9090909090909,4,2,4,40,0,0
37670,-90.9090909090909,4,2,3,40,0,0
37781,-90.9090909090909,4,2,4,40,0,0
38115,-90.9090909090909,4,2,3,40,0,0
40781,-90.9090909090909,4,2,4,40,0,0
41226,-90.9090909090909,4,2,3,40,0,0
41337,-90.9090909090909,4,2,4,40,0,0
41670,-71.4285714285714,4,2,1,40,0,0
43004,-100,4,2,1,40,0,0
43448,-100,4,2,1,45,0,0
50559,-100,4,2,1,50,0,0
52337,-100,4,2,1,55,0,0
53226,-100,4,2,33,55,0,0
53337,-100,4,2,1,55,0,0
57670,-83.3333333333333,4,2,77,70,0,1
57726,-83.3333333333333,4,2,1,70,0,1
64337,-66.6666666666667,4,2,1,70,0,1
64781,-62.5,4,2,1,70,0,1
65226,-83.3333333333333,4,2,1,70,0,1
71004,-71.4285714285714,4,2,1,70,0,1
71337,-62.5,4,2,1,70,0,1
71893,-55.5555555555556,4,2,1,70,0,1
72337,-83.3333333333333,4,2,1,70,0,1
80781,-166.666666666667,4,2,1,55,0,0
82226,-83.3333333333333,4,2,1,55,0,0
82559,-166.666666666667,4,2,1,55,0,0
83448,-100,4,2,1,55,0,0
83893,-100,4,2,1,55,0,0
84337,-166.666666666667,4,2,1,55,0,0
85226,-200,4,2,1,55,0,0
86115,-166.666666666667,4,2,1,55,0,0
87226,-100,4,2,1,55,0,0
87893,-90.9090909090909,4,2,1,70,0,0
88115,-90.9090909090909,4,2,1,15,0,0
88226,-90.9090909090909,4,2,1,70,0,0
88448,-90.9090909090909,4,2,1,15,0,0
88559,-90.9090909090909,4,2,1,70,0,0

[Colours]
Combo1 : 255,60,60
Combo2 : 15,240,66
Combo3 : 50,210,239

[HitObjects]
236,74,782,6,0,P|283:120|308:58,1,156.750004783631,4|2,0:3|0:3,0:0:0:0:
308,58,1226,6,0,L|318:165,1,85.4999973907472,0|0,3:0|0:0,0:0:0:0:
389,228,1670,2,0,B|395:200|395:200|383:174,1,56.9999982604981,8|8,0:0|0:0,0:0:0:0:
277,215,2115,1,0,0:0:0:0:
300,313,2337,2,0,L|309:350,1,28.4999991302491,0|0,3:0|0:0,0:0:0:0:
308,346,2559,22,0,B|238:340|238:340|182:292|182:292|99:288,1,213.750008153916,2|0,0:0|0:0,0:0:0:0:
53,347,3004,5,0,0:0:0:0:
60,375,3115,2,0,L|157:365,1,85.4999973907472,0|0,3:0|0:0,0:0:0:0:
217,126,3670,22,0,L|209:62,2,47.5,4|2|0,0:3|0:0|0:0,0:0:0:0:
107,78,4004,2,0,L|112:30,2,47.5,4|2|0,0:3|0:0|0:0,0:0:0:0:
135,164,4337,6,0,L|148:286,1,95,4|2,0:3|0:3,0:0:0:0:
98,367,4670,2,0,L|105:320,1,47.5
326,325,5115,22,0,B|289:348|289:348|264:315,1,85.4999973907472,8|8,0:0|0:0,0:0:0:0:
267,126,5670,2,0,L|211:139,1,56.9999982604981,0|0,3:0|0:0,0:0:0:0:
212,139,6115,6,0,B|193:127|193:127|161:122|161:122|140:127,2,76
334,55,6559,22,0,L|341:106,1,42.7499986953736,2|0,0:0|0:0,0:0:0:0:
483,104,6781,2,0,L|477:146,1,42.7499986953736,2|0,0:0|0:0,0:0:0:0:
351,177,7004,2,0,L|356:219,1,42.7499986953736,2|0,0:0|0:0,0:0:0:0:
466,226,7226,2,0,L|459:277,1,42.7499986953736,2|0,0:0|0:0,0:0:0:0:
460,268,7448,6,0,B|414:280|414:280|387:323|348:312|348:312|385:298|387:256,1,190,8|0,0:3|0:0,0:0:0:0:
385,265,7781,1,8,0:3:0:0:
385,265,7893,21,4,0:1:0:0:
296,121,8115,2,0,L|229:115,1,47.5,2|2,0:0|0:0,0:0:0:0:
165,139,8337,2,0,P|143:188|156:233,1,95,8|0,0:2|0:0,0:0:0:0:
215,279,8670,1,0,0:0:0:0:
295,270,8781,2,0,L|354:263,2,47.5,8|0|2,0:0|0:0|0:0,0:0:0:0:
245,172,9115,5,0,0:0:0:0:
325,163,9226,2,0,L|384:156,2,47.5,8|0|2,0:0|0:0|0:0,0:0:0:0:
275,65,9559,1,0,0:0:0:0:
355,56,9670,2,0,L|414:49,1,47.5,8|0,0:0|0:0,0:0:0:0:
500,38,9893,21,2,0:0:0:0:
482,64,10004,1,0,0:0:0:0:
464,90,10115,1,8,0:0:0:0:
283,198,10337,2,0,L|259:200,1,23.75,2|0,0:0|0:0,0:0:0:0:
265,224,10448,2,0,L|241:226,1,23.75
247,250,10559,6,0,L|151:260,2,95,8|2|8,0:0|0:0|0:0,0:0:0:0:
310,298,11115,1,0,0:0:0:0:
292,324,11226,2,0,L|219:331,1,47.5,2|0,0:0|0:0,0:0:0:0:
75,357,11448,22,0,B|83:302|83:302|72:275|72:275|78:212,1,142.5,8|0,0:0|0:0,0:0:0:0:
84,117,11893,1,8,0:0:0:0:
248,315,12337,6,0,B|203:325|203:325|156:311,1,95,8|0,0:0|0:0,0:0:0:0:
247,67,12781,2,0,B|203:58|203:58|156:73,1,95,8|0,0:0|0:0,0:0:0:0:
128,192,13226,2,0,L|336:192,1,190,8|0,0:0|0:0,0:0:0:0:
441,62,14115,21,8,0:3:0:0:
348,265,14337,1,8,0:0:0:0:
223,68,14559,1,8,0:1:0:0:
248,64,14670,1,0,1:0:0:0:
273,60,14781,1,4,0:3:0:0:
170,256,15004,5,12,0:2:0:0:
102,301,15115,2,0,B|88:260|88:260|100:198,1,95
163,161,15448,2,0,L|305:148,1,142.5,8|0,0:1|0:0,0:0:0:0:
380,186,15893,22,0,L|431:194,1,47.5,8|0,0:0|0:0,0:0:0:0:
395,103,16115,1,0,0:0:0:0:
395,103,16226,2,0,L|446:111,1,47.5,2|10,0:0|0:0,0:0:0:0:
507,160,16448,2,0,P|514:186|511:211,1,47.5,2|0,0:0|0:0,0:0:0:0:
467,274,16670,1,2,0:0:0:0:
389,272,16781,6,0,L|281:268,1,95,8|0,0:0|0:0,0:0:0:0:
46,62,17226,2,0,L|140:58,1,95,8|0,0:1|0:0,0:0:0:0:
217,86,17559,1,0,0:0:0:0:
155,138,17670,22,0,P|146:194|174:241,1,95,8|0,0:0|0:0,0:0:0:0:
216,288,18004,2,0,L|277:278,1,47.5,2|10,0:0|0:0,0:0:0:0:
355,132,18226,2,0,L|293:122,1,47.5,2|0,0:0|0:0,0:0:0:0:
238,83,18448,1,2,0:0:0:0:
308,124,18559,6,0,B|324:80|324:80|303:27,1,95,8|0,0:0|0:0,0:0:0:0:
140,330,19004,2,0,P|185:324|216:289,1,95,8|0,0:1|0:0,0:0:0:0:
217,207,19337,1,0,0:0:0:0:
135,205,19448,2,0,L|146:251,1,47.5,8|0,0:0|0:0,0:0:0:0:
345,294,19670,22,0,P|357:242|330:204,2,95,0|8|2,0:0|0:1|0:0,0:0:0:0:
237,87,20337,6,0,L|129:96,1,95,10|0,0:0|0:0,0:0:0:0:
59,208,20670,1,2,0:0:0:0:
59,208,20781,2,0,L|154:216,1,95,8|2,0:1|0:0,0:0:0:0:
263,117,21226,22,0,L|173:125,1,47.5,8|0,0:0|0:0,0:0:0:0:
92,132,21448,1,0,0:0:0:0:
157,321,21670,6,0,B|195:329|195:329|240:311,1,61.7499971733095,10|2,0:0|0:0,0:0:0:0:
380,342,21893,2,0,B|342:334|342:334|297:352,1,61.7499971733095,2|0,0:0|0:0,0:0:0:0:
150,362,22115,22,0,P|208:361|253:329,1,95,8|0,0:0|0:0,0:0:0:0:
378,297,22559,2,0,P|320:296|275:264,1,95,8|0,0:1|0:0,0:0:0:0:
177,154,22893,1,0,0:0:0:0:
152,230,23004,6,0,P|182:235|211:226,1,61.7499971733095,8|0,0:0|0:0,0:0:0:0:
343,200,23226,2,0,P|312:204|283:195,1,61.7499971733095
241,82,23448,22,0,L|244:132,1,47.5,10|2,0:0|0:0,0:0:0:0:
250,220,23670,2,0,L|253:270,1,47.5,0|2,0:0|0:0,0:0:0:0:
111,105,23893,6,0,P|81:149|92:203,1,95,8|0,0:0|0:0,0:0:0:0:
155,371,24337,2,0,L|273:359,1,95,8|0,0:1|0:0,0:0:0:0:
304,302,24670,1,0,0:0:0:0:
271,228,24781,22,0,P|239:220|197:234,1,61.7499971733095,8|0,0:0|0:0,0:0:0:0:
296,150,25004,2,0,P|328:158|370:144,1,61.7499971733095
460,156,25226,6,0,L|468:222,1,47.5,10|2,0:0|0:0,0:0:0:0:
432,233,25448,2,0,L|426:186,1,47.5,0|2,0:0|0:0,0:0:0:0:
363,58,25670,22,0,L|354:175,1,95,8|0,0:0|0:0,0:0:0:0:
66,184,26115,2,0,P|52:136|73:89,1,95,8|0,0:1|0:0,0:0:0:0:
140,61,26448,1,0,0:0:0:0:
178,132,26559,6,0,B|209:137|209:137|245:129,1,61.7499971733095,8|0,0:0|0:0,0:0:0:0:
184,209,26781,2,0,B|212:213|212:213|245:206,1,61.7499971733095
115,333,27004,22,0,L|111:286,1,47.5,10|2,0:0|0:0,0:0:0:0:
100,177,27226,1,0,0:0:0:0:
45,340,27448,6,0,L|124:333,1,71.2500027179719,8|0,0:0|0:0,0:0:0:0:
259,311,27781,2,0,L|330:305,1,71.2500027179719,8|0,0:0|0:0,0:0:0:0:
296,328,28115,22,0,L|225:334,1,71.2500027179719,8|0,0:0|0:0,0:0:0:0:
146,310,28448,2,0,L|76:317,1,71.2500027179719,8|0,0:0|0:0,0:0:0:0:
145,229,28781,5,0,1:0:0:0:
170,216,28893,1,0,1:0:0:0:
226,211,29004,1,8,3:0:0:0:
251,198,29116,1,8,3:0:0:0:
307,193,29226,22,0,L|343:89,1,104.500003189087,4|0,0:1|0:0,0:0:0:0:
423,242,29670,2,0,L|388:340,1,104.500003189087,10|0,0:0|0:0,0:0:0:0:
300,139,30115,6,0,L|308:76,3,52.2500015945435,10|0|2|2,0:0|0:0|0:0|0:0,0:0:0:0:
205,232,30559,2,0,P|179:235|154:229,1,52.2500015945435,8|2,0:0|0:0,0:0:0:0:
106,314,30781,2,0,L|114:386,1,52.2500015945435,0|2,0:0|0:0,0:0:0:0:
24,232,31004,22,0,P|0:186|10:136,1,104.500003189087,2|0,0:0|0:0,0:0:0:0:
293,35,31448,2,0,L|288:145,1,104.500003189087,10|0,0:0|0:0,0:0:0:0:
223,246,31893,2,0,L|241:362,2,104.500003189087,2|0|8,0:0|0:0|0:0,0:0:0:0:
271,118,32559,1,0,0:0:0:0:
464,224,32781,6,0,L|448:342,1,104.500003189087,2|0,0:0|0:0,0:0:0:0:
354,151,33226,2,0,L|366:46,1,104.500003189087,10|0,0:0|0:0,0:0:0:0:
337,335,33670,22,0,L|278:339,3,52.2500015945435,10|0|2|2,0:0|0:0|0:0|0:0,0:0:0:0:
184,307,34115,2,0,P|176:282|180:256,1,52.2500015945435,8|2,0:0|0:0,0:0:0:0:
122,174,34337,2,0,P|135:153|158:140,1,52.2500015945435,0|2,0:0|0:0,0:0:0:0:
185,42,34559,6,0,P|225:45|273:106,1,114,2|0,0:0|0:0,0:0:0:0:
271,98,35004,22,0,B|261:134|261:134|269:194,1,76,10|0,0:0|0:0,0:0:0:0:
302,294,35448,6,0,P|345:268|316:227,1,114,2|0,0:0|0:0,0:0:0:0:
223,271,35893,22,0,B|192:268|192:268|162:275,2,61.7499971733095,8|0|0,3:2|0:0|0:0,0:0:0:0:
387,184,36337,6,0,L|461:189,1,71.2500027179719,2|0,0:0|0:0,0:0:0:0:
459,283,36781,22,0,P|478:236|459:189,1,104.500003189087,10|8,0:0|0:1,0:0:0:0:
186,245,37226,2,0,L|181:192,3,52.2500015945435,10|0|0|0,0:0|0:0|0:0|0:0,0:0:0:0:
261,131,37670,2,0,P|278:112|286:86,1,52.2500015945435,8|2,0:0|0:0,0:0:0:0:
205,17,37893,2,0,L|202:69,1,52.2500015945435,0|2,0:0|0:0,0:0:0:0:
360,174,38115,6,0,P|405:155|461:166,1,104.500003189087,2|0,0:0|0:0,0:0:0:0:
473,303,38559,2,0,P|428:322|372:311,1,104.500003189087,10|0,0:0|0:0,0:0:0:0:
246,194,39004,2,0,B|195:175|195:175|139:204,2,104.500003189087,2|0|8,0:0|0:0|0:0,0:0:0:0:
383,330,39670,1,0,0:0:0:0:
154,285,39893,22,0,L|20:294,1,104.500003189087,2|0,0:0|0:0,0:0:0:0:
246,194,40337,1,10,0:0:0:0:
320,324,40559,1,0,0:0:0:0:
320,324,40781,6,0,L|267:319,1,52.2500015945435,10|0,0:0|0:0,0:0:0:0:
233,298,41004,2,0,L|286:303,1,52.2500015945435,2|2,0:0|0:0,0:0:0:0:
379,206,41226,2,0,L|326:201,1,52.2500015945435,8|2,0:0|0:0,0:0:0:0:
292,179,41449,2,0,L|345:184,1,52.2500015945435,0|2,0:0|0:0,0:0:0:0:
438,87,41670,22,0,L|282:71,1,132.999995941162,8|0,0:0|0:0,0:0:0:0:
306,73,42004,6,0,P|245:58|208:109,1,132.999995941162,4|0,0:3|0:0,0:0:0:0:
169,43,42337,22,0,B|208:108|208:108|182:185,1,132.999995941162,8|0,0:0|0:0,0:0:0:0:
73,136,42670,6,0,P|131:123|193:168,1,132.999995941162,4|0,0:3|0:0,0:0:0:0:
255,207,43004,22,0,B|277:175|262:131|262:131|278:101|315:122|310:163,1,142.5,8|0,0:1|0:0,0:0:0:0:
308,140,43448,5,6,0:1:0:0:
336,214,43670,1,0,0:0:0:0:
401,249,43893,1,0,0:0:0:0:
472,230,44115,1,0,0:0:0:0:
329,16,44337,21,8,0:1:0:0:
377,72,44559,1,0,0:0:0:0:
379,146,44781,1,0,0:0:0:0:
332,205,45004,1,0,0:0:0:0:
259,214,45226,5,0,0:0:0:0:
92,196,45448,1,8,0:0:0:0:
46,256,45670,21,0,0:0:0:0:
46,256,45781,2,0,L|33:336,1,47.5,8|0,0:0|0:0,0:0:0:0:
90,83,46115,5,8,0:1:0:0:
151,127,46337,1,0,0:0:0:0:
225,136,46559,1,0,0:0:0:0:
294,106,46781,1,0,0:0:0:0:
157,52,47004,21,8,0:0:0:0:
151,127,47226,1,0,0:0:0:0:
145,203,47448,1,0,0:0:0:0:
140,279,47670,1,0,0:0:0:0:
286,182,47893,5,8,0:1:0:0:
354,152,48115,1,0,0:0:0:0:
428,166,48337,1,0,0:0:0:0:
482,218,48559,1,0,0:0:0:0:
498,291,48781,21,0,0:0:0:0:
354,152,49004,1,8,0:0:0:0:
313,87,49226,5,0,0:0:0:0:
313,87,49337,2,0,L|321:39,1,47.5,8|0,0:0|0:0,0:0:0:0:
270,314,49670,21,8,0:1:0:0:
199,340,49893,1,0,0:0:0:0:
125,327,50115,1,0,0:0:0:0:
68,278,50337,1,0,0:0:0:0:
338,345,50559,5,8,0:0:0:0:
329,269,50781,1,0,0:0:0:0:
320,193,51004,1,0,0:0:0:0:
312,118,51226,1,0,0:0:0:0:
16,181,51448,21,8,0:1:0:0:
86,208,51670,1,0,0:0:0:0:
159,195,51893,1,0,0:0:0:0:
216,146,52115,1,0,0:0:0:0:
240,75,52337,5,0,0:0:0:0:
360,218,52559,1,8,0:0:0:0:
312,277,52781,21,0,0:0:0:0:
312,277,52893,2,0,L|250:288,1,47.5,8|0,0:0|0:0,0:0:0:0:
243,45,53226,5,12,0:0:0:0:
308,81,53448,1,0,0:0:0:0:
351,143,53670,1,0,0:0:0:0:
360,218,53893,1,0,0:0:0:0:
335,289,54115,22,0,L|286:300,7,47.5,8|0|0|0|0|0|0|0,0:0|0:0|0:0|0:0|0:0|0:0|0:0|0:0,0:0:0:0:
415,316,55004,2,0,L|461:305,7,47.5,8|0|0|0|0|0|0|0,0:1|0:0|0:0|0:0|0:0|0:0|0:0|0:0,0:0:0:0:
348,366,55893,6,0,L|337:322,5,31.6666666666667,8|0|0|0|0|0,0:0|0:0|0:0|0:0|0:0|0:0,0:0:0:0:
268,314,56337,22,0,L|259:281,7,23.75,0|0|0|0|0|0|0|0,3:0|0:0|0:0|0:0|0:0|0:0|0:0|0:0,0:0:0:0:
188,262,56781,6,0,L|179:229,7,23.75,0|0|0|0|0|0|0|0,3:0|0:0|0:0|0:0|0:0|0:0|0:0|0:0,0:0:0:0:
108,210,57226,22,0,L|102:189,14,11.875,0|0|0|0|0|0|0|0|0|0|0|0|0|0|0,3:0|0:0|0:0|0:0|0:0|0:0|0:0|0:0|0:0|0:0|0:0|0:0|0:0|0:0|0:0,0:0:0:0:
108,210,57670,6,0,B|93:155|93:155|110:92,1,113.999996520996,12|0,0:0|0:0,0:0:0:0:
162,357,58115,1,8,0:1:0:0:
198,68,58337,1,0,0:0:0:0:
421,279,58559,2,0,P|363:303|305:290,1,113.999996520996,8|0,0:0|0:0,0:0:0:0:
305,76,59004,1,8,0:1:0:0:
218,354,59226,1,0,0:0:0:0:
79,157,59448,22,0,L|58:30,2,113.999996520996,8|0|8,0:0|0:0|0:1,0:0:0:0:
152,310,60115,1,0,0:0:0:0:
201,39,60337,1,8,0:0:0:0:
392,138,60559,2,0,L|386:198,1,56.9999982604981
432,268,60781,2,0,P|372:241|325:270,1,113.999996520996,8|0,0:1|0:0,0:0:0:0:
260,329,61115,1,0,0:0:0:0:
260,329,61226,6,0,L|132:337,1,113.999996520996,8|0,0:0|0:0,0:0:0:0:
21,174,61670,1,8,0:1:0:0:
247,300,61893,1,0,0:0:0:0:
155,57,62115,2,0,L|147:191,1,113.999996520996,8|0,0:0|0:0,0:0:0:0:
327,33,62559,1,8,0:1:0:0:
235,270,62781,1,0,0:0:0:0:
477,145,63004,22,0,L|364:137,1,113.999996520996,8|0,0:0|0:0,0:0:0:0:
35,285,63448,2,0,L|148:277,1,113.999996520996,10|0,0:1|0:0,0:0:0:0:
254,114,63893,1,8,0:0:0:0:
262,325,64115,1,0,0:0:0:0:
257,91,64337,6,0,B|255:57|276:29|276:29|301:70|276:115,1,142.500005435944,10|0,0:1|0:0,0:0:0:0:
331,357,64781,22,0,B|301:388|264:377|264:377|229:337|176:366,1,152,4|0,0:1|0:0,0:0:0:0:
454,215,65226,2,0,P|480:167|461:110,1,113.999996520996,8|0,0:1|0:0,0:0:0:0:
229,334,65670,2,0,L|107:341,1,113.999996520996,8|0,0:0|0:0,0:0:0:0:
317,114,66115,1,8,0:1:0:0:
147,214,66337,1,0,0:0:0:0:
361,280,66559,6,0,L|492:266,1,113.999996520996,8|0,0:0|0:0,0:0:0:0:
131,237,67004,1,8,0:1:0:0:
219,33,67226,1,0,0:0:0:0:
405,206,67448,2,0,B|344:232|344:232|272:216,1,113.999996520996,8|0,0:0|0:0,0:0:0:0:
208,197,67781,1,0,0:0:0:0:
208,197,67893,2,0,P|225:262|194:307,1,113.999996520996,8|0,0:1|0:0,0:0:0:0:
126,339,68226,1,0,0:0:0:0:
126,339,68337,22,0,L|270:334,1,113.999996520996,8|0,0:0|0:0,0:0:0:0:
435,319,68781,2,0,P|459:269|444:215,1,113.999996520996,8|0,0:1|0:0,0:0:0:0:
309,68,69226,2,0,L|195:71,1,113.999996520996,8|0,0:0|0:0,0:0:0:0:
36,185,69670,1,8,0:1:0:0:
322,260,69893,1,0,0:0:0:0:
322,260,70115,6,0,B|334:198|334:198|301:154,1,113.999996520996,8|0,0:0|0:0,0:0:0:0:
54,209,70559,2,0,B|42:271|42:271|72:311,1,113.999996520996,10|0,0:1|0:0,0:0:0:0:
189,237,71004,22,0,L|157:60,1,132.999995941162,8|0,0:0|0:0,0:0:0:0:
152,99,71337,1,8,0:3:0:0:
136,97,71448,6,0,P|171:136|143:85,1,152,10|0,0:1|0:0,0:0:0:0:
27,56,71893,22,0,L|10:238,1,170.999994781494,4|0,0:1|0:0,0:0:0:0:
11,226,72337,2,2,P|110:203|136:221,1,113.999996520996,8|2,0:1|0:0,0:0:0:0:
114,205,72670,1,2,0:0:0:0:
114,205,72781,1,8,0:0:0:0:
167,361,73004,1,0,0:0:0:0:
247,112,73226,2,0,L|236:245,1,113.999996520996,8|2,0:1|0:0,0:0:0:0:
499,134,73670,5,8,0:0:0:0:
372,287,73893,1,0,0:0:0:0:
370,44,74115,2,0,L|384:157,1,113.999996520996,8|2,0:1|0:0,0:0:0:0:
384,156,74448,1,2,0:0:0:0:
384,156,74559,1,8,0:0:0:0:
218,83,74781,2,0,L|210:24,2,56.9999982604981,0|0|8,0:0|0:0|0:1,0:0:0:0:
89,223,75226,2,0,L|79:279,1,56.9999982604981,2|0,0:0|0:0,0:0:0:0:
70,360,75448,22,0,L|212:344,1,113.999996520996,8|0,0:0|0:0,0:0:0:0:
445,192,75893,2,0,L|331:204,1,113.999996520996,8|2,0:1|0:0,0:0:0:0:
331,204,76226,1,2,0:0:0:0:
331,204,76337,1,8,0:0:0:0:
251,372,76559,1,0,0:0:0:0:
70,157,76781,2,0,P|113:144|188:192,1,113.999996520996,8|2,0:1|0:0,0:0:0:0:
251,372,77226,5,8,0:0:0:0:
444,298,77448,1,0,0:0:0:0:
307,59,77670,2,0,B|304:105|304:105|316:141|316:141|314:170,1,113.999996520996,8|2,0:1|0:0,0:0:0:0:
314,170,78004,1,2,0:0:0:0:
314,170,78115,1,8,0:0:0:0:
481,186,78337,1,0,0:0:0:0:
251,372,78559,2,0,P|225:383|196:381,2,56.9999982604981,8|0|2,0:1|0:0|0:0,0:0:0:0:
130,95,79004,22,0,L|146:231,1,113.999996520996,8|0,0:0|0:0,0:0:0:0:
143,208,79448,1,10,0:1:0:0:
231,25,79670,6,0,L|222:111,1,56.9999982604981,2|2,0:0|0:0,0:0:0:0:
216,170,79892,1,8,0:0:0:0:
316,312,80115,22,0,L|307:226,1,56.9999982604981,2|0,0:0|0:0,0:0:0:0:
301,167,80337,1,10,0:1:0:0:
396,47,80559,6,0,L|387:133,1,56.9999982604981,2|0,0:0|0:0,0:0:0:0:
381,192,80781,2,0,P|424:201|386:224,1,113.999996520996,0|0,3:0|0:0,0:0:0:0:
268,121,81448,21,8,0:3:0:0:
241,130,81559,1,0,1:0:0:0:
168,248,81781,1,0,1:0:0:0:
141,239,81892,1,8,0:3:0:0:
66,106,82115,1,8,0:3:0:0:
39,115,82226,2,0,P|13:179|48:224,1,113.999996520996,4|0,0:3|0:0,0:0:0:0:
112,227,82559,6,0,L|159:221,1,28.4999991302491,12|0,0:0|0:0,0:0:0:0:
211,179,82893,2,0,L|239:183,1,28.4999991302491,0|8,0:0|0:1,0:0:0:0:
305,235,83226,2,0,L|351:228,1,28.4999991302491
416,270,83448,22,0,P|427:293|429:323,3,47.5,8|0|0|0,0:0|0:0|0:0|0:0,0:0:0:0:
416,270,83893,2,0,L|422:125,1,142.5,8|0,0:1|0:0,0:0:0:0:
422,128,84337,6,0,L|434:179,1,28.4999991302491,8|0,0:0|0:0,0:0:0:0:
366,207,84670,2,0,L|354:257,1,28.4999991302491,0|8,0:0|0:1,0:0:0:0:
434,281,85004,2,0,L|445:331,1,28.4999991302491
369,358,85226,22,0,P|338:372|317:346,1,71.25,8|0,0:0|0:0,0:0:0:0:
314,264,85670,1,8,1:0:0:0:
184,359,85893,1,0,0:0:0:0:
184,359,86115,6,0,L|177:320,1,28.4999991302491,8|0,0:0|0:0,0:0:0:0:
238,259,86448,2,0,L|217:225,1,28.4999991302491,0|8,0:0|0:1,0:0:0:0:
253,146,86781,2,0,L|221:121,1,28.4999991302491
323,91,87004,21,8,0:0:0:0:
224,235,87226,2,0,B|200:259|166:256|142:228|142:228|167:266|229:280|274:234,1,237.5,0|0,3:0|0:0,0:0:0:0:
334,176,87893,22,0,P|383:183|397:230,1,104.500003189087,4|0,0:3|0:0,0:0:0:0:
397,230,88226,2,0,P|446:237|460:284,1,104.500003189087,4|0,0:3|0:0,0:0:0:0:
460,285,88559,1,4,0:3:0:0:
