osu file format v14

[General]
AudioFilename: sta.mp3
AudioLeadIn: 750
PreviewTime: 57670
Countdown: 0
SampleSet: Soft
StackLeniency: 0.3
Mode: 0
LetterboxInBreaks: 0
WidescreenStoryboard: 0

[Editor]
Bookmarks: 15004
DistanceSpacing: 1.1
BeatDivisor: 4
GridSize: 8
TimelineZoom: 1.2

[Metadata]
Title:Renegade
TitleUnicode:Renegade
Artist:STEREO DIVE FOUNDATION
ArtistUnicode:STEREO DIVE FOUNDATION
Creator:Kihhou
Version:Normal
Source:GANGSTA.
Tags:ギャングスタ opening op theme tv size R・O・N
BeatmapID:736806
BeatmapSetID:332101

[Difficulty]
HPDrainRate:4
CircleSize:3.5
OverallDifficulty:4
ApproachRate:5.5
SliderMultiplier:1.4
SliderTickRate:1

[Events]
//Background and Video events
0,0,"editedbyTHEringating.png",0,0
Video,0,"opto.flv"
//Break Periods
//Storyboard Layer 0 (Background)
//Storyboard Layer 1 (Fail)
//Storyboard Layer 2 (Pass)
//Storyboard Layer 3 (Foreground)
//Storyboard Sound Samples

[TimingPoints]
782,444.444444444444,4,2,1,60,1,0
2559,-100,4,2,11,60,0,0
2670,-100,4,2,1,60,0,0
6115,-100,4,2,1,40,0,0
7893,-100,4,2,1,65,0,0
12337,-100,4,2,1,70,0,0
14115,-100,4,2,1,50,0,0
15004,-100,4,2,1,65,0,0
16337,-100,4,2,2,65,0,0
16448,-100,4,2,1,65,0,0
18115,-100,4,2,2,65,0,0
18226,-100,4,2,1,65,0,0
21670,-100,4,2,2,65,0,0
22115,-100,4,2,1,65,0,0
23448,-100,4,2,2,65,0,0
23559,-100,4,2,1,65,0,0
25226,-100,4,2,2,65,0,0
25337,-100,4,2,1,65,0,0
27004,-100,4,2,2,65,0,0
27448,-100,4,2,1,70,0,0
27781,-100,4,2,1,70,0,0
28115,-100,4,2,1,70,0,0
28448,-100,4,2,1,70,0,0
28781,-100,4,2,1,50,0,0
29226,-100,4,2,3,40,0,0
30115,-100,4,2,4,40,0,0
30559,-100,4,2,3,40,0,0
33670,-100,4,2,4,40,0,0
34115,-100,4,2,3,40,0,0
36337,-100,4,2,66,50,0,0
36781,-100,4,2,3,40,0,0
37226,-100,4,2,4,40,0,0
37670,-100,4,2,3,40,0,0
40781,-100,4,2,4,40,0,0
41226,-100,4,2,3,40,0,0
41670,-100,4,2,1,40,0,0
43448,-100,4,2,1,45,0,0
50559,-100,4,2,1,50,0,0
52337,-100,4,2,1,55,0,0
53226,-100,4,2,33,55,0,0
53337,-100,4,2,1,55,0,0
57670,-100,4,2,77,70,0,1
57726,-100,4,2,1,70,0,1
80781,-100,4,2,1,55,0,0
87893,-100,4,2,1,70,0,0

[Colours]
Combo1 : 255,60,60
Combo2 : 15,240,66
Combo3 : 50,210,239

[HitObjects]
64,208,782,6,0,L|224:200,1,140,4|0,0:3|3:0,0:0:0:0:
305,85,1670,2,0,L|377:93,1,70,8|8,0:0|0:0,0:0:0:0:
447,66,2115,2,0,P|451:101|440:134,1,70,0|0,0:0|3:0,0:0:0:0:
396,197,2559,2,0,P|386:251|406:289,1,70,2|0,0:0|0:0,0:0:0:0:
451,311,3004,2,0,L|295:331,1,140,0|0,0:0|0:0,0:0:0:0:
253,279,3670,6,0,L|136:270,2,105,4|4|4,0:3|0:3|0:3,0:0:0:0:
305,222,4559,1,2,0:3:0:0:
120,82,5226,2,0,L|121:158,1,70,0|8,0:0|0:0,0:0:0:0:
100,226,5670,2,0,P|147:224|176:206,1,70,0|0,3:0|0:0,0:0:0:0:
197,284,6115,2,0,B|261:303|261:303|333:275,1,140,0|2,3:0|0:0,0:0:0:0:
470,93,7226,2,0,L|471:180,1,70,2|8,0:0|0:3,0:0:0:0:
419,219,7670,1,0,0:0:0:0:
356,173,7893,22,0,P|289:157|209:199,1,140,4|8,0:1|0:2,0:0:0:0:
179,244,8559,1,0,0:0:0:0:
122,191,8781,2,0,P|106:266|168:323,1,140,8|8,0:0|0:0,0:0:0:0:
219,312,9448,1,2,0:0:0:0:
256,244,9670,2,0,P|299:232|340:241,1,70,8|2,0:0|0:0,0:0:0:0:
371,295,10115,2,0,L|367:147,1,140,8|8,0:0|0:0,0:0:0:0:
372,78,10781,1,2,0:0:0:0:
301,108,11004,6,0,P|250:81|156:114,1,140,8|8,0:0|0:0,0:0:0:0:
165,252,11893,2,0,P|216:279|310:246,2,140,8|8|8,0:0|0:0|0:0,0:0:0:0:
236,114,13226,1,8,0:0:0:0:
347,323,14115,22,0,L|341:253,1,70,8|8,0:3|0:0,0:0:0:0:
265,242,14559,2,0,L|271:311,1,70,8|4,0:1|0:3,0:0:0:0:
199,337,15004,6,0,P|143:313|67:338,1,140,12|8,0:2|0:1,0:0:0:0:
35,185,15893,2,0,B|13:111|13:111|49:55,1,140,8|10,0:0|0:0,0:0:0:0:
120,36,16559,1,0,0:0:0:0:
152,105,16781,2,0,P|204:128|285:97,1,140,8|8,0:0|0:1,0:0:0:0:
432,80,17670,2,0,L|421:226,1,140,8|10,0:0|0:0,0:0:0:0:
411,296,18337,1,0,0:0:0:0:
411,296,18559,22,0,B|330:286|330:286|275:303,1,140,8|8,0:0|0:1,0:0:0:0:
205,337,19226,1,0,0:0:0:0:
129,322,19448,2,0,P|93:273|130:182,1,140,8|8,0:0|0:1,0:0:0:0:
246,128,20337,2,0,L|243:235,2,105,10|2|2,0:0|0:0|0:0,0:0:0:0:
269,54,21226,2,0,B|305:50|305:50|337:57,1,70,8|0,0:0|0:0,0:0:0:0:
407,24,21670,2,0,P|415:57|407:91,1,70,10|2,0:0|0:0,0:0:0:0:
342,134,22115,5,8,0:0:0:0:
196,183,22559,2,0,B|182:127|182:127|193:78,2,105,8|0|0,0:1|0:0|0:0,0:0:0:0:
118,189,23448,2,0,L|118:277,1,70,10|0,0:0|0:0,0:0:0:0:
74,323,23893,1,8,0:0:0:0:
224,354,24337,2,0,P|194:316|204:248,2,105,8|0|0,0:1|0:0|0:0,0:0:0:0:
268,291,25226,2,0,P|295:278|340:281,1,70,10|0,0:0|0:0,0:0:0:0:
395,327,25670,22,0,P|411:275|348:204,1,140,8|8,0:0|0:1,0:0:0:0:
290,188,26337,1,0,0:0:0:0:
290,188,26559,2,0,L|143:186,1,140,8|10,0:0|0:0,0:0:0:0:
97,129,27226,1,0,0:0:0:0:
43,184,27448,2,0,B|27:242|27:242|46:283,1,105,8|8,0:0|0:0,0:0:0:0:
161,289,28115,2,0,B|177:231|177:231|158:190,1,105,8|8,0:0|0:0,0:0:0:0:
106,86,28781,2,0,L|191:76,1,70,0|8,1:0|0:3,0:0:0:0:
252,68,29226,1,4,0:1:0:0:
390,137,29670,6,0,L|380:277,1,140,10|10,0:0|0:0,0:0:0:0:
350,348,30337,1,2,0:0:0:0:
303,286,30559,2,0,P|256:271|222:282,1,70,8|0,0:0|0:0,0:0:0:0:
181,327,31004,1,2,0:0:0:0:
60,232,31448,22,0,B|118:203|118:203|193:211,1,140,10|2,0:0|0:0,0:0:0:0:
237,275,32115,1,0,0:0:0:0:
307,244,32337,2,0,L|321:163,2,70,8|0|2,0:0|0:0|0:0,0:0:0:0:
456,207,33226,6,0,P|438:146|364:119,1,140,10|10,0:0|0:0,0:0:0:0:
297,102,33893,1,2,0:0:0:0:
244,157,34115,2,0,B|210:164|210:164|160:156,1,70,8|0,0:0|0:0,0:0:0:0:
134,94,34559,22,0,L|142:237,1,140,2|10,0:0|0:0,0:0:0:0:
75,372,35448,2,0,L|67:232,1,140,2|8,0:0|3:2,0:0:0:0:
39,160,36115,2,0,L|47:90,1,70,0|2,0:0|0:0,0:0:0:0:
202,99,36781,6,0,B|276:125|276:125|351:102,1,140,10|10,0:0|0:0,0:0:0:0:
394,57,37448,1,2,0:0:0:0:
446,112,37670,2,0,B|439:151|439:151|446:203,1,70,8|0,0:0|0:0,0:0:0:0:
488,243,38115,1,2,0:0:0:0:
375,350,38559,22,0,L|361:211,1,140,10|2,0:0|0:0,0:0:0:0:
287,234,39226,1,0,0:0:0:0:
228,183,39448,2,0,P|226:142|241:110,1,70,8|0,0:0|0:0,0:0:0:0:
299,70,39893,1,2,0:0:0:0:
424,164,40337,6,0,P|364:133|302:159,1,140,10|10,0:0|0:0,0:0:0:0:
287,234,41004,1,2,0:0:0:0:
345,283,41226,2,0,P|354:325|343:357,1,70,8|0,0:0|0:0,0:0:0:0:
277,383,41670,22,0,L|149:374,1,105,8|4,0:0|0:3,0:0:0:0:
88,295,42337,2,0,L|192:302,1,105,8|4,0:0|0:3,0:0:0:0:
287,234,43004,6,0,L|114:222,1,140,8|6,0:1|0:1,0:0:0:0:
421,89,44337,2,0,P|347:42|389:151,1,280,8|0,0:1|0:0,0:0:0:0:
378,232,45448,2,0,L|367:345,2,105,8|8|8,0:0|0:0|0:1,0:0:0:0:
223,230,46559,22,0,P|188:287|220:346,1,140,0|8,0:0|0:0,0:0:0:0:
97,62,47893,2,0,P|22:106|138:118,1,280,8|0,0:1|0:0,0:0:0:0:
203,93,49004,2,0,L|314:81,2,105,8|8|8,0:0|0:0|0:1,0:0:0:0:
85,193,50115,6,0,B|59:264|59:264|84:328,1,140,0|8,0:0|0:0,0:0:0:0:
386,278,51448,2,0,P|494:290|423:207,1,280,8|0,0:1|0:0,0:0:0:0:
346,211,52559,2,0,L|235:200,2,105,8|8|12,0:0|0:0|0:0,0:0:0:0:
491,160,53670,22,0,L|476:308,1,140,0|8,0:0|0:0,0:0:0:0:
256,192,54337,12,12,57670,0:0:0:0:
217,125,58559,6,0,P|274:148|345:119,1,140,8|8,0:0|0:1,0:0:0:0:
368,39,59226,1,0,0:0:0:0:
368,39,59448,2,0,L|379:183,1,140,8|8,0:0|0:1,0:0:0:0:
411,256,60115,1,0,0:0:0:0:
482,298,60337,2,0,P|425:337|359:321,1,140,8|8,0:0|0:1,0:0:0:0:
317,247,61004,1,0,0:0:0:0:
317,247,61226,22,0,P|279:296|291:371,1,140,8|8,0:0|0:1,0:0:0:0:
189,234,62115,2,0,B|116:224|116:224|42:259,1,140,8|8,0:0|0:1,0:0:0:0:
0,189,62781,1,0,0:0:0:0:
65,137,63004,2,0,P|65:69|10:29,2,140,8|10|8,0:0|0:1|0:0,0:0:0:0:
10,295,64337,1,10,0:1:0:0:
159,217,64781,6,0,L|311:196,1,140,4|8,0:1|0:1,0:0:0:0:
464,215,65670,2,0,P|486:288|458:341,1,140,8|8,0:0|0:1,0:0:0:0:
404,275,66337,1,0,0:0:0:0:
376,354,66559,2,0,P|307:369|249:329,1,140,8|8,0:0|0:1,0:0:0:0:
209,260,67226,1,0,0:0:0:0:
270,200,67448,2,0,L|417:179,1,140,8|8,0:0|0:1,0:0:0:0:
467,120,68115,1,0,0:0:0:0:
467,120,68337,22,0,P|433:189|482:255,1,140,8|8,0:0|0:1,0:0:0:0:
333,353,69226,2,0,B|257:335|257:335|190:378,1,140,8|8,0:0|0:1,0:0:0:0:
124,344,69893,1,0,0:0:0:0:
124,344,70115,2,0,P|94:252|129:202,1,140,8|10,0:0|0:1,0:0:0:0:
272,171,71004,2,0,L|346:178,1,70,8|0,0:0|0:0,0:0:0:0:
392,111,71448,2,0,P|425:164|399:239,1,140,10|4,0:1|0:1,0:0:0:0:
250,304,72337,5,8,0:1:0:0:
184,251,72559,2,0,L|106:244,1,70,2|8,0:0|0:0,0:0:0:0:
96,78,73226,1,8,0:1:0:0:
175,51,73448,2,0,P|181:85|170:119,1,70,2|8,0:0|0:0,0:0:0:0:
321,117,74115,21,8,0:1:0:0:
375,180,74337,2,0,P|379:230|361:256,1,70,2|8,0:0|0:0,0:0:0:0:
297,287,74781,1,0,0:0:0:0:
213,277,75004,2,0,L|134:270,1,70,8|2,0:1|0:0,0:0:0:0:
84,330,75448,1,8,0:0:0:0:
42,167,75893,5,8,0:1:0:0:
42,167,76115,2,0,L|50:88,1,70,2|8,0:0|0:0,0:0:0:0:
215,75,76781,1,8,0:1:0:0:
215,75,77004,2,0,B|258:62|258:62|289:70,1,70,2|8,0:0|0:0,0:0:0:0:
403,184,77670,21,8,0:1:0:0:
403,184,77893,2,0,L|491:170,1,70,2|8,0:0|0:0,0:0:0:0:
509,248,78337,1,0,0:0:0:0:
440,295,78559,2,0,L|356:293,1,70,8|2,0:1|0:0,0:0:0:0:
305,347,79004,1,8,0:0:0:0:
152,277,79448,5,10,0:1:0:0:
90,220,79670,2,0,L|105:131,1,70,2|8,0:0|0:0,0:0:0:0:
263,195,80337,1,10,0:1:0:0:
323,140,80559,2,0,L|308:51,1,70,2|0,0:0|3:0,0:0:0:0:
474,111,81226,22,0,L|464:240,2,105,0|0|8,0:0|1:0|0:3,0:0:0:0:
419,57,82115,2,0,P|385:48|339:60,1,70,8|0,0:3|0:0,0:0:0:0:
298,109,82559,6,0,B|243:96|243:96|178:111,2,105,12|0|0,0:0|0:0|0:0,0:0:0:0:
341,173,83448,2,0,L|354:251,1,70,8|0,0:0|0:0,0:0:0:0:
313,308,83893,2,0,P|279:296|238:302,1,70,8|0,0:1|0:0,0:0:0:0:
189,350,84337,22,0,P|133:358|83:321,2,105,8|0|0,0:0|0:0|0:0,0:0:0:0:
151,283,85226,2,0,P|147:246|160:215,1,70,8|0,0:0|0:0,0:0:0:0:
224,173,85670,2,0,L|218:99,1,70,8|0,0:1|0:0,0:0:0:0:
163,49,86115,6,0,L|38:30,2,105,8|0|0,0:0|0:0|0:0,0:0:0:0:
218,103,87004,1,8,0:0:0:0:
144,124,87226,2,0,P|117:203|164:261,1,140,0|0,3:0|0:0,0:0:0:0:
200,299,87893,6,0,L|95:307,2,105,4|4|4,0:3|0:3|0:3,0:0:0:0:
