osu file format v14

[General]
AudioFilename: sta.mp3
AudioLeadIn: 750
PreviewTime: 57670
Countdown: 0
SampleSet: Soft
StackLeniency: 0.3
Mode: 0
LetterboxInBreaks: 0
WidescreenStoryboard: 0

[Editor]
Bookmarks: 15004
DistanceSpacing: 1
BeatDivisor: 4
GridSize: 8
TimelineZoom: 1.2

[Metadata]
Title:Renegade
TitleUnicode:Renegade
Artist:STEREO DIVE FOUNDATION
ArtistUnicode:STEREO DIVE FOUNDATION
Creator:Kihhou
Version:Hard
Source:GANGSTA.
Tags:ギャングスタ opening op theme tv size R・O・N
BeatmapID:736829
BeatmapSetID:332101

[Difficulty]
HPDrainRate:5
CircleSize:4
OverallDifficulty:5
ApproachRate:8
SliderMultiplier:1.6
SliderTickRate:1

[Events]
//Background and Video events
0,0,"editedbyTHEringating.png",0,0
Video,0,"opto.flv"
//Break Periods
//Storyboard Layer 0 (Background)
//Storyboard Layer 1 (Fail)
//Storyboard Layer 2 (Pass)
//Storyboard Layer 3 (Foreground)
//Storyboard Sound Samples

[TimingPoints]
782,444.444444444444,4,2,1,60,1,0
2559,-100,4,2,11,60,0,0
2670,-100,4,2,1,60,0,0
6115,-100,4,2,1,40,0,0
7448,-83.3333333333333,4,2,1,40,0,0
7893,-90.9090909090909,4,2,1,65,0,0
12337,-90.9090909090909,4,2,1,70,0,0
14115,-90.9090909090909,4,2,1,50,0,0
15004,-90.9090909090909,4,2,1,65,0,0
16337,-90.9090909090909,4,2,2,65,0,0
16448,-90.9090909090909,4,2,1,65,0,0
18115,-90.9090909090909,4,2,2,65,0,0
18226,-90.9090909090909,4,2,1,65,0,0
21670,-90.9090909090909,4,2,2,65,0,0
22115,-90.9090909090909,4,2,1,65,0,0
23448,-90.9090909090909,4,2,2,65,0,0
23559,-90.9090909090909,4,2,1,65,0,0
25226,-90.9090909090909,4,2,2,65,0,0
25337,-90.9090909090909,4,2,1,65,0,0
27004,-90.9090909090909,4,2,2,65,0,0
27448,-90.9090909090909,4,2,1,70,0,0
27670,-90.9090909090909,4,2,1,15,0,0
27781,-90.9090909090909,4,2,1,70,0,0
28004,-90.9090909090909,4,2,1,15,0,0
28115,-90.9090909090909,4,2,1,70,0,0
28337,-90.9090909090909,4,2,1,15,0,0
28448,-90.9090909090909,4,2,1,70,0,0
28670,-90.9090909090909,4,2,1,15,0,0
28781,-90.9090909090909,4,2,1,50,0,0
29226,-90.9090909090909,4,2,3,40,0,0
30115,-90.9090909090909,4,2,4,40,0,0
30559,-90.9090909090909,4,2,3,40,0,0
30670,-90.9090909090909,4,2,4,40,0,0
31004,-90.9090909090909,4,2,3,40,0,0
33670,-90.9090909090909,4,2,4,40,0,0
34115,-90.9090909090909,4,2,3,40,0,0
34226,-90.9090909090909,4,2,4,40,0,0
34559,-90.9090909090909,4,2,3,40,0,0
36337,-90.9090909090909,4,2,66,50,0,0
36448,-90.9090909090909,4,2,66,15,0,0
36781,-90.9090909090909,4,2,3,40,0,0
37004,-90.9090909090909,4,2,44,45,0,0
37226,-90.9090909090909,4,2,4,40,0,0
37670,-90.9090909090909,4,2,3,40,0,0
37781,-90.9090909090909,4,2,4,40,0,0
38115,-90.9090909090909,4,2,3,40,0,0
40781,-90.9090909090909,4,2,4,40,0,0
41226,-90.9090909090909,4,2,3,40,0,0
41337,-90.9090909090909,4,2,4,40,0,0
41670,-83.3333333333333,4,2,1,40,0,0
43004,-100,4,2,1,40,0,0
43448,-100,4,2,1,45,0,0
50559,-100,4,2,1,50,0,0
52337,-100,4,2,1,55,0,0
53226,-100,4,2,33,55,0,0
53337,-100,4,2,1,55,0,0
57670,-100,4,2,77,70,0,1
57781,-100,4,2,1,70,0,1
80781,-100,4,2,1,55,0,0
87893,-100,4,2,1,70,0,0
88115,-100,4,2,1,15,0,0
88226,-100,4,2,1,70,0,0
88448,-100,4,2,1,15,0,0
88559,-100,4,2,1,70,0,0

[Colours]
Combo1 : 255,60,60
Combo2 : 15,240,66
Combo3 : 50,210,239

[HitObjects]
211,95,782,22,0,L|202:210,1,80,4|2,0:3|0:3,0:0:0:0:
205,175,1226,2,0,L|314:165,1,80,0|0,3:0|0:0,0:0:0:0:
354,205,1670,2,0,B|371:246|371:246|361:303,1,80,8|8,0:0|0:0,0:0:0:0:
292,252,2115,1,0,0:0:0:0:
236,309,2337,1,0,0:0:0:0:
169,266,2559,22,0,L|163:161,1,80,2|0,0:0|0:0,0:0:0:0:
87,268,3004,1,0,0:0:0:0:
87,268,3115,2,0,L|78:107,1,160,0|0,3:0|0:0,0:0:0:0:
76,67,3670,2,0,P|128:48|180:68,1,80,4|0,0:3|0:0,0:0:0:0:
164,89,4004,2,0,P|216:108|268:88,1,80,4|0,0:3|0:0,0:0:0:0:
270,79,4337,5,4,0:3:0:0:
307,180,4559,2,0,L|291:236,1,40,2|0,0:3|0:0,0:0:0:0:
467,167,5115,22,0,B|433:119|433:119|467:56,1,120,8|8,0:0|0:0,0:0:0:0:
392,27,5670,1,0,3:0:0:0:
285,61,5893,1,0,0:0:0:0:
285,61,6115,6,0,P|300:113|271:150,1,80,0|0,3:0|3:0,0:0:0:0:
232,189,6559,2,0,L|238:284,2,80,2|2|2,0:0|0:0|0:0,0:0:0:0:
232,189,7226,1,2,0:0:0:0:
159,223,7448,2,0,B|125:228|125:228|94:223|94:223|59:228,1,95.9999970703126,8|0,0:3|0:0,0:0:0:0:
64,227,7893,22,0,P|47:172|64:132,1,88.000002685547,4|2,0:1|0:0,0:0:0:0:
80,120,8226,1,2,0:0:0:0:
80,120,8337,2,0,L|173:112,1,88.000002685547,8|0,0:2|0:0,0:0:0:0:
272,48,8781,2,0,P|311:30|396:66,1,132.00000402832,8|0,0:0|0:0,0:0:0:0:
408,89,9226,2,0,L|399:146,3,44.0000013427735,8|0|2|0,0:0|0:0|0:0|0:0,0:0:0:0:
372,166,9670,5,8,0:0:0:0:
399,290,9893,1,2,0:0:0:0:
399,290,10004,1,0,0:0:0:0:
399,290,10115,1,8,0:0:0:0:
272,309,10337,1,2,0:0:0:0:
251,300,10448,1,0,0:0:0:0:
231,290,10559,2,0,P|217:236|250:186,1,88.000002685547,8|2,0:0|0:0,0:0:0:0:
280,114,11004,1,8,0:0:0:0:
433,230,11448,22,0,L|339:241,1,88.000002685547,8|0,0:0|0:0,0:0:0:0:
304,338,11893,2,0,P|258:319|206:356,1,88.000002685547,8|0,0:0|0:0,0:0:0:0:
186,233,12337,2,0,B|145:247|145:247|89:229,1,88.000002685547,8|0,0:0|0:0,0:0:0:0:
178,141,12781,2,0,P|256:107|335:140,1,176.000005371094,8|8,0:0|0:0,0:0:0:0:
335,140,14115,5,8,0:3:0:0:
288,215,14337,1,8,0:0:0:0:
345,281,14559,1,8,0:1:0:0:
339,297,14670,1,0,1:0:0:0:
333,313,14781,1,4,0:3:0:0:
233,268,15004,21,12,0:2:0:0:
233,268,15115,2,0,P|190:274|160:305,1,88.000002685547
136,327,15448,2,0,L|128:231,1,88.000002685547,8|0,0:1|0:0,0:0:0:0:
33,210,15893,1,8,0:0:0:0:
116,133,16115,2,0,L|110:90,2,44.0000013427735,0|2|10,0:0|0:0|0:0,0:0:0:0:
155,168,16448,2,0,P|186:139|235:136,1,88.000002685547,2|2,0:0|0:0,0:0:0:0:
261,157,16781,6,0,L|251:58,1,88.000002685547,8|0,0:0|0:0,0:0:0:0:
348,154,17226,2,0,P|357:208|344:240,1,88.000002685547,8|0,0:1|0:0,0:0:0:0:
282,311,17670,1,8,0:0:0:0:
382,340,17893,2,0,L|378:383,2,44.0000013427735,0|2|10,0:0|0:0|0:0,0:0:0:0:
355,310,18226,2,0,L|447:302,1,88.000002685547,2|2,0:0|0:0,0:0:0:0:
468,271,18559,22,0,B|468:227|468:227|441:184,1,88.000002685547,8|0,0:0|0:0,0:0:0:0:
405,198,18893,1,0,0:0:0:0:
405,198,19004,2,0,P|352:208|315:203,1,88.000002685547,8|0,0:1|0:0,0:0:0:0:
199,139,19448,2,0,L|204:236,1,88.000002685547,8|0,0:0|0:0,0:0:0:0:
117,289,19893,1,8,0:1:0:0:
213,332,20115,1,2,0:0:0:0:
295,265,20337,6,0,P|384:265|417:306,2,132.00000402832,10|2|2,0:0|0:0|0:0,0:0:0:0:
184,186,21226,2,0,L|179:142,2,44.0000013427735,8|0|0,0:0|0:0|0:0,0:0:0:0:
135,308,21670,2,0,L|129:366,2,44.0000013427735,10|2|2,0:0|0:0|0:0,0:0:0:0:
262,281,22115,22,0,B|370:273,1,88.000002685547,8|0,0:0|0:0,0:0:0:0:
432,205,22559,2,0,P|432:161|416:120,1,88.000002685547,8|0,0:1|0:0,0:0:0:0:
389,96,22893,1,0,0:0:0:0:
389,96,23004,2,0,L|324:86,3,44.0000013427735,8|0|0|0,0:0|0:0|0:0|0:0,0:0:0:0:
299,102,23448,1,10,0:0:0:0:
332,228,23670,1,0,0:0:0:0:
332,228,23781,1,2,0:0:0:0:
332,228,23893,6,0,P|375:227|410:202,1,88.000002685547,8|0,0:0|0:0,0:0:0:0:
277,126,24337,2,0,P|234:126|198:151,1,88.000002685547,8|0,0:1|0:0,0:0:0:0:
174,177,24670,1,0,0:0:0:0:
174,177,24781,2,0,L|162:113,3,44.0000013427735,8|0|0|0,0:0|0:0|0:0|0:0,0:0:0:0:
161,94,25226,2,0,P|101:82|30:118,1,132.00000402832,10|2,0:0|0:0,0:0:0:0:
31,148,25670,22,0,L|22:240,1,88.000002685547,8|0,0:0|0:0,0:0:0:0:
123,267,26115,2,0,P|189:256|221:277,1,88.000002685547,8|0,0:1|0:0,0:0:0:0:
284,319,26559,2,0,B|332:310|332:310|378:276,1,88.000002685547,8|0,0:0|0:0,0:0:0:0:
369,253,26893,1,0,0:0:0:0:
369,253,27004,2,0,L|357:206,3,44.0000013427735,10|2|0|2,0:0|0:0|0:0|0:0,0:0:0:0:
309,180,27448,6,0,L|203:190,1,88.000002685547,8|0,0:0|0:0,0:0:0:0:
176,223,27781,2,0,L|282:233,1,88.000002685547,8|0,0:0|0:0,0:0:0:0:
317,252,28115,2,0,L|211:262,1,88.000002685547,8|0,0:0|0:0,0:0:0:0:
187,297,28448,2,0,L|293:307,1,88.000002685547,8|0,0:0|0:0,0:0:0:0:
302,326,28781,2,0,L|348:322,3,44.0000013427735,0|0|8|8,1:0|1:0|0:3|0:3,0:0:0:0:
376,317,29226,22,0,P|410:245|358:161,1,176.000005371094,4|10,0:1|0:0,0:0:0:0:
157,137,30115,2,0,L|150:181,3,44.0000013427735,10|0|2|2,0:0|0:0|0:0|0:0,0:0:0:0:
160,209,30559,2,0,L|167:253,3,44.0000013427735,8|2|0|2,0:0|0:0|0:0|0:0,0:0:0:0:
186,277,31004,6,0,B|274:287|274:287|360:249,1,176.000005371094,2|10,0:0|0:0,0:0:0:0:
468,43,31893,2,0,L|459:163,1,88.000002685547,2|0,0:0|0:0,0:0:0:0:
419,217,32337,2,0,P|401:269|423:313,1,88.000002685547,8|0,0:0|0:0,0:0:0:0:
494,347,32781,21,2,0:0:0:0:
311,236,33226,1,10,0:0:0:0:
125,339,33670,2,0,P|117:313|117:280,3,44.0000013427735,10|0|2|2,0:0|0:0|0:0|0:0,0:0:0:0:
122,266,34115,2,0,P|137:243|162:222,3,44.0000013427735,8|2|0|2,0:0|0:0|0:0|0:0,0:0:0:0:
176,218,34559,6,0,P|245:234|247:151,1,176.000005371094,2|10,0:0|0:0,0:0:0:0:
247,151,35226,1,0,0:0:0:0:
151,141,35448,2,0,P|105:79|174:46,1,176.000005371094,2|8,0:0|3:2,0:0:0:0:
174,46,36004,1,0,0:0:0:0:
174,46,36115,1,0,0:0:0:0:
286,47,36337,22,0,L|330:36,1,44.0000013427735,2|0,0:0|0:0,0:0:0:0:
229,158,36781,2,0,L|240:269,1,88.000002685547,10|8,0:0|0:1,0:0:0:0:
286,329,37226,2,0,L|343:322,3,44.0000013427735,10|0|2|2,0:0|0:0|0:0|0:0,0:0:0:0:
353,302,37670,2,0,L|396:307,3,44.0000013427735,8|2|0|2,0:0|0:0|0:0|0:0,0:0:0:0:
423,324,38115,6,0,P|444:234|375:162,1,176.000005371094,2|10,0:0|0:0,0:0:0:0:
277,324,39004,2,0,B|223:334|223:334|171:312,1,88.000002685547,2|0,0:0|0:0,0:0:0:0:
109,271,39448,2,0,P|119:208|98:172,1,88.000002685547,8|0,0:0|0:0,0:0:0:0:
21,147,39893,21,2,0:0:0:0:
192,56,40337,1,10,0:0:0:0:
237,142,40559,1,0,0:0:0:0:
237,142,40781,2,0,L|329:137,1,88.000002685547,10|2,0:0|0:0,0:0:0:0:
413,97,41226,2,0,L|426:157,3,44.0000013427735,8|2|0|2,0:0|0:0|0:0|0:0,0:0:0:0:
437,170,41670,6,0,L|424:268,1,95.9999970703126,8|0,0:0|0:0,0:0:0:0:
373,250,42004,2,0,B|323:244|323:244|269:277,1,95.9999970703126,4|0,0:3|0:0,0:0:0:0:
258,313,42337,2,0,P|242:264|263:218,1,95.9999970703126,8|0,0:0|0:0,0:0:0:0:
286,180,42670,2,0,L|157:201,1,95.9999970703126,4|0,0:3|0:0,0:0:0:0:
158,225,43004,22,0,B|124:158|124:158|149:61,1,160,8|6,0:1|0:1,0:0:0:0:
145,75,43670,1,0,0:0:0:0:
214,45,43893,1,0,0:0:0:0:
214,45,44115,1,0,0:0:0:0:
250,130,44337,2,0,P|287:140|339:118,1,80,8|0,0:1|0:0,0:0:0:0:
367,70,44781,1,0,0:0:0:0:
367,70,45004,1,0,0:0:0:0:
397,135,45226,5,0,0:0:0:0:
355,220,45448,2,0,B|334:267|334:267|351:327,1,80,8|0,0:0|0:0,0:0:0:0:
361,315,45781,2,0,L|237:314,1,120,8|8,0:0|0:1,0:0:0:0:
241,314,46337,1,0,0:0:0:0:
184,269,46559,1,0,0:0:0:0:
184,269,46781,1,0,0:0:0:0:
97,316,47004,21,8,0:0:0:0:
97,316,47226,1,0,0:0:0:0:
47,253,47448,1,0,0:0:0:0:
47,253,47670,1,0,0:0:0:0:
110,182,47893,2,0,L|113:99,1,80,8|0,0:1|0:0,0:0:0:0:
159,48,48337,1,0,0:0:0:0:
159,48,48559,1,0,0:0:0:0:
213,96,48781,5,0,0:0:0:0:
296,47,49004,2,0,P|340:52|367:76,1,80,8|0,0:0|0:0,0:0:0:0:
375,101,49337,2,0,L|357:223,1,120,8|8,0:0|0:1,0:0:0:0:
358,220,49893,1,0,0:0:0:0:
327,288,50115,1,0,0:0:0:0:
327,288,50337,1,0,0:0:0:0:
262,217,50559,21,8,0:0:0:0:
262,217,50781,1,0,0:0:0:0:
291,151,51004,1,0,0:0:0:0:
291,151,51226,1,0,0:0:0:0:
228,75,51448,2,0,L|133:83,1,80,8|0,0:1|0:0,0:0:0:0:
76,89,51893,1,0,0:0:0:0:
76,89,52115,1,0,0:0:0:0:
117,148,52337,5,0,0:0:0:0:
36,199,52559,2,0,P|20:242|34:281,1,80,8|0,0:0|0:0,0:0:0:0:
46,296,52893,2,0,B|117:264|117:264|171:283,1,120,8|12,0:0|0:0,0:0:0:0:
157,278,53448,1,0,0:0:0:0:
214,337,53670,1,0,0:0:0:0:
214,337,53893,1,0,0:0:0:0:
277,264,54115,22,0,L|337:258,7,40,8|0|0|0|0|0|0|0,0:0|0:0|0:0|0:0|0:0|0:0|0:0|0:0,0:0:0:0:
348,291,55004,2,0,L|387:294,7,40,8|0|0|0|0|0|0|0,0:1|0:0|0:0|0:0|0:0|0:0|0:0|0:0,0:0:0:0:
411,332,55893,1,8,0:0:0:0:
256,192,56115,12,12,57670,0:0:0:0:
396,101,58115,6,0,P|405:145|394:181,1,80,8|0,0:1|0:0,0:0:0:0:
302,255,58559,2,0,B|240:225|240:225|147:247,1,160,8|8,0:0|0:1,0:0:0:0:
122,337,59226,1,0,0:0:0:0:
40,286,59448,22,0,P|31:239|52:188,1,80,8|0,0:0|0:0,0:0:0:0:
79,121,59893,1,8,0:1:0:0:
173,136,60115,1,0,0:0:0:0:
285,67,60337,2,0,L|364:68,1,80,8|0,0:0|0:0,0:0:0:0:
408,46,60670,1,0,0:0:0:0:
408,46,60781,2,0,L|417:142,1,80,8|0,0:1|0:0,0:0:0:0:
449,164,61115,1,0,0:0:0:0:
449,164,61226,6,0,P|461:214|448:251,1,80,8|0,0:0|0:0,0:0:0:0:
337,244,61670,1,8,0:1:0:0:
289,330,61893,1,0,0:0:0:0:
208,279,62115,2,0,L|121:284,1,80,8|0,0:0|0:0,0:0:0:0:
37,251,62559,1,8,0:1:0:0:
99,178,62781,1,0,0:0:0:0:
99,178,63004,22,0,P|107:136|89:94,1,80,8|0,0:0|0:0,0:0:0:0:
188,38,63448,2,0,B|238:26|238:26|288:53,1,80,10|0,0:1|0:0,0:0:0:0:
315,130,63893,2,0,L|404:124,1,80,8|0,0:0|0:0,0:0:0:0:
486,154,64337,1,10,0:1:0:0:
511,61,64559,1,0,0:0:0:0:
395,125,64781,6,0,B|384:185|384:185|394:228|394:228|385:290,1,160,4|8,0:1|0:1,0:0:0:0:
303,331,65448,1,0,0:0:0:0:
238,260,65670,2,0,P|199:248|161:257,1,80,8|0,0:0|0:0,0:0:0:0:
46,331,66115,1,8,0:1:0:0:
16,240,66337,1,0,0:0:0:0:
118,174,66559,22,0,P|128:133|114:96,1,80,8|0,0:0|0:0,0:0:0:0:
19,52,67004,2,0,L|13:145,1,80,8|0,0:1|0:0,0:0:0:0:
5,227,67448,1,8,0:0:0:0:
42,315,67670,1,0,0:0:0:0:
42,315,67781,1,0,0:0:0:0:
42,315,67893,2,0,L|127:306,1,80,8|0,0:1|0:0,0:0:0:0:
163,284,68226,1,0,0:0:0:0:
163,284,68337,6,0,L|255:289,1,80,8|0,0:0|0:0,0:0:0:0:
321,343,68781,2,0,P|338:290|323:251,1,80,8|0,0:1|0:0,0:0:0:0:
432,328,69226,1,8,0:0:0:0:
432,328,69448,2,0,L|517:319,2,80,0|8|0,0:0|0:1|0:0,0:0:0:0:
331,264,70115,22,0,B|323:225|323:225|335:175,1,80,8|0,0:0|0:0,0:0:0:0:
470,179,70559,2,0,B|478:218|478:218|466:268,1,80,10|0,0:1|0:0,0:0:0:0:
362,344,71004,2,0,L|258:352,1,80,8|0,0:0|0:0,0:0:0:0:
240,363,71337,1,8,0:3:0:0:
240,363,71448,2,0,P|225:325|231:287,1,80,10|0,0:1|0:0,0:0:0:0:
313,222,71893,5,4,0:1:0:0:
135,235,72337,2,0,L|126:142,1,80,8|2,0:1|0:0,0:0:0:0:
127,155,72670,1,2,0:0:0:0:
127,155,72781,1,8,0:0:0:0:
187,80,73004,1,0,0:0:0:0:
255,146,73226,2,0,L|262:225,1,80,8|2,0:1|0:0,0:0:0:0:
262,225,73670,22,0,P|318:228|355:247,1,80,8|0,0:0|0:0,0:0:0:0:
421,289,74115,2,0,P|443:226|436:202,1,80,8|2,0:1|0:0,0:0:0:0:
441,215,74448,1,2,0:0:0:0:
441,215,74559,1,8,0:0:0:0:
424,124,74781,1,0,0:0:0:0:
359,195,75004,2,0,P|339:229|339:268,1,80,8|2,0:1|0:0,0:0:0:0:
339,268,75448,6,0,L|243:280,1,80,8|0,0:0|0:0,0:0:0:0:
163,284,75893,2,0,L|155:192,1,80,8|2,0:1|0:0,0:0:0:0:
156,204,76226,1,2,0:0:0:0:
156,204,76337,1,8,0:0:0:0:
250,185,76559,1,0,0:0:0:0:
284,96,76781,2,0,P|285:40|262:9,1,80,8|2,0:1|0:0,0:0:0:0:
274,20,77226,22,0,L|188:28,1,80,8|0,0:0|0:0,0:0:0:0:
139,106,77670,2,0,B|129:151|129:151|137:183,1,80,8|2,0:1|0:0,0:0:0:0:
137,183,78004,1,2,0:0:0:0:
137,183,78115,1,8,0:0:0:0:
211,244,78337,1,0,0:0:0:0:
247,155,78559,2,0,L|337:148,2,80,8|2|8,0:1|0:0|0:0,0:0:0:0:
54,60,79448,6,0,L|67:138,1,80,10|2,0:1|0:2,0:1:0:0:
186,109,79893,2,0,L|199:187,1,80,2|2,0:1|0:2,0:1:0:0:
318,158,80337,2,0,L|333:248,1,80,10|2,0:1|0:2,0:1:0:0:
261,285,80781,22,0,L|424:274,1,160,0|0,3:0|0:0,0:0:0:0:
481,199,81448,1,8,0:3:0:0:
481,199,81559,1,0,1:0:0:0:
478,103,81781,1,0,1:0:0:0:
478,103,81893,1,8,0:3:0:0:
391,75,82115,1,8,0:3:0:0:
391,75,82226,2,0,P|369:118|405:148,1,80,4|0,0:3|0:0,0:0:0:0:
410,152,82559,6,0,B|422:196|422:196|407:234,1,80,12|0,0:0|0:0,0:0:0:0:
388,246,82893,2,0,P|348:228|302:243,1,80
291,251,83226,1,0,0:0:0:0:
209,302,83448,2,0,L|156:311,3,40,8|0|0|0,0:0|0:0|0:0|0:0,0:0:0:0:
150,288,83892,2,0,L|97:297,3,40,8|0|0|0,0:1|0:0|0:0|0:0,0:0:0:0:
85,308,84337,22,0,L|97:214,1,80,8|0,0:0|0:0,0:0:0:0:
109,204,84670,2,0,B|154:184|154:184|192:188,1,80
209,200,85004,1,0,0:0:0:0:
221,103,85226,2,0,P|199:69|156:47,1,80,8|0,0:0|0:0,0:0:0:0:
95,103,85670,2,0,P|102:154|145:126,1,120,8|0,0:1|0:0,0:0:0:0:
160,150,86115,6,0,L|265:154,1,80,8|0,0:0|0:0,0:0:0:0:
257,174,86448,2,0,L|362:178,1,80,0|0,0:0|0:0,0:0:0:0:
354,198,86781,2,0,L|459:202,1,80,0|8,0:0|0:0,0:0:0:0:
477,286,87226,2,0,B|491:328|477:345|477:345|444:336|444:336|406:358|368:351|332:307,1,200,0|0,3:0|0:0,0:0:0:0:
325,281,87893,6,0,B|336:239|336:239|321:197,1,80,4|0,0:3|0:0,0:0:0:0:
287,179,88226,2,0,B|276:137|276:137|291:95,1,80,4|0,0:3|0:0,0:0:0:0:
309,63,88559,1,4,0:3:0:0:
