osu file format v14

[General]
AudioFilename: sta.mp3
AudioLeadIn: 750
PreviewTime: 57670
Countdown: 0
SampleSet: Soft
StackLeniency: 0.3
Mode: 0
LetterboxInBreaks: 0
WidescreenStoryboard: 0

[Editor]
Bookmarks: 15004
DistanceSpacing: 0.9
BeatDivisor: 4
GridSize: 8
TimelineZoom: 1.2

[Metadata]
Title:Renegade
TitleUnicode:Renegade
Artist:STEREO DIVE FOUNDATION
ArtistUnicode:STEREO DIVE FOUNDATION
Creator:Kihhou
Version:Easy
Source:GANGSTA.
Tags:ギャングスタ opening op theme tv size R・O・N
BeatmapID:736704
BeatmapSetID:332101

[Difficulty]
HPDrainRate:3
CircleSize:3
OverallDifficulty:3
ApproachRate:3
SliderMultiplier:1.1
SliderTickRate:1

[Events]
//Background and Video events
0,0,"editedbyTHEringating.png",0,0
Video,0,"opto.flv"
//Break Periods
//Storyboard Layer 0 (Background)
//Storyboard Layer 1 (Fail)
//Storyboard Layer 2 (Pass)
//Storyboard Layer 3 (Foreground)
//Storyboard Sound Samples

[TimingPoints]
782,444.444444444444,4,2,1,60,1,0
2559,-100,4,2,11,60,0,0
2670,-100,4,2,1,60,0,0
6115,-100,4,2,1,40,0,0
7893,-100,4,2,1,65,0,0
12337,-100,4,2,1,70,0,0
14115,-100,4,2,1,50,0,0
15004,-100,4,2,1,65,0,0
16337,-100,4,2,2,65,0,0
16448,-100,4,2,1,65,0,0
18115,-100,4,2,2,65,0,0
18226,-100,4,2,1,65,0,0
21670,-100,4,2,2,65,0,0
22115,-100,4,2,1,65,0,0
23448,-100,4,2,2,65,0,0
23559,-100,4,2,1,65,0,0
25226,-100,4,2,2,65,0,0
25337,-100,4,2,1,65,0,0
27004,-100,4,2,2,65,0,0
27448,-100,4,2,1,70,0,0
28781,-100,4,2,1,50,0,0
29226,-100,4,2,3,40,0,0
30115,-100,4,2,4,40,0,0
30559,-100,4,2,3,40,0,0
33670,-100,4,2,4,40,0,0
34115,-100,4,2,3,40,0,0
36337,-100,4,2,66,50,0,0
36781,-100,4,2,3,40,0,0
37226,-100,4,2,4,40,0,0
37670,-100,4,2,3,40,0,0
40781,-100,4,2,4,40,0,0
41226,-100,4,2,3,40,0,0
41670,-100,4,2,1,40,0,0
43448,-100,4,2,1,45,0,0
50559,-100,4,2,1,50,0,0
52337,-100,4,2,1,55,0,0
53226,-100,4,2,33,55,0,0
53337,-100,4,2,1,55,0,0
57670,-100,4,2,77,70,0,1
57726,-100,4,2,1,70,0,1
80781,-100,4,2,1,55,0,0
87893,-100,4,2,1,70,0,0

[Colours]
Combo1 : 255,60,60
Combo2 : 15,240,66
Combo3 : 50,210,239

[HitObjects]
189,317,782,5,4,0:3:0:0:
260,248,1226,2,0,L|381:237,2,110,0|8|0,3:0|0:0|0:0,0:0:0:0:
164,221,2559,2,0,P|146:187|187:131,1,110,2|0,0:0|0:0,0:0:0:0:
281,134,3448,2,0,B|336:143|336:143|399:90|399:90|479:120,1,220,4|4,0:3|0:3,0:0:0:0:
428,311,5226,6,0,B|364:296|364:296|306:315,1,110,0|0,0:0|3:0,0:0:0:0:
239,367,6115,2,0,B|198:362|198:362|168:343|168:343|123:338,1,110,0|2,3:0|0:0,0:0:0:0:
59,275,7004,1,2,0:0:0:0:
60,175,7448,1,8,0:3:0:0:
120,97,7893,22,0,P|175:87|226:113,1,110,4|8,0:1|0:2,0:0:0:0:
162,188,8781,2,0,P|140:237|162:296,1,110,8|8,0:0|0:0,0:0:0:0:
251,268,9670,2,0,P|310:264|354:301,1,110,8|8,0:0|0:0,0:0:0:0:
433,348,10559,2,0,P|449:300|433:236,1,110,8|8,0:0|0:0,0:0:0:0:
379,162,11448,6,0,B|324:173|324:173|256:152,1,110,8|8,0:0|0:0,0:0:0:0:
180,121,12337,2,0,L|191:241,2,110,8|8|8,0:0|0:0|0:0,0:0:0:0:
301,280,14115,2,0,L|294:347,2,55,8|8|8,0:3|0:0|0:1,0:0:0:0:
355,197,15004,22,0,B|370:152|370:152|345:83,1,110,12|8,0:2|0:1,0:0:0:0:
255,126,15893,2,0,P|191:137|149:108,1,110,8|10,0:0|0:0,0:0:0:0:
64,70,16781,2,0,L|53:187,1,110,8|8,0:0|0:1,0:0:0:0:
79,275,17670,2,0,P|138:307|195:285,1,110,8|10,0:0|0:0,0:0:0:0:
254,235,18559,6,0,L|374:221,1,110,8|8,0:0|0:1,0:0:0:0:
453,180,19448,2,0,L|508:185,2,55,8|0|8,0:0|0:0|0:1,0:0:0:0:
445,279,20337,2,0,B|452:339|388:363|344:316|344:316|301:322|284:362,1,220,10|8,0:0|0:0,0:0:0:0:
213,288,21670,1,10,0:0:0:0:
121,324,22115,22,0,L|6:306,2,110,8|8|8,0:0|0:1|0:0,0:0:0:0:
213,288,23448,1,10,0:0:0:0:
305,324,23893,2,0,P|370:326|421:289,2,110,8|8|8,0:0|0:1|0:0,0:0:0:0:
288,224,25226,1,10,0:0:0:0:
351,148,25670,6,0,B|357:92|357:92|323:43,1,110,8|8,0:0|0:1,0:0:0:0:
257,117,26559,2,0,L|130:123,1,110,8|10,0:0|0:0,0:0:0:0:
52,151,27448,2,0,B|18:176|34:228|34:228|75:246|72:291,2,165,8|8|0,0:0|0:0|1:0,0:0:0:0:
143,111,29226,22,0,B|254:132|254:132|366:78,1,220,4|10,0:1|0:0,0:0:0:0:
448,101,30559,1,8,0:0:0:0:
377,171,31004,2,0,B|322:197|322:197|307:252|332:288|332:288|397:258,1,220,2|2,0:0|0:0,0:0:0:0:
466,198,32337,1,8,0:0:0:0:
448,101,32781,6,0,B|376:74|376:74|293:112|293:112|225:101,1,220,2|10,0:0|0:0,0:0:0:0:
147,73,34115,1,8,0:0:0:0:
61,121,34559,2,0,P|31:203|120:162,2,220,2|2|2,0:0|0:0|0:0,0:0:0:0:
148,74,36781,22,0,L|272:68,1,110,10|10,0:0|0:0,0:0:0:0:
349,106,37670,1,8,0:0:0:0:
337,204,38115,2,0,B|270:278|270:278|237:204|237:204|244:163,1,220,2|2,0:0|0:0,0:0:0:0:
257,68,39448,1,8,0:0:0:0:
157,67,39893,6,0,B|169:121|169:121|153:214|153:214|187:291,1,220,2|10,0:0|0:0,0:0:0:0:
276,307,41226,1,8,0:0:0:0:
355,246,41670,2,0,B|376:226|376:194|376:194|350:148|350:148|352:120|375:100,2,165,8|8|8,0:0|0:0|0:1,0:0:0:0:
276,307,43448,22,0,P|186:286|86:356,1,220,6|8,0:1|0:1,0:0:0:0:
65,157,45226,2,0,P|155:178|255:108,1,220,0|8,0:0|0:1,0:0:0:0:
446,58,47004,6,0,B|416:169|416:169|473:257,1,220,8|8,0:0|0:1,0:0:0:0:
304,360,48781,2,0,B|334:249|334:249|277:161,1,220,0|8,0:0|0:1,0:0:0:0:
104,64,50559,22,0,L|335:75,1,220,8|8,0:0|0:1,0:0:0:0:
440,240,52337,2,0,L|220:229,1,220,0|12,0:0|0:0,0:0:0:0:
75,93,54115,6,0,B|136:66|189:130|155:208|71:191|71:191|16:217|5:299|48:352|110:350,1,440,8|0,0:0|3:0,0:0:0:0:
299,308,56781,1,0,3:0:0:0:
491,265,57670,22,0,P|506:212|487:161,1,110,12|8,0:0|0:1,0:0:0:0:
390,180,58559,2,0,L|271:190,1,110,8|8,0:0|0:1,0:0:0:0:
203,252,59448,2,0,P|150:262|103:235,1,110,8|8,0:0|0:1,0:0:0:0:
68,142,60337,2,0,L|62:79,2,55,8|0|8,0:0|0:0|0:1,0:0:0:0:
166,151,61226,5,8,0:0:0:0:
212,63,61670,1,8,0:1:0:0:
298,115,62115,2,0,L|309:236,1,110,8|8,0:0|0:1,0:0:0:0:
312,323,63004,2,0,P|392:277|382:160,1,220,8|8,0:0|0:0,0:0:0:0:
284,165,64337,1,10,0:1:0:0:
217,92,64781,22,0,B|171:91|171:91|134:80|134:80|105:91,1,110,4|8,0:1|0:1,0:0:0:0:
157,176,65670,2,0,P|184:231|160:290,1,110,8|8,0:0|0:1,0:0:0:0:
109,352,66559,2,0,L|234:366,1,110,8|8,0:0|0:1,0:0:0:0:
270,280,67448,2,0,B|324:256|324:256|372:283,2,110,8|8|8,0:0|0:1|0:0,0:0:0:0:
171,292,68781,5,8,0:1:0:0:
88,235,69226,2,0,P|75:177|114:119,1,110,8|8,0:0|0:1,0:0:0:0:
182,85,70115,2,0,P|259:163|369:130,1,220,8|8,0:0|0:0,0:0:0:0:
397,50,71448,2,0,L|337:38,2,55,10|0|4,0:1|0:0|0:1,0:0:0:0:
473,113,72337,22,0,B|497:164|497:164|485:228,1,110,8|8,0:1|0:0,0:0:0:0:
440,304,73226,2,0,P|373:312|335:349,1,110,8|8,0:1|0:0,0:0:0:0:
258,284,74115,2,0,L|134:275,1,110,8|8,0:1|0:0,0:0:0:0:
59,319,75004,2,0,P|60:354|68:375,2,55,8|2|8,0:1|0:0|0:0,0:0:0:0:
23,226,75893,6,0,L|37:107,1,110,8|8,0:1|0:0,0:0:0:0:
134,126,76781,2,0,B|199:100|199:100|253:112,1,110,8|8,0:1|0:0,0:0:0:0:
322,57,77670,2,0,P|371:95|375:150,1,110,8|8,0:1|0:0,0:0:0:0:
476,145,78559,2,0,B|482:215|482:215|454:266,1,110,8|8,0:1|0:0,0:0:0:0:
398,325,79448,22,0,L|283:337,1,110,10|8,0:1|0:0,0:0:0:0:
194,306,80337,2,0,L|84:317,1,110,10|0,0:1|3:0,0:0:0:0:
0,264,81226,1,0,0:0:0:0:
39,173,81670,2,0,L|50:108,2,55,0|8|8,0:0|0:3|0:3,0:0:0:0:
91,257,82559,6,0,B|120:268|154:256|154:256|168:232|212:222|212:222|251:243|296:226,1,220,12|8,0:0|0:0,0:0:0:0:
258,134,83893,1,8,0:1:0:0:
356,144,84337,22,0,B|361:108|337:74|337:74|385:66|385:66|417:25|476:35,1,220,8|8,0:0|0:0,0:0:0:0:
457,132,85670,1,8,0:1:0:0:
418,225,86115,6,0,B|371:260|320:240|320:240|252:253|252:253|203:229,1,220,8|8,0:0|0:0,0:0:0:0:
263,149,87448,1,8,0:1:0:0:
171,113,87893,6,0,P|158:76|168:34,2,82.5,4|4|4,0:3|0:3|0:3,0:0:0:0:
