osu file format v14

[General]
AudioFilename: Daisy.mp3
AudioLeadIn: 0
PreviewTime: 37357
Countdown: 0
SampleSet: Normal
StackLeniency: 0.7
Mode: 3
LetterboxInBreaks: 0
SpecialStyle: 0
WidescreenStoryboard: 0

[Editor]
DistanceSpacing: 1
BeatDivisor: 12
GridSize: 32
TimelineZoom: 1

[Metadata]
Title:Daisy (TV size)
TitleUnicode:Daisy (TV size)
Artist:STEREO DIVE FOUNDATION
ArtistUnicode:STEREO DIVE FOUNDATION
Creator:Meiko Senpai
Version:4K HD
Source:境界の彼方
Tags:ending [M_o_m_o] kyoukai no kanata
BeatmapID:392972
BeatmapSetID:160914

[Difficulty]
HPDrainRate:8
CircleSize:4
OverallDifficulty:8
ApproachRate:5
SliderMultiplier:1.4
SliderTickRate:1

[Events]
//Background and Video events
0,0,"maxresdefault.jpg",0,0
Video,0,"ed.avi"
//Break Periods
//Storyboard Layer 0 (Background)
//Storyboard Layer 1 (Fail)
//Storyboard Layer 2 (Pass)
//Storyboard Layer 3 (Foreground)
//Storyboard Sound Samples

[TimingPoints]
629.606507852425,706.297822248381,4,1,3,30,1,0
37357,-100,4,1,3,30,0,1
62783,-100,4,1,3,30,0,0
65609,-100,4,1,3,30,0,1
74790,-100,4,1,3,30,0,0

[HitObjects]
448,192,629,128,0,1335:0:0:0:0:
64,192,629,1,0,0:0:0:0:
64,192,1335,128,8,1689:0:0:0:0:
320,192,1335,1,4,0:0:0:0:
448,192,1689,1,0,0:0:0:0:
192,192,1689,128,0,2395:0:0:0:0:
320,192,1924,1,0,0:0:0:0:
64,192,2042,1,0,0:0:0:0:
320,192,2277,1,0,0:0:0:0:
64,192,2395,1,2,0:0:0:0:
448,192,2395,1,0,0:0:0:0:
64,192,2748,1,0,0:0:0:0:
192,192,2748,1,8,0:0:0:0:
320,192,3101,128,0,3278:0:0:0:0:
192,192,3278,128,0,3454:0:0:0:0:
448,192,3454,1,2,0:0:0:0:
64,192,3454,128,0,4514:0:0:0:0:
448,192,4161,1,4,0:0:0:0:
192,192,4161,1,8,0:0:0:0:
320,192,4337,1,0,0:0:0:0:
448,192,4514,128,0,5573:0:0:0:0:
192,192,4749,1,0,0:0:0:0:
320,192,4867,1,0,0:0:0:0:
64,192,5102,1,0,0:0:0:0:
192,192,5220,1,0,0:0:0:0:
320,192,5220,1,2,0:0:0:0:
320,192,5573,1,0,0:0:0:0:
192,192,5573,1,8,0:0:0:0:
64,192,5750,128,0,6279:0:0:0:0:
192,192,5926,128,0,6279:0:0:0:0:
320,192,6103,128,0,6279:0:0:0:0:
448,192,6279,128,2,6986:0:0:0:0:
64,192,6986,1,8,0:0:0:0:
192,192,6986,128,0,7339:0:0:0:0:
320,192,6986,1,4,0:0:0:0:
320,192,7339,128,0,8045:0:0:0:0:
448,192,7574,1,0,0:0:0:0:
64,192,7692,1,0,0:0:0:0:
448,192,7928,1,0,0:0:0:0:
64,192,8045,1,0,0:0:0:0:
192,192,8045,1,2,0:0:0:0:
64,192,8398,1,8,0:0:0:0:
320,192,8398,1,0,0:0:0:0:
192,192,8752,128,0,8928:0:0:0:0:
320,192,8928,128,0,9105:0:0:0:0:
64,192,9105,1,0,0:0:0:0:
448,192,9105,128,2,9811:0:0:0:0:
64,192,9811,1,8,0:0:0:0:
192,192,9811,1,4,0:0:0:0:
320,192,9988,1,0,0:0:0:0:
64,192,10164,128,0,11224:0:0:0:0:
448,192,10164,1,0,0:0:0:0:
192,192,10400,1,0,0:0:0:0:
320,192,10517,1,0,0:0:0:0:
448,192,10753,1,0,0:0:0:0:
192,192,10870,1,0,0:0:0:0:
320,192,10870,1,2,0:0:0:0:
192,192,11224,1,8,0:0:0:0:
320,192,11224,1,0,0:0:0:0:
448,192,11400,128,0,11930:0:0:0:0:
320,192,11577,128,0,11930:0:0:0:0:
192,192,11753,128,0,11930:0:0:0:0:
64,192,11930,128,2,12636:0:0:0:0:
448,192,12636,128,0,12989:0:0:0:0:
320,192,12636,1,8,0:0:0:0:
192,192,12636,1,4,0:0:0:0:
64,192,12989,128,0,13696:0:0:0:0:
192,192,12989,1,0,0:0:0:0:
320,192,13225,1,0,0:0:0:0:
192,192,13342,1,0,0:0:0:0:
448,192,13578,1,0,0:0:0:0:
192,192,13696,1,2,0:0:0:0:
320,192,13696,1,0,0:0:0:0:
448,192,13872,1,0,0:0:0:0:
64,192,14049,1,8,0:0:0:0:
192,192,14049,1,0,0:0:0:0:
448,192,14402,128,0,14578:0:0:0:0:
320,192,14578,128,0,14755:0:0:0:0:
64,192,14755,1,0,0:0:0:0:
192,192,14755,128,2,15461:0:0:0:0:
64,192,15461,1,4,0:0:0:0:
320,192,15461,1,8,0:0:0:0:
448,192,15697,1,0,0:0:0:0:
64,192,15815,1,0,0:0:0:0:
320,192,15815,128,0,16874:0:0:0:0:
448,192,16050,1,0,0:0:0:0:
192,192,16168,1,0,0:0:0:0:
64,192,16403,1,0,0:0:0:0:
448,192,16521,1,2,0:0:0:0:
192,192,16521,1,0,0:0:0:0:
448,192,16874,1,8,0:0:0:0:
192,192,16874,1,0,0:0:0:0:
64,192,17051,128,0,17580:0:0:0:0:
320,192,17227,128,0,17580:0:0:0:0:
192,192,17404,128,0,17580:0:0:0:0:
448,192,17580,128,2,18287:0:0:0:0:
64,192,18287,128,0,18993:0:0:0:0:
192,192,18287,1,4,0:0:0:0:
320,192,18287,1,8,0:0:0:0:
192,192,18640,1,0,0:0:0:0:
320,192,18816,1,0,0:0:0:0:
448,192,18993,1,0,0:0:0:0:
320,192,19228,1,0,0:0:0:0:
64,192,19346,1,2,0:0:0:0:
192,192,19346,1,0,0:0:0:0:
448,192,19699,1,8,0:0:0:0:
320,192,19699,128,0,20405:0:0:0:0:
64,192,19699,1,0,0:0:0:0:
192,192,19876,1,0,0:0:0:0:
448,192,20052,1,0,0:0:0:0:
192,192,20229,1,0,0:0:0:0:
448,192,20405,1,2,0:0:0:0:
64,192,20405,1,0,0:0:0:0:
448,192,20759,1,0,0:0:0:0:
64,192,20759,128,0,21465:0:0:0:0:
320,192,20935,1,0,0:0:0:0:
448,192,21112,1,4,0:0:0:0:
192,192,21112,1,8,0:0:0:0:
448,192,21465,1,0,0:0:0:0:
192,192,21465,128,0,22171:0:0:0:0:
64,192,21700,1,0,0:0:0:0:
320,192,21818,1,0,0:0:0:0:
448,192,22053,1,0,0:0:0:0:
64,192,22171,1,2,0:0:0:0:
320,192,22171,128,0,23231:0:0:0:0:
64,192,22524,1,8,0:0:0:0:
448,192,22524,1,0,0:0:0:0:
192,192,22701,1,0,0:0:0:0:
448,192,22877,128,0,23054:0:0:0:0:
192,192,23054,128,0,23231:0:0:0:0:
448,192,23231,1,0,0:0:0:0:
64,192,23231,128,0,24290:0:0:0:0:
320,192,23584,1,0,0:0:0:0:
192,192,23937,1,8,0:0:0:0:
448,192,23937,1,0,0:0:0:0:
320,192,24290,128,0,24643:0:0:0:0:
64,192,24526,1,0,0:0:0:0:
192,192,24643,1,0,0:0:0:0:
448,192,24643,128,0,26056:0:0:0:0:
64,192,24996,1,0,0:0:0:0:
192,192,24996,1,2,0:0:0:0:
320,192,25350,1,0,0:0:0:0:
64,192,25350,1,8,0:0:0:0:
192,192,25703,1,0,0:0:0:0:
64,192,25938,1,0,0:0:0:0:
192,192,26056,1,0,0:0:0:0:
320,192,26056,128,2,27115:0:0:0:0:
64,192,26409,1,0,0:0:0:0:
64,192,26762,1,8,0:0:0:0:
192,192,26762,1,0,0:0:0:0:
192,192,27115,128,0,27468:0:0:0:0:
448,192,27351,1,0,0:0:0:0:
64,192,27468,128,0,28881:0:0:0:0:
320,192,27468,1,0,0:0:0:0:
448,192,27822,1,0,0:0:0:0:
320,192,27822,1,2,0:0:0:0:
448,192,28175,1,0,0:0:0:0:
192,192,28175,1,8,0:0:0:0:
320,192,28528,1,0,0:0:0:0:
192,192,28763,1,0,0:0:0:0:
448,192,28881,128,0,29940:0:0:0:0:
320,192,28881,1,2,0:0:0:0:
192,192,29234,1,0,0:0:0:0:
64,192,29587,1,8,0:0:0:0:
192,192,29587,1,0,0:0:0:0:
64,192,29940,128,0,30294:0:0:0:0:
320,192,30176,1,0,0:0:0:0:
192,192,30294,128,0,31706:0:0:0:0:
448,192,30647,1,0,0:0:0:0:
64,192,30647,1,2,0:0:0:0:
64,192,31000,1,8,0:0:0:0:
320,192,31000,1,0,0:0:0:0:
320,192,31353,1,0,0:0:0:0:
64,192,31588,1,0,0:0:0:0:
320,192,31706,128,2,32766:0:0:0:0:
448,192,31706,1,0,0:0:0:0:
192,192,32059,1,0,0:0:0:0:
448,192,32413,1,0,0:0:0:0:
64,192,32413,1,8,0:0:0:0:
448,192,32766,128,0,33119:0:0:0:0:
320,192,33001,1,0,0:0:0:0:
64,192,33119,128,0,34531:0:0:0:0:
192,192,33119,1,0,0:0:0:0:
448,192,33354,1,0,0:0:0:0:
192,192,33472,1,2,0:0:0:0:
320,192,33472,1,0,0:0:0:0:
448,192,33825,1,0,0:0:0:0:
192,192,33825,1,8,0:0:0:0:
448,192,34061,1,0,0:0:0:0:
192,192,34178,1,0,0:0:0:0:
448,192,34531,1,4,0:0:0:0:
192,192,34531,1,0,0:0:0:0:
192,192,34885,1,0,0:0:0:0:
448,192,35120,1,0,0:0:0:0:
320,192,35120,1,0,0:0:0:0:
64,192,35238,1,0,0:0:0:0:
192,192,35238,1,0,0:0:0:0:
448,192,35591,1,0,0:0:0:0:
64,192,35826,1,0,0:0:0:0:
192,192,35826,1,0,0:0:0:0:
448,192,35944,1,0,0:0:0:0:
320,192,35944,1,0,0:0:0:0:
192,192,36297,1,0,0:0:0:0:
320,192,36297,1,2,0:0:0:0:
64,192,36650,128,0,37357:0:0:0:0:
320,192,36650,128,8,37357:0:0:0:0:
192,192,37003,128,0,37357:0:0:0:0:
448,192,37357,128,0,38416:0:0:0:0:
64,192,37710,1,2,0:0:0:0:
192,192,37710,1,0,0:0:0:0:
320,192,38063,1,4,0:0:0:0:
192,192,38063,1,8,0:0:0:0:
192,192,38416,1,0,0:0:0:0:
64,192,38416,128,0,39475:0:0:0:0:
448,192,38651,1,0,0:0:0:0:
320,192,38769,1,0,0:0:0:0:
192,192,39122,1,0,0:0:0:0:
320,192,39122,1,2,0:0:0:0:
448,192,39475,1,8,0:0:0:0:
320,192,39475,128,0,40182:0:0:0:0:
64,192,39829,1,0,0:0:0:0:
448,192,40182,1,0,0:0:0:0:
64,192,40182,1,2,0:0:0:0:
192,192,40182,128,0,41241:0:0:0:0:
448,192,40535,1,2,0:0:0:0:
320,192,40535,1,0,0:0:0:0:
64,192,40888,1,8,0:0:0:0:
448,192,40888,1,4,0:0:0:0:
320,192,41241,1,0,0:0:0:0:
448,192,41241,128,0,42301:0:0:0:0:
192,192,41477,1,0,0:0:0:0:
64,192,41594,1,0,0:0:0:0:
64,192,41948,1,2,0:0:0:0:
192,192,41948,1,0,0:0:0:0:
64,192,42301,1,8,0:0:0:0:
320,192,42301,128,0,43007:0:0:0:0:
448,192,42654,1,0,0:0:0:0:
64,192,43007,1,0,0:0:0:0:
448,192,43007,128,0,44066:0:0:0:0:
192,192,43007,1,2,0:0:0:0:
192,192,43360,1,2,0:0:0:0:
320,192,43360,1,0,0:0:0:0:
64,192,43713,1,8,0:0:0:0:
320,192,43713,1,4,0:0:0:0:
192,192,44066,1,0,0:0:0:0:
64,192,44066,128,0,45126:0:0:0:0:
320,192,44302,1,0,0:0:0:0:
320,192,44420,1,0,0:0:0:0:
448,192,44773,1,0,0:0:0:0:
192,192,44773,1,2,0:0:0:0:
192,192,45126,1,0,0:0:0:0:
320,192,45126,128,8,45832:0:0:0:0:
448,192,45479,128,0,45832:0:0:0:0:
64,192,45832,1,0,0:0:0:0:
192,192,45832,128,2,46892:0:0:0:0:
448,192,46185,1,2,0:0:0:0:
320,192,46185,1,0,0:0:0:0:
64,192,46538,1,8,0:0:0:0:
448,192,46538,1,4,0:0:0:0:
320,192,46715,1,0,0:0:0:0:
448,192,46892,128,0,47245:0:0:0:0:
64,192,46892,1,0,0:0:0:0:
320,192,47127,1,0,0:0:0:0:
192,192,47245,1,0,0:0:0:0:
64,192,47245,128,0,47598:0:0:0:0:
192,192,47480,1,0,0:0:0:0:
320,192,47598,128,0,47951:0:0:0:0:
448,192,47598,1,0,0:0:0:0:
64,192,47951,1,8,0:0:0:0:
192,192,47951,128,0,48657:0:0:0:0:
448,192,48186,1,0,0:0:0:0:
320,192,48304,128,0,48657:0:0:0:0:
64,192,48657,128,0,49717:0:0:0:0:
448,192,48657,1,2,0:0:0:0:
320,192,49011,1,2,0:0:0:0:
192,192,49011,1,0,0:0:0:0:
448,192,49364,1,4,0:0:0:0:
192,192,49364,1,8,0:0:0:0:
320,192,49717,1,0,0:0:0:0:
448,192,49717,128,0,50776:0:0:0:0:
192,192,49952,1,0,0:0:0:0:
64,192,50070,1,0,0:0:0:0:
320,192,50423,1,2,0:0:0:0:
192,192,50423,1,0,0:0:0:0:
64,192,50776,1,0,0:0:0:0:
192,192,50776,128,8,51483:0:0:0:0:
448,192,51129,128,0,51483:0:0:0:0:
320,192,51483,128,2,52542:0:0:0:0:
64,192,51483,1,0,0:0:0:0:
192,192,51836,1,2,0:0:0:0:
448,192,51836,1,0,0:0:0:0:
448,192,52189,1,8,0:0:0:0:
64,192,52189,1,4,0:0:0:0:
192,192,52542,1,0,0:0:0:0:
64,192,52542,128,0,53601:0:0:0:0:
448,192,52895,1,0,0:0:0:0:
320,192,53248,1,2,0:0:0:0:
192,192,53248,1,0,0:0:0:0:
448,192,53601,128,0,54308:0:0:0:0:
192,192,53601,1,8,0:0:0:0:
64,192,53837,1,0,0:0:0:0:
320,192,53955,128,0,54308:0:0:0:0:
64,192,54308,1,2,0:0:0:0:
192,192,54308,128,0,55367:0:0:0:0:
320,192,54661,1,0,0:0:0:0:
448,192,54661,1,2,0:0:0:0:
64,192,55014,1,8,0:0:0:0:
448,192,55014,1,4,0:0:0:0:
64,192,55367,1,0,0:0:0:0:
320,192,55367,128,0,56427:0:0:0:0:
448,192,55603,1,0,0:0:0:0:
192,192,55720,1,0,0:0:0:0:
192,192,55956,1,0,0:0:0:0:
448,192,56073,1,0,0:0:0:0:
64,192,56073,1,2,0:0:0:0:
64,192,56309,1,0,0:0:0:0:
448,192,56427,1,8,0:0:0:0:
64,192,56662,1,0,0:0:0:0:
192,192,56780,128,0,57133:0:0:0:0:
448,192,57133,128,0,58192:0:0:0:0:
320,192,57133,1,2,0:0:0:0:
320,192,57486,1,2,0:0:0:0:
64,192,57486,1,0,0:0:0:0:
64,192,57839,1,4,0:0:0:0:
192,192,57839,1,8,0:0:0:0:
64,192,58192,1,0,0:0:0:0:
192,192,58192,128,0,59252:0:0:0:0:
320,192,58428,1,0,0:0:0:0:
448,192,58546,1,0,0:0:0:0:
64,192,58781,1,0,0:0:0:0:
448,192,58899,1,2,0:0:0:0:
320,192,58899,1,0,0:0:0:0:
64,192,59252,1,8,0:0:0:0:
320,192,59252,128,0,59958:0:0:0:0:
448,192,59487,1,0,0:0:0:0:
192,192,59605,128,0,59958:0:0:0:0:
448,192,59958,1,0,0:0:0:0:
64,192,59958,128,4,61018:0:0:0:0:
320,192,60311,1,0,0:0:0:0:
448,192,60664,1,0,0:0:0:0:
192,192,60664,1,8,0:0:0:0:
320,192,61018,1,0,0:0:0:0:
448,192,61018,128,0,62077:0:0:0:0:
192,192,61371,1,0,0:0:0:0:
64,192,61724,1,2,0:0:0:0:
320,192,61724,1,0,0:0:0:0:
64,192,62077,1,8,0:0:0:0:
192,192,62077,128,0,62783:0:0:0:0:
64,192,62312,1,0,0:0:0:0:
448,192,62312,1,0,0:0:0:0:
320,192,62430,1,2,0:0:0:0:
448,192,62783,128,0,64902:0:0:0:0:
64,192,62783,128,4,64549:0:0:0:0:
320,192,62783,128,0,64549:0:0:0:0:
64,192,65609,1,0,0:0:0:0:
192,192,65609,1,0,0:0:0:0:
448,192,65609,128,0,66315:0:0:0:0:
320,192,66315,128,0,66668:0:0:0:0:
64,192,66315,1,8,0:0:0:0:
64,192,66668,128,0,67374:0:0:0:0:
448,192,66668,1,0,0:0:0:0:
192,192,66903,1,0,0:0:0:0:
320,192,67021,1,0,0:0:0:0:
192,192,67257,1,0,0:0:0:0:
448,192,67374,1,0,0:0:0:0:
320,192,67374,1,2,0:0:0:0:
320,192,67727,1,0,0:0:0:0:
192,192,67727,1,8,0:0:0:0:
192,192,68081,128,0,68257:0:0:0:0:
320,192,68257,128,0,68434:0:0:0:0:
64,192,68434,1,0,0:0:0:0:
448,192,68434,128,2,71259:0:0:0:0:
320,192,68787,1,0,0:0:0:0:
192,192,68963,1,0,0:0:0:0:
64,192,69140,1,8,0:0:0:0:
320,192,69140,1,4,0:0:0:0:
320,192,69493,1,0,0:0:0:0:
192,192,69493,1,0,0:0:0:0:
64,192,69729,1,0,0:0:0:0:
192,192,69846,1,0,0:0:0:0:
320,192,70082,1,0,0:0:0:0:
64,192,70199,1,2,0:0:0:0:
192,192,70199,1,0,0:0:0:0:
320,192,70553,1,0,0:0:0:0:
64,192,70553,1,8,0:0:0:0:
192,192,70906,1,0,0:0:0:0:
64,192,71259,128,2,71965:0:0:0:0:
320,192,71259,1,0,0:0:0:0:
192,192,71612,1,0,0:0:0:0:
448,192,71965,1,4,0:0:0:0:
320,192,71965,128,8,72318:0:0:0:0:
64,192,72318,1,0,0:0:0:0:
192,192,72318,128,0,73731:0:0:0:0:
320,192,72554,1,0,0:0:0:0:
64,192,72671,1,0,0:0:0:0:
448,192,72907,1,0,0:0:0:0:
320,192,73025,1,0,0:0:0:0:
64,192,73025,1,2,0:0:0:0:
448,192,73378,1,0,0:0:0:0:
64,192,73378,1,8,0:0:0:0:
448,192,73731,128,0,73908:0:0:0:0:
320,192,73908,128,0,74084:0:0:0:0:
64,192,74084,128,2,77969:0:0:0:0:
320,192,74437,1,0,0:0:0:0:
448,192,74673,1,2,0:0:0:0:
320,192,74790,1,0,0:0:0:0:
192,192,74790,1,8,0:0:0:0:
192,192,75144,128,0,77969:0:0:0:0:
448,192,75144,128,0,76909:0:0:0:0:
320,192,75144,128,0,76909:0:0:0:0:
