osu file format v11

[General]
AudioFilename: Gaben Delayed the Precious Thing.mp3
AudioLeadIn: 1522
PreviewTime: 6498
Countdown: 0
SampleSet: Normal
StackLeniency: 0.4
Mode: 1
LetterboxInBreaks: 0

[Editor]
DistanceSpacing: 0
BeatDivisor: 2
GridSize: 8

[Metadata]
Title:Gaben Delayed the Precious Thing
TitleUnicode:Gaben Delayed the Precious Thing
Artist:STBlackST
ArtistUnicode:STBlackST
Creator:[BlinK]
Version:Episode Kantan
Source:Touhou
Tags:valve doomsday portallife jesus1412 vinyldash14
BeatmapID:208486
BeatmapSetID:69120

[Difficulty]
HPDrainRate:3
CircleSize:4
OverallDifficulty:5
ApproachRate:5
SliderMultiplier:1.4
SliderTickRate:1

[Events]
//Background and Video events
0,0,"GAYBEN.jpg"
//Break Periods
//Storyboard Layer 0 (Background)
//Storyboard Layer 1 (Fail)
//Storyboard Layer 2 (Pass)
//Storyboard Layer 3 (Foreground)
//Storyboard Sound Samples
//Background Colour Transformations
3,100,163,162,255

[TimingPoints]
146,352.941176470588,4,1,0,70,1,0
28381,-100,4,1,0,60,0,0
28910,-100,4,1,0,50,0,0
29440,-100,4,1,0,40,0,0
29969,-100,4,1,0,30,0,0
30498,-100,4,1,0,70,0,0
31204,-100,4,1,0,80,0,1
34028,-100,4,1,0,70,0,0
45322,-100,4,1,0,70,0,1
56616,-100,4,1,0,70,0,0

[Colours]
Combo1 : 0,0,255
Combo2 : 255,0,0

[HitObjects]
256,192,146,1,0,0:0:0
256,192,1557,5,8,0:0:0
256,192,2969,5,0,0:0:0
256,192,4381,5,8,0:0:0
256,192,5793,5,0,0:0:0
256,192,6498,1,0,0:0:0
256,192,7204,5,8,0:0:0
256,192,7910,5,0,0:0:0
256,192,8616,1,0,0:0:0
256,192,9322,1,0,0:0:0
256,192,10028,5,8,0:0:0
256,192,11440,5,4,0:0:0
256,192,12145,1,0,0:0:0
256,192,12851,1,0,0:0:0
256,192,13557,5,8,0:0:0
256,192,13910,1,8,0:0:0
256,192,14263,5,0,0:0:0
256,192,14969,1,0,0:0:0
256,192,15675,1,0,0:0:0
256,192,16381,5,8,0:0:0
256,192,16734,1,8,0:0:0
256,192,17087,5,0,0:0:0
256,192,17793,1,0,0:0:0
256,192,18498,1,0,0:0:0
256,192,19204,5,8,0:0:0
256,192,19557,1,8,0:0:0
256,192,19910,5,0,0:0:0
256,192,20616,1,0,0:0:0
256,192,21322,5,8,0:0:0
256,192,21675,1,8,0:0:0
256,192,22028,5,0,0:0:0
256,192,22734,1,0,0:0:0
256,192,23440,1,0,0:0:0
256,192,24145,1,0,0:0:0
256,192,24851,1,0,0:0:0
256,192,25204,5,8,0:0:0
256,192,25557,1,8,0:0:0
256,192,26263,5,0,0:0:0
256,192,26969,1,0,0:0:0
256,192,27675,1,0,0:0:0
256,192,28028,5,8,0:0:0
256,192,28381,1,8,0:0:0
256,192,29087,5,0,0:0:0
256,192,29793,1,0,0:0:0
256,192,30498,5,8,0:0:0
256,192,30851,1,8,0:0:0
256,192,31204,1,0,0:0:0
256,192,31910,5,0,0:0:0
256,192,32616,1,0,0:0:0
256,192,32969,5,8,0:0:0
256,192,33322,1,8,0:0:0
256,192,33675,5,0,0:0:0
256,192,34028,5,12,0:0:0
256,192,38969,5,0,0:0:0
256,192,39675,5,8,0:0:0
256,192,40381,5,0,0:0:0
256,192,41087,5,8,0:0:0
256,192,41793,5,0,0:0:0
256,192,42498,5,8,0:0:0
256,192,43204,5,0,0:0:0
256,192,43910,5,8,0:0:0
256,192,44616,5,0,0:0:0
256,192,45322,1,4,0:0:0
256,192,45675,1,0,0:0:0
256,192,46028,1,0,0:0:0
256,192,46381,1,0,0:0:0
256,192,46734,5,8,0:0:0
256,192,47087,5,0,0:0:0
256,192,47440,1,0,0:0:0
256,192,47793,1,0,0:0:0
256,192,48145,5,8,0:0:0
256,192,48498,5,0,0:0:0
256,192,48851,1,0,0:0:0
256,192,49204,1,0,0:0:0
256,192,49557,5,8,0:0:0
256,192,49910,5,0,0:0:0
256,192,50263,1,0,0:0:0
256,192,50616,1,0,0:0:0
256,192,50969,5,8,0:0:0
256,192,51322,5,0,0:0:0
256,192,51675,1,0,0:0:0
256,192,52028,1,0,0:0:0
256,192,52381,5,8,0:0:0
256,192,52734,5,0,0:0:0
256,192,53087,1,0,0:0:0
256,192,53440,1,0,0:0:0
256,192,53793,5,8,0:0:0
256,192,54145,5,0,0:0:0
256,192,54498,1,0,0:0:0
256,192,54851,1,0,0:0:0
256,192,55204,5,8,0:0:0
256,192,55557,5,0,0:0:0
256,192,55910,1,0,0:0:0
256,192,56263,1,0,0:0:0
256,192,56616,5,12,0:0:0
