osu file format v11

[General]
AudioFilename: Gaben Delayed the Precious Thing.mp3
AudioLeadIn: 1522
PreviewTime: 6498
Countdown: 0
SampleSet: Normal
StackLeniency: 0.4
Mode: 0
LetterboxInBreaks: 0

[Editor]
DistanceSpacing: 0.7
BeatDivisor: 4
GridSize: 16

[Metadata]
Title:Gaben Delayed the Precious Thing
TitleUnicode:Gaben Delayed the Precious Thing
Artist:STBlackST
ArtistUnicode:STBlackST
Creator:[BlinK]
Version:Episode 1412
Source:Touhou
Tags:valve doomsday portallife jesus1412 vinyldash14
BeatmapID:209329
BeatmapSetID:69120

[Difficulty]
HPDrainRate:8
CircleSize:4
OverallDifficulty:9
ApproachRate:10
SliderMultiplier:2
SliderTickRate:1

[Events]
//Background and Video events
0,0,"GAYBEN.jpg"
//Break Periods
2,34051,38519
//Storyboard Layer 0 (Background)
//Storyboard Layer 1 (Fail)
//Storyboard Layer 2 (Pass)
//Storyboard Layer 3 (Foreground)
//Storyboard Sound Samples
//Background Colour Transformations
3,100,163,162,255

[TimingPoints]
146,352.941176470588,4,1,0,70,1,0
146,-50,4,1,0,70,0,0
11440,-50,4,1,0,25,0,0
22734,-100,4,1,0,55,0,0
28381,-50,4,1,0,60,0,0
28910,-50,4,1,0,50,0,0
29440,-50,4,1,0,40,0,0
29969,-50,4,1,0,30,0,0
30498,-50,4,1,0,70,0,0
31204,-50,4,1,0,80,0,1
34028,-50,4,1,0,70,0,0
45322,-50,4,1,0,70,0,1
56616,-50,4,1,0,70,0,0

[Colours]
Combo1 : 255,255,0
Combo2 : 255,0,255
Combo3 : 255,128,0
Combo4 : 255,0,0

[HitObjects]
256,48,146,1,0,0:0:0
32,224,322,2,0,P|112:160,1,100
480,224,675,1,0,0:0:0
304,48,851,1,0,0:0:0
152,280,1204,1,0,0:0:0
448,272,1557,5,0,0:0:0
400,96,1734,2,0,P|336:184,1,100
96,64,2087,1,0,0:0:0
16,256,2263,1,0,0:0:0
224,32,2440,1,0,0:0:0
144,224,2616,1,0,0:0:0
256,336,2969,5,0,0:0:0
208,144,3145,2,0,P|144:224,1,100
384,32,3498,1,0,0:0:0
384,32,3675,1,0,0:0:0
128,352,4028,1,0,0:0:0
128,40,4381,5,0,0:0:0
32,192,4557,2,0,P|128:232,1,100
424,264,4910,1,0,0:0:0
496,64,5087,1,0,0:0:0
288,32,5263,1,0,0:0:0
216,232,5440,1,0,0:0:0
336,192,6498,5,0,0:0:0
112,32,6675,1,0,0:0:0
48,192,6851,1,0,0:0:0
112,352,7028,1,0,0:0:0
256,32,7910,5,0,0:0:0
480,192,8087,1,0,0:0:0
256,352,8263,1,0,0:0:0
48,192,8440,1,0,0:0:0
200,248,9322,6,0,P|352:104,1,200
400,152,9587,2,0,P|328:304|96:336,1,400
40,328,10028,5,0,0:0:0
472,56,10293,2,0,P|448:160,1,100
40,328,10645,2,0,P|64:224,1,100
472,56,10998,2,0,P|448:160,1,100
128,64,11440,6,0,P|224:160,1,100
384,320,11616,2,0,P|288:224,1,100
209,17,11793,2,0,P|244:148,1,100
302,366,11969,2,0,P|267:235,1,100
302,17,12145,2,0,P|267:148,1,100
209,366,12321,2,0,P|244:235,1,100
384,64,12498,6,0,P|287:160,1,100
127,320,12674,2,0,P|224:223,1,100
432,144,12851,2,0,P|301:179,1,100
81,238,13027,2,0,P|212:203,1,100
81,145,13204,2,0,P|212:180,1,100
430,145,13381,2,0,P|299:180,1,100
430,238,13558,6,0,P|299:203,1,100
128,63,13734,2,0,P|224:160,1,100
384,320,13910,2,0,P|288:223,1,100
209,17,14087,2,0,P|244:148,1,100
302,366,14263,6,0,P|267:235,1,100
384,64,14440,2,0,P|287:160,1,100
128,320,14616,2,0,P|224:224,1,100
430,238,14793,2,0,P|299:203,1,100
81,145,14969,2,0,P|212:180,1,100
302,366,15145,2,0,P|267:235,1,100
209,17,15321,6,0,P|244:148,1,100
128,320,15498,2,0,P|224:224,1,100
384,63,15674,2,0,P|287:160,1,100
81,145,15851,2,0,P|212:180,1,100
430,238,16027,2,0,P|299:203,1,100
209,17,16204,2,0,P|244:148,1,100
302,366,16380,6,0,P|267:235,1,100
384,63,16557,2,0,P|288:159,1,100
128,318,16733,2,0,P|224:223,1,100
431,238,16910,2,0,P|300:203,1,100
128,64,17086,6,0,P|258:99,1,100
480,160,17263,2,0,P|383:134,1,100
82,144,17439,2,0,P|213:180,1,100
432,240,17616,2,0,P|335:214,1,100
32,224,17793,2,0,P|162:259,1,100
384,320,17969,2,0,P|287:294,1,100
48,336,18145,6,0,P|160:336,1,100
464,48,18322,2,0,P|352:48,1,100
48,256,18498,2,0,P|160:256,1,100
464,128,18675,2,0,P|352:128,1,100
48,176,18851,2,0,P|160:176,1,100
464,208,19028,2,0,P|352:208,1,100
48,96,19204,6,0,P|160:96,1,100
464,288,19381,2,0,P|352:288,1,100
48,16,19557,2,0,P|160:16,1,100
464,368,19734,2,0,P|352:368,1,100
192,128,19910,6,0,P|96:32,1,100
320,128,20087,2,0,P|416:32,1,100
320,256,20263,2,0,P|416:352,1,100
192,256,20440,2,0,P|96:352,1,100
232,104,20616,2,0,P|197:-26,1,100
343,168,20793,2,0,P|474:133,1,100
279,279,20969,2,0,P|314:410,1,100
168,215,21146,6,0,P|37:250,1,100
279,104,21322,2,0,P|314:-26,1,100
343,215,21499,2,0,P|474:250,1,100
232,279,21675,2,0,P|197:410,1,100
168,168,21852,2,0,P|37:133,1,100
320,128,22028,2,0,P|416:31,1,100
319,255,22205,2,0,P|416:352,1,100
192,255,22381,2,0,P|95:352,1,100
192,128,22558,2,0,P|96:31,1,100
320,64,22734,5,0,0:0:0
384,64,22822,1,0,0:0:0
432,112,22910,1,0,0:0:0
432,176,22998,5,0,0:0:0
384,224,23087,1,0,0:0:0
336,272,23175,1,0,0:0:0
304,336,23263,5,0,0:0:0
240,368,23351,1,0,0:0:0
176,336,23440,1,0,0:0:0
144,272,23528,5,0,0:0:0
128,208,23616,1,0,0:0:0
160,144,23704,1,0,0:0:0
192,80,23793,5,0,0:0:0
160,16,23881,1,0,0:0:0
96,16,23969,1,0,0:0:0
64,80,24057,5,0,0:0:0
64,144,24145,1,0,0:0:0
96,208,24234,1,0,0:0:0
160,224,24322,5,0,0:0:0
224,192,24410,1,0,0:0:0
288,176,24498,1,0,0:0:0
352,192,24587,5,0,0:0:0
384,256,24675,1,0,0:0:0
368,320,24763,1,0,0:0:0
304,352,24851,5,0,0:0:0
240,336,24940,1,0,0:0:0
208,272,25028,1,0,0:0:0
224,208,25116,5,0,0:0:0
256,144,25204,1,0,0:0:0
304,96,25293,1,0,0:0:0
368,64,25381,5,0,0:0:0
432,64,25469,1,0,0:0:0
480,112,25557,2,0,P|448:160,3,50
464,192,25910,6,0,P|432:240,3,50
432,272,26263,2,0,P|400:320,3,50
368,320,26616,2,0,P|336:368,3,50
304,352,26969,6,0,P|256:384,3,50
240,352,27322,2,0,P|176:336,3,50
192,304,27675,2,0,P|144:256,3,50
192,240,28028,2,0,P|160:176,3,50
256,48,28381,6,0,P|304:32|352:64,1,100
384,256,28557,2,0,P|374:305|322:331,1,100
128,256,28734,2,0,P|90:222|94:164,1,100
256,80,28910,2,0,P|304:64|352:96,1,100
352,240,29086,2,0,P|342:289|290:315,1,100
160,240,29263,2,0,P|122:206|126:148,1,100
256,112,29440,6,0,P|304:96|352:128,1,100
320,224,29616,2,0,P|310:273|258:299,1,100
192,224,29793,2,0,P|154:190|158:132,1,100
256,144,29969,2,0,P|304:128|352:160,1,100
288,208,30145,2,0,P|278:257|226:283,1,100
224,208,30322,2,0,P|186:174|190:116,1,100
256,176,30498,6,0,P|304:160|352:192,1,100
256,192,30674,2,0,P|246:241|194:267,1,100
256,192,30851,2,0,P|218:158|222:100,1,100
256,192,31028,2,0,P|304:176|352:208,1,100
448,320,31204,6,0,P|336:320,1,100
64,320,31381,6,0,P|176:320,1,100
448,64,31557,6,0,P|336:64,1,100
64,64,31734,6,0,P|176:64,1,100
193,257,31910,6,0,P|256:336,1,100
190,129,32087,6,0,P|112:192,1,100
318,126,32263,6,0,P|256:48,1,100
321,254,32440,6,0,P|400:191,1,100
256,48,32617,6,0,P|318:126,1,100
112,192,32793,6,0,P|190:129,1,100
256,336,32970,6,0,P|193:257,1,100
400,191,33145,6,0,P|321:254,1,100
256,48,33322,6,0,P|318:126,1,100
112,192,33498,6,0,P|190:129,1,100
256,336,33675,1,0,0:0:0
256,48,33851,1,0,0:0:0
48,128,38969,5,0,0:0:0
464,128,39498,1,0,0:0:0
80,192,40734,6,0,P|192:192,1,100
400,192,40999,1,0,0:0:0
128,192,42145,6,0,P|240:192,1,100
368,192,42410,1,0,0:0:0
160,192,43557,6,0,P|272:192,1,100
336,192,43822,1,0,0:0:0
112,32,45322,2,0,P|192:128,1,100
448,352,45498,2,0,P|336:288,1,100
480,80,45675,6,0,P|384:128,1,100
32,288,45851,2,0,P|144:224,1,100
512,256,46028,2,0,P|400:208,1,100
160,352,46204,2,0,P|240:256,1,100
272,0,46381,6,0,P|304:96,1,100
0,160,46557,2,0,P|112:160,1,100
496,256,46734,2,0,P|384:192,1,100
192,16,46910,2,0,P|224:128,1,100
192,368,47087,6,0,P|224:272,1,100
480,64,47263,2,0,P|384:144,1,100
384,368,47440,2,0,P|320:288,1,100
32,224,47616,2,0,P|160:224,1,100
320,0,47793,6,0,P|272:96,1,100
224,368,47969,2,0,P|224:256,1,100
448,64,48145,2,0,P|368:128,1,100
64,48,48321,2,0,P|176:96,1,100
496,320,48498,6,0,P|400:288,1,100
96,336,48675,2,0,P|176:272,1,100
416,16,48851,2,0,P|368:112,1,100
368,368,49028,2,0,P|304:256,1,100
112,32,49204,6,0,P|160:128,1,100
496,160,49381,2,0,P|384:192,1,100
144,352,49557,2,0,P|176:256,1,100
256,16,49734,2,0,P|272:128,1,100
448,336,49910,6,0,P|352:256,1,100
32,160,50087,2,0,P|144:224,1,100
496,80,50263,2,0,P|416:176,1,100
176,352,50440,2,0,P|224:256,1,100
288,16,50616,6,0,P|304:128,1,100
496,256,50793,2,0,P|400:192,1,100
16,352,50969,2,0,P|112:272,1,100
192,0,51145,2,0,P|192:112,1,100
416,368,51322,6,0,P|352:288,1,100
480,64,51498,2,0,P|384:128,1,100
48,256,51675,2,0,P|160:240,1,100
384,16,51851,2,0,P|352:112,1,100
320,368,52028,2,0,P|288:256,1,100
112,0,52204,6,0,P|176:96,1,100
64,352,52381,2,0,P|144:272,1,100
448,368,52557,2,0,P|336:272,1,100
464,48,52734,2,0,P|368:128,1,100
240,368,52910,6,0,P|288:256,1,100
32,144,53087,2,0,P|144:160,1,100
432,16,53263,2,0,P|368:112,1,100
384,368,53440,2,0,P|352:272,1,100
48,352,53616,6,0,P|128:272,1,100
480,336,53793,2,0,P|384:288,1,100
448,32,53969,2,0,P|368:112,1,100
96,48,54145,2,0,P|176:128,1,100
416,368,54322,6,0,P|336:272,1,100
64,336,54498,2,0,P|144:272,1,100
144,0,54675,2,0,P|208:128,1,100
480,80,54851,2,0,P|368:176,1,100
192,352,55028,6,0,P|224:240,1,100
304,0,55204,2,0,P|272:112,1,100
336,368,55381,2,0,P|352:256,1,100
400,48,55557,2,0,P|336:144,1,100
48,352,55734,6,0,P|128:288,1,100
320,272,55910,2,0,P|400:336|400:336|416:240|416:240|512:288|512:288|512:176,1,400
