osu file format v5

[General]
AudioFilename: ss501-Making a lover.mp3
AudioLeadIn: 0
PreviewTime: -1
Countdown: 1
SampleSet: Normal
StackLeniency: 0.7
Mode: 0
LetterboxInBreaks: 1
EditorBookmarks: 99662,107221
EditorDistanceSpacing: 0.800000011920929

[Metadata]
Title:Making a Lover
Artist:SS501
Creator:minyeob
Version:Normal
Source:
Tags:

[Difficulty]
HPDrainRate:5
CircleSize:5
OverallDifficulty:5
SliderMultiplier:1.8
SliderTickRate:2

[Events]
//Background and Video events
0,0,"1236694284_600.jpg"
//Break Periods
2,99390,106171
2,143326,149485
//Storyboard Layer 0 (Background)
//Storyboard Layer 1 (Failing)
//Storyboard Layer 2 (Passing)
//Storyboard Layer 3 (Foreground)
//Storyboard Sound Samples
//Background Colour Transformations
3,100,163,162,255

[TimingPoints]
20294,472.44094488189,4,1,0,100,1,0
22183,-100,4,1,0,100,0,1
40136,-100,4,1,0,100,0,0
55254,-100,4,1,0,59,0,0
56199,-100,4,1,0,100,0,0
71317,1889.76377952756,4,1,0,80,1,0
72735,-50,4,1,0,80,0,0
72970,-100,4,1,0,81,0,0
75096,472.44094488189,4,1,0,100,1,0
80765,-100,4,1,0,100,0,1
98954,-100,4,1,0,100,0,0
114781,1889.76377952756,4,1,0,81,1,0
115725,-100,4,1,0,81,0,0
116670,-100,4,1,0,82,0,0
118560,472.44094488189,4,1,0,100,1,0
124229,-100,4,1,0,100,0,1
142890,-100,4,1,0,100,0,0
158245,-100,4,1,0,61,0,0
160134,-100,4,2,0,100,0,0
163678,-100,4,1,0,13,0,0
164150,-100,4,1,0,40,0,0
164741,-100,4,1,0,68,0,0
165567,-100,4,1,0,87,0,0
166512,-100,4,1,0,100,0,0
166748,-100,4,1,0,100,0,0
167221,-100,4,1,0,100,0,1
167930,-100,4,1,0,0,0,1
168166,-100,4,1,0,100,0,1

[Colours]
Combo1 : 255,255,255
Combo2 : 255,255,128
Combo3 : 0,128,64
Combo4 : 0,0,160

[HitObjects]
46,97,20530,1,0
94,152,20766,1,0
234,184,21238,1,0
371,141,21711,1,0
414,198,21947,1,0
466,261,22183,6,0,B|307:367,2,180
418,206,23364,2,0,B|322:270,2,90
369,152,24073,1,0
225,170,24546,1,0
159,200,24782,1,0
127,296,25727,5,0
127,296,25963,2,0,B|184:311|157:190|301:224,2,180
81,241,27144,1,0
24,195,27380,2,0,B|8:90|154:55,1,180
256,99,28325,1,0
324,119,28561,2,0,B|320:29|245:4|149:28|203:136,1,270
345,311,29742,6,0,B|291:359|199:355|146:289,2,180
254,201,31160,1,0
174,80,31632,2,0,B|266:42|364:88,2,180
237,96,33522,5,0
309,96,33758,1,0
309,168,33994,1,0
237,168,34231,2,0,B|41:167,1,180
58,95,34939,1,0
129,96,35175,1,0
272,96,35648,5,6
334,131,35884,1,6
273,169,36120,1,6
337,201,36356,1,6
59,209,37065,5,0
126,182,37301,1,0
194,157,37538,2,0,B|233:132|300:136,1,90
350,127,38010,1,0
276,276,38482,1,0
214,313,38719,1,0
151,349,38955,2,0,B|97:326|32:196|68:85|298:45,1,450
416,96,41081,5,0
288,96,41553,1,8
288,224,42026,1,0
416,224,42498,2,0,B|416:352,1,90,8|0
326,314,43207,2,0,B|428:314,1,90,0|8
64,96,44152,6,0,B|64:192,1,90,0|8
64,256,44624,1,0
192,256,45097,1,0
256,256,45333,2,0,B|352:256,1,90,8|0
480,256,46042,1,0
480,192,46278,2,0,B|384:192,1,90,8|0
392,132,46750,6,4,B|352:88|253:76|139:71|44:129,2,360
352,192,48876,1,0
305,246,49112,1,0
257,300,49349,2,0,B|120:308|34:153,1,270
69,98,50294,2,0,B|137:91|170:128,3,90
217,151,51238,1,0
354,192,51711,5,2
354,192,51947,1,2
349,48,52419,6,0,B|220:48,1,90,4|0
186,48,52892,1,0
188,119,53128,1,0
189,190,53364,2,0,B|65:190,3,90
198,354,54782,1,0
198,354,55018,1,0
264,318,55254,1,0
323,276,55490,1,0
366,219,55727,1,0
392,153,55963,1,0
411,85,56199,1,4
192,96,56671,5,8
128,96,56908,1,0
128,160,57144,2,0,B|128:256,1,90
192,288,57616,2,0,B|192:160,1,90,8|0
192,352,58325,1,0
256,352,58561,1,8
320,224,59270,5,8
384,224,59506,1,0
448,224,59742,2,4,B|448:128,1,90
384,96,60215,2,0,B|384:192,1,90,0|8
320,160,60687,2,0,B|192:160,2,90
320,88,61396,1,8
248,88,61632,1,0
176,88,61868,2,4,B|175:164|175:195|177:302,3,180
363,347,63758,6,0,B|498:354|459:219,2,180
267,239,65175,1,0
242,171,65412,1,0
215,104,65648,2,0,B|102:91|91:208,2,180
348,112,67065,1,2
448,224,67538,5,0
405,282,67774,1,0
343,319,68010,2,0,B|289:323|253:278,2,90
263,288,68719,1,0
217,232,68955,1,0
195,163,69191,1,0
333,144,69664,5,4
346,214,69900,1,4
287,255,70136,1,4
214,237,70372,2,0,B|136:190|198:69,1,180
252,121,71081,1,0
272,185,71317,6,0,B|396:186,1,90
404,267,72734,1,0
384,256,72970,2,0,B|335:277|349:338|192:256|256:320|224:320,1,135,0|2
192,224,75096,6,0,B|192:128,1,90
192,64,75568,1,0
256,64,75804,1,0
351,149,76277,1,0
352,216,76513,1,0
288,216,76749,1,0
224,216,76985,1,4
64,208,77458,2,4,B|64:304,1,90
224,304,78166,2,4,B|224:192,1,90
59,211,79111,5,0
116,256,79347,1,0
178,294,79584,1,0
246,318,79820,1,0
379,261,80292,1,0
435,216,80529,1,0
483,162,80765,6,0,B|485:67|341:48,2,180
485,235,81946,2,0,B|485:331,2,90
480,160,82655,2,0,B|256:160,1,180
304,96,83363,1,0
184,92,83836,1,10
184,92,84072,1,10
131,175,84308,6,0,B|96:206,2,45
186,229,84781,1,0
240,278,85017,1,0
292,328,85253,2,0,B|435:197,1,180
477,156,85962,1,0
430,102,86198,2,0,B|306:101,1,90
200,155,86907,1,2
149,105,87143,1,0
51,210,87614,1,10
50,210,87851,1,10
160,352,88324,6,0,B|352:352,1,180
448,288,89269,2,0,B|448:96,1,180
384,64,89977,5,0
320,32,90214,6,0,B|128:32,1,180
32,64,91158,1,0
155,196,91631,5,2
313,288,92103,6,0,B|313:192,1,90
313,128,92576,1,0
313,64,92812,2,0,B|121:64,1,180
64,64,93521,1,0
64,128,93757,1,0
64,256,94229,5,4
128,256,94466,1,4
192,256,94702,1,4
192,256,94938,2,4,B|288:256,2,90
192,192,95647,6,0,B|192:128,2,45,0|0|8
256,192,96120,1,0
256,256,96355,2,0,B|384:256,1,90,8|0
346,111,97064,1,0
346,39,97300,2,0,B|442:39,1,90,8|0
436,183,98009,1,10
439,326,98481,1,10
294,324,98954,1,10
222,324,99190,1,12
416,64,107221,5,0
288,64,107694,1,0
160,64,108166,1,0
160,192,108639,2,0,B|160:288,1,90
160,352,109111,2,0,B|352:352,2,180
128,96,111001,5,2
256,96,111473,1,2
384,96,111946,2,0,B|426:126|406:199,1,90,0|2
352,160,112418,2,0,B|336:219|416:256,1,90,2|2
281,293,113127,5,6
281,293,113363,1,6
168,234,113836,5,0
114,187,114072,1,0
169,140,114308,1,0
225,187,114544,1,0
276,141,114781,6,0,B|421:140,2,135,0|0|2
64,96,118560,5,0
64,224,119032,1,2
192,224,119504,1,0
192,96,119977,1,2
192,224,120449,5,4
312,224,120922,1,4
384,224,121158,1,4
384,352,121630,1,4
384,288,121867,1,4
234,289,122575,6,0,B|233:192,1,90
233,127,123048,1,0
162,126,123284,2,0,B|162:311,2,180
324,126,124701,1,0
322,271,125174,1,0
251,271,125410,1,0
180,270,125646,1,0
25,271,126119,2,0,B|25:79,1,180
25,91,126827,1,0
365,107,127772,5,0
366,174,128008,2,0,B|365:299,1,90
365,337,128481,1,0
294,337,128717,2,0,B|294:133,1,180
292,84,129426,1,0
220,84,129662,1,0
16,84,130371,1,0
16,156,130607,1,0
43,272,131079,5,2
43,272,131316,1,2
160,256,131788,6,0,B|128:160|192:64|320:64,1,270
352,96,132733,2,0,B|384:192|320:288|192:288,1,270
160,256,133678,2,0,B|128:160|192:64|320:64,1,270
355,44,134622,1,0
397,185,135567,5,0
398,114,135803,1,0
327,114,136039,2,0,B|231:114,1,90
165,112,136512,2,0,B|165:16,2,90
94,113,137220,1,0
94,185,137457,1,0
94,256,137693,1,6
165,256,137929,1,6
236,256,138165,1,6
238,183,138402,6,0,B|362:182,2,90,2|0|2
238,110,139111,1,0
236,38,139347,1,0
379,38,139819,1,0
451,39,140056,2,0,B|408:114|354:115|302:14,1,180
244,39,140764,1,0
172,39,141000,1,0
79,149,141473,5,2
198,228,141944,1,2
325,296,142418,1,6
381,250,142654,1,6
260,171,143126,5,6
64,256,150685,5,4
64,192,150922,1,4
64,128,151158,2,4,B|256:128,1,180
256,192,151867,5,4
320,192,152103,1,4
320,256,152339,1,4
320,96,152811,5,4
256,96,153048,2,4,B|64:96,1,180
64,160,153756,1,4
64,224,153993,1,4
64,288,154229,1,4
192,320,154701,1,4
256,320,154937,2,4,B|448:320,1,180
448,256,155646,5,0
448,192,155882,1,0
448,128,156119,1,0
192,96,156591,5,2
192,96,156827,1,2
64,160,157300,1,2
64,160,157536,1,2
131,288,158008,1,2
192,256,158245,6,2,B|152:224|96:168|112:64|23:-102|296:16|371:219,1,540,2|2
64,320,160134,5,2
192,320,160607,1,2
320,320,161079,1,2
384,320,161315,1,2
384,256,161552,2,2,B|384:129,1,90
384,96,162024,1,2
201,95,162497,1,2
130,95,162733,1,2
130,167,162969,1,2
202,168,163205,2,6,B|336:168,1,90
341,263,163914,5,2
219,339,164386,1,0
125,231,164859,1,0
246,153,165331,1,0
162,35,165804,5,0
39,110,166276,1,0
122,226,166748,1,0
180,183,166985,1,0
238,141,167221,1,4
416,192,167693,6,0,B|416:0,2,180
352,192,168874,1,0
352,256,169111,2,0,B|224:256,1,90
192,256,169583,6,0,B|192:160,1,90
192,96,170056,2,0,B|64:96,1,90
96,160,170528,1,0
96,288,171000,1,2
256,288,171473,6,2,B|160:288,1,90
96,288,171945,1,2
96,224,172182,1,0
32,96,172654,5,0
96,96,172890,1,0
160,96,173126,1,2
352,96,173599,1,6
416,96,173835,1,4
416,160,174071,1,2
480,160,174308,5,0
480,224,174544,1,0
416,224,174780,1,2
416,288,175016,6,0,B|480:288,2,45
256,288,175725,1,0
192,288,175961,2,0,B|0:288,1,180
32,224,176670,2,0,B|32:96,1,90
32,64,177142,1,0
90,106,177378,1,4
150,145,177615,1,4
208,186,177851,1,4
263,232,178087,2,0,B|311:261|376:220,2,90
264,159,178796,6,0,B|314:130,2,45
206,202,179268,1,0
147,160,179504,1,0
91,206,179741,2,0,B|218:364,1,180
264,307,180449,1,0
322,265,180685,2,0,B|405:207,5,90,0|0|4|4|4|4
256,192,182811,12,4,185410
