osu file format v11

[General]
AudioFilename: sr-71_-_let_it_whip_new_guy_soundtrack_(zaycev.net).mp3
AudioLeadIn: 0
PreviewTime: 50838
Countdown: 1
SampleSet: Normal
StackLeniency: 0.7
Mode: 0
LetterboxInBreaks: 0

[Editor]
DistanceSpacing: 1.1
BeatDivisor: 4
GridSize: 4

[Metadata]
Title:Let It Whip
TitleUnicode:Let It Whip
Artist:SR-71
ArtistUnicode:SR-71
Creator:tiper
Version:Hard
Source:The New Guy
Tags:
BeatmapID:167894
BeatmapSetID:55332

[Difficulty]
HPDrainRate:7
CircleSize:5
OverallDifficulty:7
ApproachRate:8
SliderMultiplier:1.8
SliderTickRate:2

[Events]
//Background and Video events
0,0,"abstract_00383271.jpg"
//Break Periods
//Storyboard Layer 0 (Background)
//Storyboard Layer 1 (Fail)
//Storyboard Layer 2 (Pass)
//Storyboard Layer 3 (Foreground)
//Storyboard Sound Samples
//Background Colour Transformations
3,100,163,162,255

[TimingPoints]
22246,454.338936846888,4,1,0,50,1,0
50301,-100,4,2,0,30,0,0
50528,-100,4,1,0,50,0,0
51323,-100,4,1,0,60,0,1
63931,-100,4,2,0,60,0,1
65862,-100,4,1,0,50,0,0
78470,-100,4,2,0,30,0,0
78697,-100,4,1,0,50,0,0
93917,-100,4,2,0,30,0,0
94485,-100,4,1,0,50,0,0
94940,-100,4,1,0,50,0,1
106525,-100,4,1,0,40,0,1
107661,-100,4,1,0,30,0,1
108797,-100,4,1,0,20,0,1
109479,-100,4,2,0,15,0,0

[Colours]
Combo1 : 255,70,0
Combo2 : 206,200,213

[HitObjects]
208,96,22245,2,0,B|112:96,1,90,4|0,0:0|0:0,0:0:0
40,160,22700,2,0,B|144:160,1,90,8|0,0:0|0:0,0:0:0
204,228,23154,1,0,0:0:0
68,332,23381,1,0,0:0:0
240,324,23609,1,2,0:0:0
240,324,24063,5,0,0:0:0
304,248,24290,2,0,B|336:236|336:236|332:204|352:184,1,90,0|8,0:0|0:0,0:0:0
440,224,24744,2,0,B|408:236|408:236|412:268|392:288,2,90
252,124,25426,1,2,0:0:0
252,124,25880,6,0,B|188:188,1,90,0|0,0:0|0:0,0:0:0
188,88,26335,2,0,B|124:152,1,90,8|0,0:0|0:0,0:0:0
92,248,26789,1,0,0:0:0
92,248,27016,1,0,0:0:0
188,292,27243,1,2,0:0:0
384,312,27698,5,0,0:0:0
384,312,27811,1,0,0:0:0
384,312,27925,2,0,B|432:232,1,90,0|8,0:0|0:0,0:0:0
344,188,28379,2,0,B|297:265,2,90
164,168,29061,1,2,0:0:0
40,164,29515,6,0,B|36:216|88:232,1,90,0|0,0:0|0:0,0:0:0
164,168,29969,2,0,B|200:188|196:236|196:236|292:212,1,180,8|0,0:0|0:0,0:0:0
388,184,30651,2,0,B|351:163|355:115|355:115|259:139,1,180,0|0,0:0|0:0,0:0:0
188,72,31332,1,0,0:0:0
92,56,31559,2,0,B|2:56,1,90,0|8,0:0|0:0,0:0:0
4,128,32014,2,0,B|94:128,2,90
256,192,32695,5,2,0:0:0
256,192,32922,1,0,0:0:0
256,192,33150,1,0,0:0:0
256,192,33604,12,4,34967,0:0:0
256,192,35194,12,4,36330,0:0:0
128,88,36784,6,0,B|96:108|96:108|96:160|96:160,1,90,0|0,0:0|0:0,0:0:0
164,232,37239,2,0,B|196:212|196:212|196:160|196:160,1,90,8|0,0:0|0:0,0:0:0
196,88,37693,1,0,0:0:0
96,228,37920,1,0,0:0:0
96,228,38147,1,6,0:0:0
436,168,38602,5,0,0:0:0
436,168,38715,1,0,0:0:0
436,168,38829,2,0,B|408:128|356:136,1,90,0|8,0:0|0:0,0:0:0
264,104,39283,1,0,0:0:0
272,204,39510,1,0,0:0:0
272,204,39624,1,0,0:0:0
272,204,39738,2,0,B|300:244|352:236,1,90,0|2,0:0|0:0,0:0:0
172,320,40419,6,0,B|260:320,1,90,0|0,0:0|0:0,0:0:0
196,248,40873,2,0,B|108:248,1,90,8|0,0:0|0:0,0:0:0
40,172,41328,2,0,B|84:160|84:160|128:184|128:184|180:172|176:116,1,180,0|2,0:0|0:0,0:0:0
360,56,42236,6,0,B|404:32,2,45,4|0|0,0:0|0:0|0:0,0:0:0
360,56,42691,1,8,0:0:0
260,60,42918,1,0,0:0:0
340,168,43145,1,0,0:0:0
212,188,43372,1,0,0:0:0
271,137,43599,1,2,0:0:0
96,248,44054,6,0,B|148:264|144:316|144:316,1,90,0|0,0:0|0:0,0:0:0
236,276,44508,2,0,B|332:252|332:252|328:300|364:320,1,180,8|0,0:0|0:0,0:0:0
312,188,45190,2,0,B|216:212|216:212|220:164|184:144,1,180,0|0,0:0|0:0,0:0:0
112,212,45871,1,0,0:0:0
68,300,46098,2,0,B|160:300,1,90,0|8,0:0|0:0,0:0:0
236,364,46553,2,0,B|144:364,1,90,0|0,0:0|0:0,0:0:0
256,200,47234,5,2,0:0:0
256,200,47461,1,0,0:0:0
256,200,47688,1,0,0:0:0
256,192,48143,12,0,50415,0:0:0
140,104,50869,5,2,0:0:0
120,128,51096,1,0,0:0:0
100,152,51323,1,4,0:0:0
296,172,51778,6,0,B|384:172,1,90,8|0,0:0|0:0,0:0:0
456,240,52232,2,0,B|364:240,1,90,0|0,0:0|0:0,0:0:0
300,312,52686,1,2,0:0:0
208,352,52913,2,0,B|156:264|260:264|212:176,1,180,0|0,0:0|0:0,0:0:0
304,228,53595,2,0,P|292:180|276:140,1,90
368,184,54049,2,0,B|340:100,1,90,0|0,0:0|0:0,0:0:0
432,128,54504,5,2,0:0:0
424,104,54731,1,4,0:0:0
416,84,54958,1,0,0:0:0
220,112,55412,6,0,B|188:92|212:64|212:64|196:32,1,90,8|0,0:0|0:0,0:0:0
280,92,55867,2,0,B|312:112|288:140|288:140|304:172,1,90,0|0,0:0|0:0,0:0:0
276,264,56321,2,0,B|236:180,1,90,2|0,0:0|0:0,0:0:0
144,148,56775,1,0,0:0:0
144,148,56889,1,0,0:0:0
144,148,57002,1,0,0:0:0
116,244,57230,2,0,B|196:244|196:244|228:284|228:284|276:284,1,180,8|0,0:0|0:0,0:0:0
200,348,57911,6,0,B|304:348,1,90,0|2,0:0|0:0,0:0:0
376,300,58365,1,0,0:0:0
464,348,58593,1,4,0:0:0
376,300,58820,1,0,0:0:0
464,256,59047,5,8,0:0:0
168,188,59501,1,0,0:0:0
464,128,59956,5,2,0:0:0
464,128,60183,1,0,0:0:0
464,128,60410,2,0,B|468:88|468:88|440:88|428:64,1,90,0|0,0:0|0:0,0:0:0
299,56,60864,2,0,B|210:79,1,90,8|0,0:0|0:0,0:0:0
292,136,61319,2,0,B|203:160,1,90,0|0,0:0|0:0,0:0:0
284,216,61773,5,2,0:0:0
284,216,62000,1,0,0:0:0
284,216,62227,1,4,0:0:0
256,192,62682,12,4,64045,0:0:0
256,192,64499,12,4,65862,0:0:0
144,128,66316,6,0,B|68:80,2,90,8|0|0,0:0|0:0|0:0,0:0:0
312,236,67225,1,2,0:0:0
440,84,67679,2,0,B|484:116|464:164,1,90,0|0,0:0|0:0,0:0:0
388,228,68134,2,0,B|344:196|364:148,1,90,8|0,0:0|0:0,0:0:0
284,88,68588,2,0,B|256:52|256:52|232:88|232:88|204:44|160:32,1,180,0|2,0:0|0:0,0:0:0
136,132,69270,1,0,0:0:0
72,212,69497,6,0,B|176:212,1,90,0|0,0:0|0:0,0:0:0
236,276,69951,2,0,B|148:276,1,90,8|0,0:0|0:0,0:0:0
72,340,70405,2,0,B|164:340,1,90,0|0,0:0|0:0,0:0:0
260,364,70860,5,2,0:0:0
320,288,71087,1,0,0:0:0
260,364,71314,1,4,0:0:0
360,372,71541,1,0,0:0:0
320,288,71768,1,8,0:0:0
264,208,71996,2,0,B|204:116|168:168|228:152|168:64,1,180,0|0,0:0|0:0,0:0:0
260,104,72677,1,2,0:0:0
64,92,73131,5,0,0:0:0
144,148,73359,1,0,0:0:0
68,208,73586,1,8,0:0:0
100,304,73813,2,0,B|252:180,1,180,0|0,0:0|0:0,0:0:0
256,320,74722,2,0,B|408:196,2,180,0|0|0,0:0|0:0|0:0,0:0:0
228,340,75857,1,0,0:0:0
200,360,76085,1,0,0:0:0
324,356,76312,5,2,0:0:0
348,336,76539,1,0,0:0:0
376,316,76766,1,4,0:0:0
256,192,77221,12,4,78584,0:0:0
256,192,79038,12,4,80401,0:0:0
404,192,80855,5,8,0:0:0
404,192,81082,2,0,B|316:192,1,90,0|0,0:0|0:0,0:0:0
384,264,81537,2,0,B|292:264,1,90,0|2,0:0|0:0,0:0:0
160,116,82218,5,0,0:0:0
160,116,82332,1,0,0:0:0
160,116,82445,2,0,B|192:156|168:200,1,90,0|8,0:0|0:0,0:0:0
88,256,82900,2,0,B|56:216|80:172,1,90,0|0,0:0|0:0,0:0:0
80,172,83354,1,0,0:0:0
168,200,83581,1,2,0:0:0
348,284,84036,6,0,B|392:260|388:208,1,90,0|0,0:0|0:0,0:0:0
348,284,84490,2,0,B|374:241|344:198,1,90,8|0,0:0|0:0,0:0:0
348,284,84944,2,0,B|349:233|302:211,1,90,0|0,0:0|0:0,0:0:0
348,284,85399,2,0,B|324:240|272:244,1,90,2|0,0:0|0:0,0:0:0
180,212,85853,6,0,B|224:188|220:136,1,90,0|0,0:0|0:0,0:0:0
180,212,86307,2,0,B|206:169|176:126,1,90,8|0,0:0|0:0,0:0:0
180,212,86762,2,0,B|181:161|134:139,1,90,0|0,0:0|0:0,0:0:0
180,212,87216,2,0,B|156:167|103:172,1,90,2|0,0:0|0:0,0:0:0
56,92,87670,1,0,0:0:0
144,60,87897,6,0,B|168:40|168:40|196:56|228:40,1,90,0|8,0:0|0:0,0:0:0
284,120,88352,2,0,B|340:124|360:176|360:176|392:272,1,180,0|0,0:0|0:0,0:0:0
404,348,89033,2,0,B|348:344|328:292|328:292|296:196,1,180,2|0,0:0|0:0,0:0:0
220,160,89715,2,0,B|246:245,1,90,0|8,0:0|0:0,0:3:0
208,336,90169,2,0,B|180:244,1,90,0|0,0:0|0:0,0:0:0
112,36,90851,5,2,0:0:0
120,64,91078,1,0,0:0:0
128,88,91305,1,4,0:0:0
256,192,91759,12,0,94031,0:0:0
96,308,94485,5,2,0:0:0
124,308,94713,1,0,0:0:0
156,308,94940,1,4,0:0:0
288,160,95394,6,0,B|260:184|260:184|288:208|260:232,1,90,8|0,0:0|0:0,0:0:0
164,236,95848,2,0,B|192:212|192:212|164:188|192:164,1,90,0|0,0:0|0:0,0:0:0
232,80,96303,1,2,0:0:0
288,160,96530,2,0,B|322:168|322:168|344:132|344:132|389:151|432:96,1,180,0|0,0:0|0:0,0:0:0
508,160,97211,5,8,0:0:0
508,160,97325,1,0,0:0:0
508,160,97439,2,0,B|440:220,1,90,0|0,0:0|0:0,0:0:0
440,220,97893,1,0,0:0:0
336,228,98120,5,2,0:0:0
308,228,98347,1,4,0:0:0
284,228,98574,1,0,0:0:0
248,156,99029,6,0,B|160:156,1,90,8|0,0:0|0:0,0:0:0
88,88,99483,2,0,B|184:88,1,90,0|0,0:0|0:0,0:0:0
252,20,99937,2,0,B|156:20,1,90,2|0,0:0|0:0,0:0:0
88,88,100392,1,0,0:0:0
88,88,100505,1,0,0:0:0
88,88,100619,1,0,0:0:0
88,88,100733,1,0,0:0:0
88,88,100846,2,0,B|112:112|112:112|48:140|76:200|100:252,1,180,8|0,0:0|0:0,0:0:0
8,196,101528,2,0,P|20:240|40:280,1,90
108,328,101982,1,0,0:0:0
108,328,102209,5,4,0:0:0
172,328,102663,1,8,0:0:0
172,328,103118,1,0,0:0:0
300,328,103572,1,2,0:0:0
300,328,103799,6,0,B|312:293|312:293|344:308|344:308|367:255|429:245,1,180,0|0,0:0|0:0,0:0:0
328,212,104481,2,0,P|368:188|412:176,1,90
444,80,104935,2,0,B|363:120,1,90,0|0,0:0|0:0,0:0:0
296,68,105390,5,2,0:0:0
296,68,105617,1,0,0:0:0
296,68,105844,1,4,0:0:0
140,132,106298,6,0,B|84:220|192:216|140:320|140:320,1,180,8|0,0:0|0:0,0:0:0
228,160,106980,2,0,B|216:252,1,90,0|2,0:0|0:0,0:0:0
284,320,107434,2,0,B|295:230,1,90,0|0,0:0|0:0,0:0:0
256,192,108116,12,0,109479,0:0:0
