osu file format v11

[General]
AudioFilename: sr-71_-_let_it_whip_new_guy_soundtrack_(zaycev.net).mp3
AudioLeadIn: 0
PreviewTime: 50838
Countdown: 1
SampleSet: Normal
StackLeniency: 0.7
Mode: 0
LetterboxInBreaks: 0

[Editor]
DistanceSpacing: 0.9
BeatDivisor: 4
GridSize: 4

[Metadata]
Title:Let It Whip
TitleUnicode:Let It Whip
Artist:SR-71
ArtistUnicode:SR-71
Creator:tiper
Version:Easy
Source:The New Guy
Tags:
BeatmapID:167897
BeatmapSetID:55332

[Difficulty]
HPDrainRate:2
CircleSize:3
OverallDifficulty:2
ApproachRate:2
SliderMultiplier:1
SliderTickRate:2

[Events]
//Background and Video events
0,0,"abstract_00383271.jpg"
//Break Periods
//Storyboard Layer 0 (Background)
//Storyboard Layer 1 (Fail)
//Storyboard Layer 2 (Pass)
//Storyboard Layer 3 (Foreground)
//Storyboard Sound Samples
//Background Colour Transformations
3,100,163,162,255

[TimingPoints]
22246,454.338936846888,4,1,0,50,1,0
50301,-100,4,2,0,30,0,0
50518,-100,4,1,0,50,0,0
51323,-100,4,1,0,60,0,1
63931,-100,4,2,0,60,0,1
65862,-100,4,1,0,50,0,0
78470,-100,4,2,0,30,0,0
78697,-100,4,1,0,50,0,0
93917,-100,4,2,0,30,0,0
94145,-100,4,1,0,50,0,0
94940,-100,4,1,0,50,0,1
107548,-100,4,1,0,35,0,1
109479,-100,4,2,0,10,0,0

[Colours]
Combo1 : 255,70,0
Combo2 : 206,200,213

[HitObjects]
212,144,22245,2,0,B|188:168|188:216|212:236,1,100,4|8,0:0|0:0,0:0:0
300,236,23154,2,0,B|324:212|324:164|300:144,1,100,0|2,0:0|0:0,0:0:0
392,156,24063,2,0,B|356:64,1,100,0|8,0:0|0:0,0:0:0
264,60,24972,1,2,0:0:0
84,68,25880,6,0,B|84:116|84:116|56:128|56:160,1,100,0|8,0:0|0:0,0:0:0
140,188,26789,1,0,0:0:0
40,340,27698,2,0,B|84:312|84:312|172:340|216:264|216:264|216:264,1,200,0|0,0:0|0:0,0:0:0
304,116,29515,5,4,0:0:0
472,184,30424,2,0,B|344:336,1,200,0|0,0:0|0:0,0:0:0
320,252,31787,2,0,B|248:332,1,100,8|0,0:0|0:0,0:0:0
236,236,32695,2,0,B|164:316,1,100,2|0,0:0|0:0,0:0:0
140,224,33604,5,8,0:0:0
104,144,34058,2,0,B|32:224,1,100,0|2,0:0|0:0,0:0:0
84,296,34967,1,4,0:0:0
256,192,35421,12,4,36784,0:0:0
332,256,37693,5,0,0:0:0
396,88,38602,1,0,0:0:0
388,176,39056,2,0,B|448:184|476:136,2,100,8|0|2,0:0|0:0|0:0,0:0:0
388,268,40419,6,0,B|328:260|301:305,1,100,0|8,0:0|0:0,0:0:0
220,344,41328,1,0,0:0:0
136,308,41782,1,2,0:0:0
208,256,42236,6,0,B|288:188,2,100,4|8|0,0:0|0:0|0:0,0:0:0
44,332,44054,5,0,0:0:0
60,244,44508,1,0,0:0:0
92,160,44962,2,0,B|72:104|116:68,1,100,0|2,0:0|0:0,0:0:0
180,132,45871,5,0,0:0:0
248,192,46325,1,8,0:0:0
332,164,46780,2,0,B|352:220|308:256,2,100,0|2|0,0:0|0:0|0:0,0:0:0
256,192,48143,12,0,50415,0:0:0
268,312,51323,6,0,B|220:336|172:304,1,100,4|8,0:0|0:0,0:0:0
84,292,52232,2,0,B|92:232|142:217|142:217,1,100,0|2,0:0|0:0,0:0:0
112,40,53595,5,8,0:0:0
52,108,54049,1,0,0:0:0
120,168,54504,2,0,B|188:88,2,100,2|4|8,0:0|0:0|0:0,0:0:0
200,208,55867,6,0,B|228:164|276:148,1,100,0|2,0:0|0:0,0:0:0
292,236,56775,1,0,0:0:0
316,324,57230,2,0,B|365:307|393:263,2,100,8|0|2,0:0|0:0|0:0,0:0:0
224,324,58593,2,0,B|124:324,2,100,4|8|0,0:0|0:0|0:0,0:0:0
268,248,59956,5,2,0:0:0
340,196,60410,1,0,0:0:0
412,248,60864,1,8,0:0:0
260,348,61773,2,0,B|368:348,1,100,2|4,0:0|0:0,0:0:0
256,192,62682,12,0,64045,0:0:0
256,192,64499,12,4,65862,0:0:0
196,320,66771,6,0,B|240:320|240:320|256:296|288:296,1,100,0|2,0:0|0:0,0:0:0
284,208,67679,2,0,B|240:208|240:208|224:232|192:232,1,100,0|8,0:0|0:0,0:0:0
104,232,68588,2,0,B|60:276|100:324,2,100,0|2|0,0:0|0:0|0:0,0:0:0
64,152,69951,5,8,0:0:0
112,72,70405,1,0,0:0:0
152,152,70860,1,2,0:0:0
200,72,71314,1,4,0:0:0
380,76,72223,6,0,B|328:164,2,100,0|2|4,0:0|0:0|0:0,0:0:0
432,152,73586,1,8,0:0:0
428,240,74040,2,0,B|392:260|420:304|384:324,1,100,0|2,0:0|0:0,0:0:0
292,328,74949,6,0,B|192:328,1,100,0|8,0:0|0:0,0:0:0
244,252,75857,1,0,0:0:0
292,176,76312,2,0,B|192:176,1,100,2|4,0:0|0:0,0:0:0
256,192,77221,12,0,78584,0:0:0
256,192,79038,12,4,80401,0:0:0
464,320,81310,6,0,B|364:320,1,100,0|2,0:0|0:0,0:0:0
276,320,82218,1,0,0:0:0
308,236,82673,1,8,0:0:0
224,200,83127,2,0,B|196:248|136:240,1,100,0|2,0:0|0:0,0:0:0
148,152,84036,5,0,0:0:0
72,108,84490,2,0,B|100:60|156:67,2,100,8|0|2,0:0|0:0|0:0,0:0:0
72,200,85853,2,0,B|72:304,1,100,0|8,0:0|0:0,0:0:0
148,252,86762,2,0,B|220:180,1,100,0|2,0:0|0:0,0:0:0
248,268,87670,1,0,0:0:0
416,332,88579,5,0,0:0:0
328,332,89033,1,2,0:0:0
368,252,89488,1,0,0:0:0
280,252,89942,2,0,B|176:252,1,100,8|0,0:0|0:0,0:0:0
180,160,90851,2,0,B|284:160,1,100,2|4,0:0|0:0,0:0:0
256,192,91759,12,0,94031,0:0:0
244,72,94940,6,0,B|292:48|340:80,1,100,4|8,0:0|0:0,0:0:0
428,92,95848,2,0,B|420:152|370:167|370:167,1,100,0|2,0:0|0:0,0:0:0
400,344,97211,5,8,0:0:0
460,276,97666,1,0,0:0:0
392,216,98120,2,0,B|324:296,2,100,2|4|8,0:0|0:0|0:0,0:0:0
312,176,99483,6,0,B|284:220|236:236,1,100,0|2,0:0|0:0,0:0:0
220,148,100392,1,0,0:0:0
196,60,100846,2,0,B|147:77|119:121,2,100,8|0|2,0:0|0:0|0:0,0:0:0
288,60,102209,6,0,B|388:60,2,100,4|8|0,0:0|0:0|0:0,0:0:0
244,136,103572,1,2,0:0:0
172,188,104027,1,0,0:0:0
100,136,104481,1,8,0:0:0
252,36,105390,2,0,B|144:36,1,100,2|4,0:0|0:0,0:0:0
256,192,106298,12,4,107661,0:0:0
256,192,108116,12,0,109479,0:0:0
