osu file format v9

[General]
AudioFilename: SPYAIR -Samurai Heart (Some Like It Hot!!).mp3
AudioLeadIn: 0
PreviewTime: 38508
Countdown: 1
SampleSet: Normal
StackLeniency: 0.7
Mode: 0
LetterboxInBreaks: 1

[Editor]
DistanceSpacing: 1
BeatDivisor: 4
GridSize: 8

[Metadata]
Title:Samurai Heart (Some Like It Hot!!) (TV Size)
Artist:SPYAIR
Creator:jericho2442
Version:Shinpachi
Source:Gintama'
Tags:OP opening arken1015 arien666

[Difficulty]
HPDrainRate:2
CircleSize:3
OverallDifficulty:2
ApproachRate:2
SliderMultiplier:1.2
SliderTickRate:2

[Events]
//Background and Video events
Video,199,"Gintama' ED1.avi"
0,0,"Gintama' ED.jpg"
//Break Periods
2,55699,60311
//Storyboard Layer 0 (Background)
//Storyboard Layer 1 (Fail)
//Storyboard Layer 2 (Pass)
//Storyboard Layer 3 (Foreground)
//Storyboard Sound Samples
//Background Colour Transformations
3,100,163,162,255

[TimingPoints]
4526.51724137931,530.973451327434,4,1,1,100,1,0
63995,-100,4,1,1,100,0,1
85234,-100,4,1,1,100,0,0

[Colours]
Combo1 : 128,128,255
Combo2 : 128,128,0
Combo3 : 211,211,211

[HitObjects]
40,40,4526,2,0,B|152:24|176:152,1,180,2|2
351,133,6119,1,8
352,256,6650,6,0,B|288:256|288:352|288:352|264:352|240:328,1,180,2|2
96,224,8243,1,8
96,104,8774,6,0,B|168:104|216:161|219:240,1,180,2|2
400,216,10367,1,8
352,328,10898,6,0,B|280:360|240:272|160:336,2,180,4|4|0
472,328,13022,5,2
472,208,13553,1,8
472,88,14084,2,0,B|401:92|368:150,1,120,2|8
248,144,15145,5,2
136,104,15676,1,8
160,224,16207,2,0,B|112:336,1,120,2|8
232,352,17269,6,0,B|288:320|352:360,1,120,2|8
456,312,18331,1,2
456,192,18862,1,8
448,72,19393,6,0,B|376:72|344:136|344:136|272:112|304:40,1,240,4|2
176,48,20986,1,8
56,48,21517,6,0,B|56:128|144:168|144:168|144:240|144:240|216:240|240:320,1,360,4|8
360,336,23641,5,2
464,272,24172,1,8
464,152,24703,2,0,B|464:72|376:72,2,120,2|8|2
464,272,26296,5,8
368,344,26827,2,0,B|240:344,1,120,2|8
128,352,27889,6,0,B|48:248|80:112,1,240,2|8
168,48,29482,1,2
288,48,30013,6,0,B|352:48|384:136|384:136|320:136|296:192,1,240,4|2
296,240,31340,1,0
336,288,31606,1,8
232,344,32137,6,0,B|144:344|144:344|104:344|72:312|72:264|72:264|72:232,1,240,4|2
72,168,33464,1,0
32,120,33730,1,8
112,32,34261,6,0,B|224:104|344:32,1,240,4|2
400,32,35588,1,0
440,80,35853,1,8
368,176,36384,6,0,B|368:248|440:288,2,120,2|8|2
248,176,37977,1,4
128,176,38508,6,0,B|136:96|48:88,2,120,4|8|2
120,296,40101,1,8
144,352,40367,1,0
208,352,40632,5,2
328,352,41163,1,8
448,352,41694,2,0,B|472:288|408:272|448:224,1,120,2|8
432,112,42756,6,0,B|376:80|312:112,2,120,2|8|2
376,216,44349,1,8
376,280,44615,1,0
344,336,44880,5,2
232,288,45411,1,8
128,344,45942,2,0,B|48:344|32:264,1,120,2|8
32,160,47004,6,0,B|64:128|64:128|104:160|144:136,2,120,4|8|2
32,280,48597,1,8
96,280,48862,1,0
160,280,49128,5,2
280,280,49659,1,8
400,280,50190,2,0,B|432:248|432:248|400:208|424:168,1,120,2|8
296,192,51252,6,0,B|224:200|192:128,1,120,2|8
256,32,52314,2,0,B|328:24|360:96,1,120,2|8
296,192,53376,6,0,B|224:200|192:128,1,120,2|8
256,32,54438,2,0,B|328:24|360:96,1,120,2|8
408,192,55499,1,4
256,192,61871,12,4,63464
256,40,63995,6,0,B|336:40|376:104,1,120,4|8
392,136,64792,1,0
392,192,65057,2,0,B|368:256|424:264|392:328,1,120,4|8
280,312,66119,6,0,B|200:312|160:248,1,120,4|8
144,216,66916,1,0
144,160,67181,2,0,B|168:96|112:88|144:24,1,120,4|8
256,40,68243,6,0,B|288:96|240:96|264:168,1,120,4|8
256,216,69039,1,0
256,280,69305,2,0,B|256:360|336:360,1,120,4|8
256,192,70367,12,4,71960
256,192,72491,6,0,B|184:192|160:120,1,120,4|8
256,192,73553,2,0,B|328:192|352:264,1,120,4|8
256,192,74615,6,0,B|328:192|352:120,1,120,4|8
256,192,75677,2,0,B|184:192|160:264,1,120,4|8
256,336,76738,6,0,B|384:336,1,120,4|8
432,312,77535,1,0
464,256,77800,2,0,B|464:128,1,120,4|8
344,136,78862,6,0,B|216:136,1,120,4|8
168,160,79659,1,0
136,216,79924,2,0,B|136:344,1,120,4|8
16,344,80986,6,0,B|16:160|16:160|16:128|32:72|104:72|104:72|160:72,1,360,4|2
256,192,83110,12,4,85234
