osu file format v9

[General]
AudioFilename: SPYAIR -Samurai Heart (Some Like It Hot!!).mp3
AudioLeadIn: 0
PreviewTime: 38508
Countdown: 1
SampleSet: Normal
StackLeniency: 0.7
Mode: 0
LetterboxInBreaks: 1

[Editor]
DistanceSpacing: 1
BeatDivisor: 4
GridSize: 8

[Metadata]
Title:Samurai Heart (Some Like It Hot!!) (TV Size)
Artist:SPYAIR
Creator:jericho2442
Version:Kagura
Source:Gintama'
Tags:OP opening arken1015 arien666

[Difficulty]
HPDrainRate:3
CircleSize:4
OverallDifficulty:4
ApproachRate:5
SliderMultiplier:1.6
SliderTickRate:2

[Events]
//Background and Video events
Video,199,"Gintama' ED1.avi"
0,0,"Gintama' ED.jpg"
//Break Periods
2,55699,60671
//Storyboard Layer 0 (Background)
//Storyboard Layer 1 (Fail)
//Storyboard Layer 2 (Pass)
//Storyboard Layer 3 (Foreground)
//Storyboard Sound Samples
//Background Colour Transformations
3,100,163,162,255

[TimingPoints]
4526.51724137931,530.973451327434,4,1,1,100,1,0
63995,-100,4,1,1,100,0,1
85234,-100,4,1,1,100,0,0

[Colours]
Combo1 : 128,128,255
Combo2 : 128,128,0
Combo3 : 211,211,211

[HitObjects]
32,32,4526,2,0,B|152:32|144:160,1,160,2|8
104,232,5455,2,0,B|104:288|160:296,1,80,0|8
200,352,5986,1,8
240,352,6119,2,0,B|280:328|328:360,1,80,0|8
408,352,6650,6,0,B|440:272|360:264|408:176,1,160,2|8
472,104,7579,2,0,B|408:104|392:72,1,80,0|8
320,80,8110,2,0,B|280:104,1,40,8|0
144,32,8774,6,0,B|88:72|88:72|128:112|112:168,1,160,2|8
24,232,9703,2,0,B|88:304,1,80,0|8
144,344,10234,1,8
184,344,10367,2,0,B|272:344,1,80,0|8
288,264,10898,6,0,B|336:264|344:216,1,80,2|8
384,216,11296,2,0,B|384:128,1,80,2|8
344,136,11694,2,0,B|336:89|288:89,1,80,2|8
288,48,12092,2,0,B|192:48,1,80,0|8
208,88,12491,1,4
128,88,12756,1,8
48,88,13022,6,0,B|48:136|88:168|136:168|136:168|112:224,1,160,2|8
120,272,13818,1,0
144,304,13951,1,2
264,304,14349,1,2
344,304,14615,1,8
456,192,15145,6,0,B|416:192|416:192|400:144|352:136|352:136|352:96,1,160,2|8
288,64,15942,1,0
256,32,16075,1,2
136,32,16473,1,2
80,88,16738,1,8
136,144,17004,1,0
136,224,17269,6,0,B|136:272|216:264|216:264|216:336,1,160,2|8
296,312,18066,2,0,B|296:248,1,40,0|2
416,288,18597,1,2
448,216,18862,1,8
440,136,19128,1,0
392,72,19393,5,2
312,56,19659,1,0
232,72,19924,1,8
184,136,20190,1,0
192,216,20455,1,2
160,288,20721,1,0
80,288,20986,1,8
112,216,21252,5,0
40,176,21517,2,0,B|24:128|56:128|40:80,2,80,2|0|8
40,256,22314,2,0,B|24:304|56:304|40:352,2,80,0|2|0
112,216,23110,6,0,B|168:224|184:168,1,80,8|0
208,104,23641,2,0,B|252:74|290:108,1,80,2|0
296,184,24172,2,0,B|314:224|362:216,1,80,8|0
360,136,24703,2,0,B|408:128|458:172|472:240|424:304|352:296,1,240,2|4
232,344,26030,6,0,B|152:368|136:304|32:344,1,200,2|8
32,264,26960,2,0,B|32:216|64:184,1,80,2|8
96,176,27358,2,0,B|128:144|128:104,1,80,2|12
200,64,27889,6,0,B|276:24|354:65,3,160,2|8|2|4
456,192,30013,6,0,B|456:240|408:256,2,80,2|0|8
376,184,30809,1,0
336,184,30942,2,0,B|264:184|232:112,1,120,2|8
160,128,31606,2,0,B|160:216,1,80
160,288,32137,6,0,B|112:288|90:358,2,80,2|0|8
176,368,32933,1,0
216,368,33066,2,0,B|320:360|304:248,1,160,2|8
344,264,33730,1,0
488,192,34261,6,0,B|432:192|416:144,2,80,2|0|8
488,272,35057,1,0
448,272,35190,2,0,B|288:272,1,160,2|8
248,272,35853,2,0,B|184:272|192:328,1,80
112,312,36384,6,0,B|56:232|104:160,1,160,2|8
168,16,37446,2,0,B|224:96|176:168,1,160,2|4
448,120,38508,6,0,B|488:192|448:280,1,160,2|8
312,192,39570,2,0,B|216:192,1,80,2|0
192,192,39968,2,0,B|112:208|72:128,1,120,2|8
160,112,40632,1,2
216,56,40898,5,0
296,56,41163,1,8
352,112,41429,1,0
432,112,41694,2,0,B|480:112|496:160,1,80,2|0
496,192,42092,1,4
376,352,42756,6,0,B|296:304|224:352,1,160,2|8
144,352,43553,1,0
64,352,43818,2,0,B|64:304|106:281,1,80,2|0
104,248,44216,2,0,B|104:168|48:128,1,120,2|8
120,80,44880,1,2
192,40,45145,5,0
264,80,45411,1,8
336,40,45676,1,0
408,80,45942,2,0,B|472:136|456:232,1,160,2|4
352,352,47004,6,0,B|272:320|192:352,1,160,2|8
72,352,47933,1,0
56,312,48066,2,0,B|16:256|40:184,1,120,2|0
64,168,48597,2,0,B|80:120|48:80,1,80,2|8
120,48,49128,1,0
192,88,49393,5,0
192,168,49659,2,0,B|240:168|264:120,1,80,8|0
304,200,50190,2,0,B|448:200,1,120,2|4
216,344,51252,6,0,B|168:344|144:304,2,80,0|0|8
296,344,52048,2,0,B|344:344|368:304,2,80,0|2|0
256,272,52845,6,0,B|256:176|152:152,1,160,8|2
8,160,53907,1,8
83,19,54438,2,0,B|59:91|107:107|83:187,1,160,2|8
88,336,55499,1,4
256,192,61871,12,0,63464
256,32,63995,6,0,B|312:32|320:88,2,80,4|0|8
176,32,64792,1,0
96,32,65057,2,0,B|96:88|160:112,1,80,4|0
136,136,65455,2,0,B|136:272,1,120,8|0
192,312,66119,1,4
272,312,66384,6,0,B|328:312|344:368,2,80,0|8|0
272,232,67181,2,0,B|352:232,1,80,4|0
392,232,67579,2,0,B|512:208|464:64,1,200,8|4
312,32,68774,5,8
232,32,69039,1,0
152,32,69305,2,0,B|96:32|96:88,1,80,4|0
96,120,69703,2,0,B|160:136|160:208,1,120,8|0
200,280,70367,1,4
269,318,70632,6,0,B|288:274|264:232,2,80,0|8|0
343,351,71429,2,0,B|384:272|328:184,1,160,4|8
408,160,72225,1,0
408,80,72491,5,4
336,120,72756,1,0
264,80,73022,1,8
192,120,73287,1,0
112,120,73553,2,0,B|56:120|48:176,1,80,4|0
48,200,73951,2,0,B|48:248|128:248|128:200,1,120,8|0
208,200,74615,1,4
288,200,74880,6,0,B|288:248|248:272,2,80,0|8|0
368,200,75676,2,0,B|368:152|320:128,1,80,4|0
344,96,76075,2,0,B|464:96,1,120,8|0
480,176,76738,5,4
480,256,77004,1,0
440,320,77269,1,8
360,328,77535,6,0,B|264:328,1,80,0|4
200,312,78066,1,0
144,256,78331,5,8
144,176,78597,1,0
80,136,78862,1,4
152,96,79128,6,0,B|184:48|248:72,4,80,0|8|0|4|0
216,144,80455,1,2
376,144,80986,1,4
424,208,81252,5,8
424,288,81517,2,0,B|400:328,1,40,2|0
320,328,81915,2,0,B|232:328,1,80,2|8
160,328,82446,1,8
120,328,82579,2,0,B|64:320|64:264,1,80,2|0
256,192,83110,12,4,85234
