osu file format v9

[General]
AudioFilename: SPYAIR -Samurai Heart (Some Like It Hot!!).mp3
AudioLeadIn: 0
PreviewTime: 38508
Countdown: 1
SampleSet: Normal
StackLeniency: 0.7
Mode: 0
LetterboxInBreaks: 1

[Editor]
DistanceSpacing: 0.8
BeatDivisor: 4
GridSize: 8

[Metadata]
Title:Samurai Heart (Some Like It Hot!!) (TV Size)
Artist:SPYAIR
Creator:jericho2442
Version:Gintoki
Source:Gintama'
Tags:OP opening arken1015 arien666

[Difficulty]
HPDrainRate:6
CircleSize:4
OverallDifficulty:8
ApproachRate:8
SliderMultiplier:2.3
SliderTickRate:2

[Events]
//Background and Video events
Video,199,"Gintama' ED1.avi"
0,0,"Gintama' ED.jpg"
//Break Periods
//Storyboard Layer 0 (Background)
//Storyboard Layer 1 (Fail)
//Storyboard Layer 2 (Pass)
//Storyboard Layer 3 (Foreground)
//Storyboard Sound Samples
//Background Colour Transformations
3,100,163,162,255

[TimingPoints]
4526.51724137931,530.973451327434,4,1,1,100,1,0
38508,-83.3333333333333,4,1,1,100,0,0
63995,-71.4285714285714,4,1,1,100,0,1
85234,-71.4285714285714,4,1,1,100,0,0

[Colours]
Combo1 : 128,128,255
Combo2 : 128,128,0
Combo3 : 211,211,211

[HitObjects]
32,192,4526,2,0,B|32:112|104:88,1,115,2|0
120,176,5057,1,8
168,176,5190,1,0
168,264,5455,2,0,B|232:264|256:192,1,115,2|0
344,176,5986,1,0
392,176,6119,1,8
472,128,6384,1,0
392,80,6650,6,0,B|320:80|304:8,1,115,2|0
216,24,7181,2,0,B|216:96,1,57.5,8|0
216,176,7579,2,0,B|192:248|240:224|216:320,1,115,2|0
296,344,8110,1,0
344,344,8243,2,0,B|480:344|488:192,1,230,8|2
488,104,9039,5,0
400,72,9305,1,8
376,32,9438,1,0
288,32,9703,1,2
200,32,9968,1,0
104,32,10234,1,0
80,72,10367,2,0,B|32:120|56:200,1,115,8|0
64,272,10898,5,2
64,320,11030,1,2
96,352,11163,1,8
128,320,11296,1,2
168,344,11429,1,2
216,336,11561,1,8
208,288,11694,5,2
256,296,11827,1,2
288,264,11960,1,8
256,232,12092,1,2
288,200,12225,1,0
280,152,12358,1,8
232,160,12491,6,0,B|232:88|168:72,1,115,2|8
80,72,13022,5,2
56,112,13154,1,0
56,208,13420,1,2
80,248,13553,1,8
128,248,13685,1,0
152,208,13818,1,0
200,208,13951,2,0,B|344:208,1,115,2|0
408,208,14482,1,4
360,80,14880,5,0
272,80,15145,2,0,B|224:40,1,57.5,2|0
136,40,15544,1,2
112,80,15676,1,8
136,120,15809,1,0
120,160,15942,1,0
136,200,16075,2,0,B|136:328,1,115
224,352,16606,1,2
224,304,16738,2,0,B|224:184,1,115,8|0
256,32,17269,5,2
296,112,17535,1,2
344,112,17668,1,0
376,80,17800,1,8
384,32,17933,1,0
432,32,18066,1,0
480,32,18199,2,0,B|480:152,1,115,2|0
480,240,18730,1,2
480,288,18862,1,8
408,344,19128,1,0
320,344,19393,5,2
160,344,19659,1,0
72,208,19924,1,8
16,56,20190,1,0
72,208,20455,1,2
136,56,20721,1,0
192,208,20986,1,8
256,56,21252,5,0
296,40,21384,1,0
336,56,21517,1,2
416,96,21783,1,0
448,184,22048,1,8
416,288,22314,5,0
336,328,22580,1,2
296,344,22713,1,0
256,328,22845,1,0
216,344,22977,1,0
176,328,23110,1,8
157,289,23243,1,0
169,247,23376,1,0
168,200,23508,1,0
144,160,23641,6,0,B|104:96|160:32,1,115,2|0
237,52,24172,2,0,B|277:116|221:180,1,115,8|0
328,160,24703,2,0,B|384:128|456:168,2,115,2|0|8
328,256,25499,1,0
256,312,25765,6,0,B|200:288|128:320,1,115,2|0
56,288,26296,1,8
32,248,26429,1,0
24,200,26561,1,0
24,152,26694,2,0,B|16:88|64:40,1,115,2|0
152,48,27225,1,0
200,48,27358,2,0,B|242:89|234:153,1,115,8|0
328,152,27889,6,0,B|328:296|496:320,1,230,2|8
392,368,28685,1,0
296,368,28951,2,0,B|232:336|160:376,1,115,2|0
136,352,29349,1,0
96,336,29482,2,0,B|56:272|104:208,1,115,8|0
32,32,30013,6,0,B|96:32,1,57.5,2|0
136,48,30278,2,0,B|184:88,1,57.5
200,128,30544,2,0,B|200:192,1,57.5,8|0
200,232,30809,2,0,B|248:288,1,57.5,0|2
328,272,31207,1,2
328,272,31340,1,8
424,272,31606,2,0,B|424:208|352:176,1,115,2|4
480,32,32137,6,0,B|416:32,1,57.5,2|0
392,64,32402,1,0
368,104,32535,2,0,B|312:80|304:144|240:88,1,115,8|0
216,96,32933,1,0
176,112,33066,2,0,B|115:120|141:179|58:164,1,115,2|8
80,256,33597,1,2
80,256,33730,1,4
256,352,34261,6,0,B|296:352|312:312,1,57.5,2|0
352,328,34526,1,0
400,328,34659,1,0
448,328,34792,2,0,B|488:328|488:288,1,57.5,8|0
488,248,35057,1,0
488,200,35190,1,2
488,112,35455,1,8
408,152,35721,1,2
408,152,35853,1,4
312,152,36119,5,0
264,144,36252,1,0
224,120,36384,2,0,B|200:48|120:56,1,115,2|8
96,72,36783,2,0,B|56:120|72:208|136:224,1,172.5,0|2
184,288,37446,1,2
256,344,37712,1,8
328,288,37977,1,4
256,80,38508,6,0,B|408:64|472:232,2,276.000006580353,2|8|2
200,80,39703,2,0,B|152:80|152:32,1,69.0000016450882
96,40,39968,2,0,B|96:192,1,138.000003290176,8|0
96,232,40367,1,0
136,336,40632,1,2
248,336,40898,5,2
296,232,41163,1,8
392,176,41429,1,0
296,128,41694,1,2
240,120,41827,1,0
208,72,41960,1,0
208,16,42092,2,0,B|112:16|104:120,1,138.000003290176,8|0
112,152,42491,1,2
256,352,42756,6,0,B|192:304|128:328|128:328|56:352|0:280,1,276.000006580353,2|8
96,224,43553,1,0
208,224,43818,2,0,B|256:224|256:176,2,69.0000016450882,2|0|2
192,168,44216,2,0,B|206:120|255:119|255:119|256:48|256:48,1,138.000003290176,8|0
296,24,44615,1,0
408,24,44880,1,2
472,112,45145,5,2
456,224,45411,1,8
376,304,45676,1,0
264,328,45942,2,0,B|96:336|48:176,1,276.000006580353,2|8
24,80,46738,1,0
128,48,47004,6,0,B|296:40|344:200,1,276.000006580353,2|8
344,296,47800,1,0
320,344,47933,1,0
264,360,48066,1,2
208,344,48199,1,0
184,296,48331,1,0
192,240,48464,2,0,B|128:192|48:248,1,138.000003290176,8|0
32,192,48862,1,0
72,88,49128,1,2
168,32,49393,5,2
272,80,49659,1,8
368,32,49924,1,0
424,32,50057,1,0
472,64,50190,1,2
480,120,50322,1,0
464,176,50455,1,0
424,216,50588,2,0,B|424:368,1,138.000003290176,8|0
368,360,50986,1,0
256,360,51252,6,0,B|176:360,1,69.0000016450882,2|0
224,312,51517,2,0,B|160:272,1,69.0000016450882,2|0
216,248,51783,2,0,B|200:176,1,69.0000016450882,8|0
256,200,52048,2,0,B|288:120,1,69.0000016450882
312,192,52314,6,0,B|384:176,1,69.0000016450882,2|0
360,232,52579,2,0,B|424:272,1,69.0000016450882,2|0
424,216,52845,2,0,B|488:184,1,69.0000016450882,8|0
440,152,53110,2,0,B|440:64,1,69.0000016450882
392,64,53376,6,0,B|320:24|248:64,1,138.000003290176,2|2
208,88,53774,1,0
160,120,53907,2,0,B|120:192|160:264,1,138.000003290176,8|0
40,256,54438,2,0,B|70:190|34:123,1,138.000003290176,2|2
72,80,54836,1,0
120,48,54968,2,0,B|184:0|280:16,1,138.000003290176,8|0
352,48,55499,1,4
440,120,55765,5,8
440,232,56030,2,0,B|480:296,1,69.0000016450882,2|0
376,344,56429,2,0,B|304:304|216:352,1,138.000003290176,8|2
142,292,56960,2,0,B|178:233,1,69.0000016450882,8|2
184,176,57225,1,2
144,136,57358,1,8
32,136,57623,1,2
88,40,57889,5,8
200,40,58154,2,0,B|272:40,1,69.0000016450882,2|0
368,88,58553,2,0,B|440:120|448:200,1,138.000003290176,8|2
408,296,59084,1,8
376,336,59216,2,0,B|304:384|224:320,1,138.000003290176,2|0
136,352,59747,5,2
88,320,59880,1,0
64,272,60013,1,2
88,224,60145,1,0
32,224,60278,5,8
56,176,60411,1,0
104,144,60544,1,0
160,144,60676,1,0
136,96,60809,5,2
192,96,60942,1,0
240,120,61075,1,2
264,168,61207,1,0
296,120,61340,5,8
320,168,61473,1,0
320,224,61606,1,0
288,264,61738,1,0
288,320,61871,6,0,B|352:352|432:320,1,138.000003290176,2|2
464,288,62269,2,0,B|496:224|464:144,1,138.000003290176,8|0
440,104,62668,1,8
336,56,62933,2,0,B|200:16|48:64,1,276.000006580353,2|4
32,312,63995,5,4
32,312,64128,1,0
96,312,64261,2,0,B|152:312|160:256,1,80.4999980807305,8|0
224,272,64526,2,0,B|304:320,1,80.4999980807305,4|0
360,312,64792,2,0,B|432:272,1,80.4999980807305,8|0
400,216,65057,5,4
341,189,65190,1,0
320,128,65322,1,8
256,128,65455,2,0,B|256:240|128:216,1,160.999996161461
88,216,65853,1,8
120,88,66119,1,4
240,40,66384,6,0,B|328:40,1,80.4999980807305,8|0
384,40,66650,2,0,B|440:40|448:88,1,80.4999980807305,4|0
448,144,66915,2,0,B|448:232,1,80.4999980807305,8|0
448,288,67181,1,4
432,352,67314,1,0
368,360,67446,1,8
304,352,67579,2,0,B|224:328|224:376|144:352,1,160.999996161461
80,352,67977,1,8
32,192,68243,6,0,B|32:88|128:64,1,160.999996161461,4|8
176,88,68641,1,0
237,67,68774,2,0,B|316:91|319:191,1,160.999996161461,4|8
288,248,69172,1,0
320,304,69305,2,0,B|320:360|376:360,1,80.4999980807305,4|0
432,360,69570,1,8
496,360,69703,2,0,B|512:264|432:200,1,160.999996161461
480,160,70101,1,8
480,32,70367,1,4
368,88,70632,6,0,B|312:88|288:48|264:88|200:88,2,160.999996161461,8|4|8
352,152,71296,1,0
368,216,71429,2,0,B|312:216|288:256|264:216|200:216,1,160.999996161461,4|8
224,152,71827,1,0
160,152,71960,2,0,B|72:152|56:256,1,160.999996161461,4|8
56,320,72358,1,0
120,320,72491,6,0,B|184:320|184:368,1,80.4999980807305,4|0
248,368,72756,2,0,B|344:368,1,80.4999980807305,8|0
392,360,73022,2,0,B|397:323|455:322,1,80.4999980807305,4|0
480,264,73287,1,8
432,224,73420,5,0
480,184,73553,1,4
480,120,73685,2,0,B|480:56|424:16|352:40,1,160.999996161461
304,32,74084,1,4
248,56,74216,1,0
192,32,74349,1,8
64,32,74615,1,4
128,144,74880,6,0,B|104:224|160:216|128:312,2,160.999996161461,8|4|8
192,144,75544,1,0
256,144,75676,2,0,B|256:208|288:224,1,80.4999980807305,4|0
280,280,75942,1,8
280,344,76075,2,0,B|368:368|440:344,1,160.999996161461
440,280,76473,1,8
480,160,76738,6,0,B|480:112|448:88,1,80.4999980807305,4|0
386,72,77004,1,8
336,32,77137,1,0
280,56,77269,2,0,B|280:152,1,80.4999980807305,4|0
257,197,77535,1,8
200,232,77668,1,0
136,232,77800,6,0,B|80:232|64:288,1,80.4999980807305,4|0
77,335,78066,1,8
136,360,78199,1,0
200,360,78331,2,0,B|296:360,1,80.4999980807305,4|0
345,361,78597,1,8
403,334,78730,1,0
464,360,78862,6,0,B|464:312|496:288,1,80.4999980807305,4|0
496,224,79128,1,8
496,160,79261,1,0
496,96,79393,2,0,B|408:96|336:24,3,160.999996161461,4|8|4|8
224,32,80455,5,4
224,288,80986,1,4
224,160,81252,5,8
96,160,81517,1,2
48,208,81650,1,0
48,336,81915,2,0,B|128:368|208:336,1,160.999996161461,2|8
336,336,82446,1,8
400,336,82579,2,0,B|464:336|488:264|448:208,1,160.999996161461,2|8
400,184,82977,1,2
360,136,83110,6,0,B|208:48|40:144,1,321.999992322922,4|4
256,192,83774,12,4,85234
