osu file format v12

[General]
AudioFilename: 01 - Sakura Mitsutsuki ~TV size~.mp3
AudioLeadIn: 0
PreviewTime: -1
Countdown: 1
SampleSet: None
StackLeniency: 0.7
Mode: 0
LetterboxInBreaks: 1
WidescreenStoryboard: 1

[Editor]
DistanceSpacing: 1
BeatDivisor: 4
GridSize: 32

[Metadata]
Title:Sakura Mitsutsuki ~TV size~
TitleUnicode:Sakura Mitsutsuki ~TV size~
Artist:SPYAIR
ArtistUnicode:SPYAIR
Creator:nacholoco
Version:Easy´Sakura
Source:Gintama'
Tags:Gintama,Opening 2,Spyair,Sakura,Mitsutsuki,Tv,Tv Tokio,Sunrise,Samurai,
BeatmapID:369499
BeatmapSetID:149545

[Difficulty]
HPDrainRate:2
CircleSize:3
OverallDifficulty:5
ApproachRate:4
SliderMultiplier:1.4
SliderTickRate:1

[Events]
//Background and Video events
0,0,"gintama_sakata_gintoki_wallpaper-other.jpg",0,0
//Break Periods
2,55003,58877
//Storyboard Layer 0 (Background)
//Storyboard Layer 1 (Fail)
//Storyboard Layer 2 (Pass)
//Storyboard Layer 3 (Foreground)
//Storyboard Sound Samples
//Background Colour Transformations
3,100,163,162,255

[TimingPoints]
1377,674.157303370787,4,3,0,100,1,0

[Colours]
Combo1 : 0,165,0
Combo2 : 140,210,255
Combo3 : 255,79,79
Combo4 : 0,0,0
Combo5 : 56,48,107

[HitObjects]
32,64,11152,2,0,L|256:192,3,210
320,96,17219,6,0,L|320:256,3,140
224,256,19916,1,0,0:0:0:0:
128,224,20590,1,0,0:0:0:0:
96,160,21264,1,0,0:0:0:0:
0,96,21938,2,0,L|32:224,2,70
224,128,24298,2,0,L|320:128,3,70
128,96,27332,5,0,0:0:0:0:
128,160,27669,2,0,L|128:256,4,70
224,128,29691,2,0,L|544:192,2,280
128,160,33062,1,0,0:0:0:0:
256,192,34073,12,0,35084,0:0:0:0:
0,96,35421,5,0,0:0:0:0:
32,96,35759,2,0,L|128:128,1,70
0,192,36433,1,0,0:0:0:0:
64,224,36770,2,0,L|128:288,1,70
128,320,37444,1,0,0:0:0:0:
192,192,37781,2,0,L|288:224,6,70
128,192,40141,5,0,0:0:0:0:
32,160,40478,2,0,P|128:96|416:160,1,420
416,288,42837,2,0,P|320:352|32:256,1,420
0,96,45197,1,0,0:0:0:0:
32,64,45871,2,0,L|32:160,3,70
32,224,47219,1,0,0:0:0:0:
32,128,47388,1,0,0:0:0:0:
64,192,47725,2,0,L|160:192,2,70
0,192,48736,5,0,0:0:0:0:
64,192,49073,1,0,0:0:0:0:
128,192,49410,2,0,L|384:256,1,245
448,288,50927,1,0,0:0:0:0:
256,192,51433,12,0,54803,0:0:0:0:
256,192,60197,12,0,64073,0:0:0:0:
0,160,64410,5,0,0:0:0:0:
96,160,64747,2,0,L|224:192,2,105
0,160,65927,1,0,0:0:0:0:
0,224,66096,2,0,L|160:256,2,140
128,256,67781,5,0,0:0:0:0:
224,256,68118,1,0,0:0:0:0:
192,224,68455,1,0,0:0:0:0:
128,256,68792,1,0,0:0:0:0:
224,256,69129,1,0,0:0:0:0:
192,224,69466,1,0,0:0:0:0:
32,224,70815,2,0,P|224:320|448:288,1,420
480,224,73174,1,0,0:0:0:0:
448,128,73511,2,0,P|128:64|96:64,1,350
32,160,75534,5,0,0:0:0:0:
160,192,75702,1,0,0:0:0:0:
32,160,76039,1,0,0:0:0:0:
0,256,76208,2,0,L|96:256,1,70
160,256,76882,1,0,0:0:0:0:
256,288,77051,1,0,0:0:0:0:
192,192,77388,1,0,0:0:0:0:
288,192,77556,2,0,L|352:224,1,70
256,160,78230,5,0,0:0:0:0:
0,160,78399,1,0,0:0:0:0:
256,160,78736,1,0,0:0:0:0:
352,160,79410,2,0,L|96:160,1,245
96,160,80927,1,0,0:0:0:0:
256,192,81433,12,0,84298,0:0:0:0:
256,192,86826,12,0,89354,0:0:0:0:
