osu file format v13

[General]
AudioFilename: SPYAIR - Sakura Mitsu Tsuki.mp3
AudioLeadIn: 1000
PreviewTime: 35310
Countdown: 0
SampleSet: Soft
StackLeniency: 0.7
Mode: 0
LetterboxInBreaks: 0
WidescreenStoryboard: 0

[Editor]
Bookmarks: 11847
DistanceSpacing: 1
BeatDivisor: 4
GridSize: 4
TimelineZoom: 0.9

[Metadata]
Title:Sakura Mitsutsuki
TitleUnicode:サクラミツツキ
Artist:SPYAIR
ArtistUnicode:SPYAIR
Creator:W h i t e
Version:jieusieu's Light Insane
Source:銀魂´ 延長戦
Tags:Gintama' Enchousen opening MOKIKEN UZ sunrise jump jieusieu [ Zzz ] Sonnyc KantoKun w_h_i_t_e
BeatmapID:368584
BeatmapSetID:149144

[Difficulty]
HPDrainRate:6
CircleSize:4
OverallDifficulty:7
ApproachRate:8.4
SliderMultiplier:1.6
SliderTickRate:2

[Events]
//Background and Video events
0,0,"BG.jpg",0,0
Video,-156,"OP.avi"
//Break Periods
//Storyboard Layer 0 (Background)
//Storyboard Layer 1 (Fail)
//Storyboard Layer 2 (Pass)
//Storyboard Layer 3 (Foreground)
//Storyboard Sound Samples

[TimingPoints]
-220,335.195530726257,4,2,3,30,1,0
450,-133.333333333333,4,2,3,30,0,0
1120,-100,4,2,1,60,0,0
6483,-100,4,2,3,30,0,0
6567,-100,4,2,1,60,0,0
11176,-100,4,2,6,30,0,0
11846,-133.333333333333,4,2,1,40,0,0
11930,-133.333333333333,4,2,0,40,0,0
22572,-100,4,2,2,50,0,0
23829,-100,4,2,3,40,0,0
23997,-100,4,2,2,50,0,0
25086,-100,4,2,1,50,0,0
25254,-100,4,2,4,40,0,0
25421,-100,4,2,2,50,0,0
26511,-100,4,2,3,40,0,0
26678,-100,4,2,2,50,0,0
27935,-100,4,2,1,50,0,0
28019,-100,4,2,2,50,0,0
29192,-100,4,2,3,40,0,0
29360,-100,4,2,2,50,0,0
29863,-100,4,2,3,40,0,0
30030,-100,4,2,2,50,0,0
30449,-100,4,2,1,50,0,0
30785,-100,4,2,2,50,0,0
30868,-100,4,2,3,40,0,0
31036,-100,4,2,2,50,0,0
31874,-100,4,2,3,40,0,0
32041,-100,4,2,2,50,0,0
33383,-100,4,2,2,40,0,0
35981,-100,4,2,1,70,0,1
36064,-100,4,2,1,90,0,1
38578,-100,4,2,4,80,0,1
38745,-100,4,2,1,90,0,1
39919,-100,4,2,4,80,0,1
40086,-100,4,2,1,90,0,1
46203,-100,4,2,4,80,0,1
46287,-100,4,2,1,90,0,1
46371,-100,4,2,5,80,0,1
46539,-100,4,2,1,90,0,0
46707,-100,4,2,1,70,0,1
46790,-100,4,2,1,90,0,1
49304,-100,4,2,4,80,0,1
49472,-100,4,2,1,90,0,1
50645,-100,4,2,4,80,0,1
50812,-100,4,2,1,70,0,1
52405,-100,4,2,1,35,0,1
52572,-100,4,2,1,40,0,1
52740,-100,4,2,1,45,0,1
52907,-100,4,2,1,50,0,1
53075,-100,4,2,1,60,0,1
53243,-100,4,2,1,65,0,1
53410,-100,4,2,1,70,0,1
54416,-100,4,2,4,60,0,1
54584,-100,4,2,1,70,0,1
54752,-133.333333333333,4,2,1,70,0,0
62796,-100,4,2,1,70,0,0
64807,-100,4,2,0,40,0,0
65477,-100,4,2,0,30,0,0
65813,-100,4,2,1,70,0,1
65980,-100,4,2,1,90,0,1
68075,-100,4,2,4,80,0,1
68243,-100,4,2,1,90,0,1
69416,-100,4,2,4,80,0,1
69583,-100,4,2,1,90,0,1
75868,-100,4,2,5,80,0,1
75952,-100,4,2,1,90,0,1
76036,-100,4,2,1,90,0,0
76204,-100,4,2,1,70,0,1
76287,-100,4,2,1,90,0,1
78801,-100,4,2,5,80,0,1
78969,-100,4,2,1,90,0,1
80142,-100,4,2,5,80,0,1
80310,-100,4,2,1,90,0,1
84249,-100,4,2,1,60,0,0
84333,-100,4,2,1,50,0,0
89611,-100,4,2,1,5,0,0

[Colours]
Combo1 : 17,254,176
Combo2 : 173,255,95
Combo3 : 255,88,100
Combo4 : 255,94,55

[HitObjects]
64,200,785,6,0,P|72:220|76:240,3,30.0000011444092,8|8|8|8,0:0|0:0|0:0|0:0,0:0:0:0:
68,208,1120,6,0,P|101:229|140:232,1,80,2|0,0:0|0:0,0:0:0:0:
268,267,1455,2,0,P|229:270|196:292,1,80,2|0,0:0|0:0,0:0:0:0:
256,348,1791,5,8,0:0:0:0:
212,196,1958,1,0,0:0:0:0:
268,136,2126,2,0,L|280:20,1,80,0|2,0:0|0:0,0:0:0:0:
396,156,2461,5,0,0:0:0:0:
340,216,2629,2,0,L|352:332,1,80,8|2,0:0|0:0,0:0:0:0:
360,376,2964,1,0,0:0:0:0:
416,232,3131,5,8,0:0:0:0:
396,156,3299,1,0,0:0:0:0:
424,236,3467,1,2,0:0:0:0:
452,96,3634,1,8,0:0:0:0:
324,136,3802,5,2,0:0:0:0:
316,140,3969,2,0,P|276:136|236:112,1,80,8|2,0:0|0:0,0:0:0:0:
172,268,4305,5,0,0:0:0:0:
170,258,4472,2,0,P|193:225|234:202,1,80,8|0,0:0|0:0,0:0:0:0:
188,0,4807,5,0,0:0:0:0:
148,68,4975,2,0,P|164:104|163:151,1,80,2|0,0:0|0:0,0:0:0:0:
316,144,5310,5,8,0:0:0:0:
356,212,5478,2,0,P|339:248|340:295,1,80,2|0,0:0|0:0,0:0:0:0:
256,356,5813,5,2,0:0:0:0:
344,296,5981,1,8,0:0:0:0:
169,287,6148,2,0,P|168:247|152:212,1,80,8|8,0:0|0:0,0:0:0:0:
144,204,6400,1,0,0:0:0:0:
136,196,6483,6,0,P|172:212|228:204,1,80,10|0,0:0|0:0,0:0:0:0:
340,132,6819,2,0,P|300:130|264:146,1,80,2|0,0:0|0:0,0:0:0:0:
316,208,7154,5,8,0:0:0:0:
188,136,7321,1,0,0:0:0:0:
136,196,7489,2,0,L|32:184,1,80,0|2,0:0|0:0,0:0:0:0:
160,324,7824,5,0,0:0:0:0:
208,260,7992,2,0,L|287:250,1,80,8|2,0:0|0:0,0:0:0:0:
368,240,8327,1,0,0:0:0:0:
236,332,8495,5,8,0:0:0:0:
160,324,8662,1,0,0:0:0:0:
244,336,8830,1,2,0:0:0:0:
108,384,8997,1,8,0:0:0:0:
128,248,9165,5,2,0:0:0:0:
120,252,9333,2,0,P|80:248|45:229,1,80,8|2,0:0|0:0,0:0:0:0:
132,92,9668,5,0,0:0:0:0:
128,84,9835,2,0,P|151:51|185:31,1,80,8|0,0:0|0:0,0:0:0:0:
216,232,10171,5,0,0:0:0:0:
276,176,10338,2,0,P|292:212|293:251,1,80,2|0,0:0|0:0,0:0:0:0:
136,328,10673,5,8,0:0:0:0:
76,384,10841,2,0,P|60:348|60:304,1,80,2|0,0:0|0:0,0:0:0:0:
120,252,11176,5,2,0:0:0:0:
48,220,11344,1,0,0:0:0:0:
124,244,11511,2,0,P|128:212|108:164,1,80,2|0,0:0|0:0,0:0:0:0:
72,96,11847,6,0,P|122:132|182:124,1,120.000004577637,6|2,0:0|0:0,0:0:0:0:
142,56,12349,1,0,0:0:0:0:
244,84,12517,2,0,B|252:128|252:128|248:156|248:156|256:212,1,120.000004577637,0|2,0:0|0:0,0:0:0:0:
220,272,13020,2,0,L|348:280,1,120.000004577637,0|0,0:0|0:0,0:0:0:0:
400,328,13523,2,0,P|448:296|512:312,1,120.000004577637,2|0,0:0|0:0,0:0:0:0:
464,372,14025,1,0,0:0:0:0:
436,220,14193,2,0,L|428:152,1,60.0000022888184,2|0,0:0|0:0,0:0:0:0:
324,52,14528,6,0,L|332:124,1,60.0000022888184
244,208,14863,1,2,0:0:0:0:
244,208,15031,2,0,B|256:168|256:168|244:64,1,120.000004577637,0|0,0:0|0:0,0:0:0:0:
80,28,15534,1,2,0:0:0:0:
80,28,15701,2,0,B|72:68|72:68|84:152,1,120.000004577637,0|0,0:0|0:0,0:0:0:0:
128,216,16204,1,2,0:0:0:0:
64,268,16372,1,0,0:0:0:0:
100,340,16539,2,0,L|172:344,1,60.0000022888184
344,352,17042,6,0,B|328:260|328:260|356:284,1,120.000004577637
392,212,17545,1,2,0:0:0:0:
252,212,17712,2,0,B|244:248|244:248|260:344,1,120.000004577637
336,360,18215,1,2,0:0:0:0:
392,212,18383,2,0,B|400:176|400:176|384:80,1,120.000004577637
188,100,18886,6,0,B|236:108|236:108|256:120|256:120|308:128,1,120.000004577637,2|0,0:0|0:0,0:0:0:0:
376,88,19388,1,0,0:0:0:0:
480,332,19724,6,0,B|432:324|432:324|408:328|408:328|360:320,1,120.000004577637,2|0,0:0|0:0,0:0:0:0:
304,264,20226,1,0,0:0:0:0:
251,381,20394,2,0,L|245:322,1,60.0000022888184,0|0,0:0|0:0,0:0:0:0:
80,236,20729,2,0,L|87:296,1,60.0000022888184,0|2,0:0|0:0,0:0:0:0:
168,308,21064,2,0,L|153:184,1,120.000004577637,0|0,0:0|0:0,0:0:0:0:
80,156,21567,2,0,L|65:32,1,120.000004577637,2|0,0:0|0:0,0:0:0:0:
148,64,22070,1,0,0:0:0:0:
220,24,22238,1,2,0:0:0:0:
220,24,22405,1,0,0:0:0:0:
296,48,22573,6,0,P|336:120|416:104,1,160,4|8,0:0|0:0,0:0:0:0:
476,76,23076,2,0,P|484:100|472:160,1,80,0|8,0:0|0:0,0:0:0:0:
384,280,23411,2,0,P|376:256|388:196,1,80,0|8,0:0|0:0,0:0:0:0:
512,316,23746,2,0,B|452:332|452:332|428:356|428:356|364:376,1,160
308,316,24249,2,0,L|220:300,1,80,8|0,0:0|0:0,0:0:0:0:
152,288,24584,1,8,0:0:0:0:
112,360,24752,1,0,0:0:0:0:
112,360,24919,1,8,0:0:0:0:
76,256,25087,6,0,P|68:176|76:96,1,160,2|0,0:0|0:0,0:0:0:0:
48,20,25590,1,8,0:0:0:0:
160,76,25757,2,0,P|200:72|236:57,1,80,0|8,0:0|0:0,0:0:0:0:
372,136,26092,2,0,P|336:120|295:117,1,80,0|8,0:0|0:0,0:0:0:0:
448,100,26428,2,0,B|472:180|416:180|448:260,1,160
512,320,26930,2,0,P|432:304|384:360,1,160,8|8,0:0|0:0,0:0:0:0:
316,308,27433,1,0,0:0:0:0:
316,308,27517,1,0,0:0:0:0:
316,308,27601,2,0,L|232:300,1,80,8|0,0:0|0:0,0:0:0:0:
96,364,27936,6,0,B|80:300|80:300|84:268|84:268|64:204,1,160,2|8,0:0|0:0,0:0:0:0:
88,128,28439,1,0,0:0:0:0:
160,304,28606,1,8,0:0:0:0:
64,208,28774,1,0,0:0:0:0:
64,208,28942,1,8,0:0:0:0:
192,224,29109,2,0,P|268:212|300:140,1,160
216,144,29612,1,8,0:0:0:0:
320,64,29780,2,0,B|392:96|392:96|472:64,1,160
392,12,30282,1,8,0:0:0:0:
456,160,30450,6,0,P|460:200|456:240,1,80,2|2,0:0|0:0,0:0:0:0:
344,360,30785,2,0,P|336:288|344:200,1,160,0|0,0:0|0:0,0:0:0:0:
420,232,31288,2,0,P|364:284|288:268,1,160,8|8,0:0|0:0,0:0:0:0:
240,332,31791,2,0,B|184:332|184:332|144:348|144:348|80:348,1,160
24,292,32293,2,0,B|16:252|16:252|24:204,1,80,8|0,0:0|0:0,0:0:0:0:
168,140,32629,2,0,B|176:180|176:180|168:228,1,80,8|0,0:0|0:0,0:0:0:0:
96,180,32964,5,8,0:0:0:0:
200,72,33131,1,0,0:0:0:0:
248,212,33299,1,4,0:0:0:0:
256,192,33383,12,0,34975,0:0:0:0:
216,248,35310,6,0,B|256:248|256:248|288:264|288:264|344:264,2,120
144,216,35981,6,0,P|224:232|256:160,1,160,4|8,0:0|0:0,0:0:0:0:
200,112,36483,2,0,P|192:72|200:32,1,80,0|2,0:0|0:0,0:0:0:0:
328,128,36819,1,2,0:0:0:0:
328,128,36902,1,0,0:0:0:0:
328,128,36986,2,0,P|336:168|328:208,1,80,8|0,0:0|0:0,0:0:0:0:
472,280,37321,6,0,L|304:296,1,160,2|8,0:0|0:0,0:0:0:0:
176,360,37824,2,0,B|216:369|216:369|256:353,1,80,0|2,0:0|0:0,0:0:0:0:
208,288,38159,1,2,0:0:0:0:
72,272,38327,1,8,0:0:0:0:
36,200,38495,6,0,B|76:183|120:198|140:232|140:232|132:184,1,160
216,208,38997,2,0,L|202:129,1,80,8|0,0:0|0:0,0:0:0:0:
152,68,39333,1,2,0:0:0:0:
268,80,39500,2,0,L|254:1,1,80,2|8,0:0|0:0,0:0:0:0:
216,208,39835,6,0,P|288:224|368:160,1,160
432,136,40338,2,0,P|440:176|432:216,1,80,8|0,0:0|0:0,0:0:0:0:
384,358,40673,1,2,0:0:0:0:
384,358,40757,1,0,0:0:0:0:
384,358,40841,2,0,P|376:318|383:279,1,80,2|8,0:0|0:0,0:0:0:0:
456,320,41176,1,0,0:0:0:0:
304,328,41344,6,0,L|216:336,1,80,2|0,0:0|0:0,0:0:0:0:
96,272,41679,2,0,L|176:264,1,80,8|0,0:0|0:0,0:0:0:0:
256,248,42014,2,0,L|248:168,1,80,2|2,0:0|0:0,0:0:0:0:
128,104,42349,2,0,L|135:183,1,80,8|0,0:0|0:0,0:0:0:0:
296,288,42685,6,0,L|280:112,1,160,2|8,0:0|0:0,0:0:0:0:
224,64,43187,1,0,0:0:0:0:
296,112,43355,2,0,P|344:112|392:76,1,80,2|2,0:0|0:0,0:0:0:0:
476,192,43690,2,0,P|428:192|380:156,1,80,8|2,0:0|0:0,0:0:0:0:
452,112,44025,6,0,L|460:28,1,80,2|0,0:0|0:0,0:0:0:0:
348,152,44361,2,0,L|356:236,1,80,8|0,0:0|0:0,0:0:0:0:
432,260,44696,5,2,0:0:0:0:
432,260,44863,1,2,0:0:0:0:
336,364,45031,1,8,0:0:0:0:
336,364,45198,1,0,0:0:0:0:
216,296,45366,6,0,L|216:252,4,40,2|0|0|0|8,0:0|0:0|0:0|0:0|0:0,0:0:0:0:
144,340,45869,1,0,0:0:0:0:
144,216,46036,2,0,B|104:216|104:216|72:200|72:200|16:200,2,120,2|0|0,0:0|0:0|0:0,0:0:0:0:
216,256,46707,6,0,B|246:179|190:179|214:99,1,160,4|8,0:0|0:0,0:0:0:0:
364,122,47210,2,0,P|336:136|288:136,1,80,0|2,0:0|0:0,0:0:0:0:
312,56,47545,1,2,0:0:0:0:
312,56,47629,1,0,0:0:0:0:
312,56,47712,1,8,0:0:0:0:
264,216,47880,5,0,0:0:0:0:
264,216,48048,2,0,B|344:229|344:229|416:192,1,160,2|8,0:0|0:0,0:0:0:0:
464,256,48550,2,0,B|472:296|472:296|464:336,1,80,0|2,0:0|0:0,0:0:0:0:
312,376,48886,2,0,B|304:336|304:336|312:296,1,80,2|8,0:0|0:0,0:0:0:0:
384,328,49221,6,0,B|328:328|328:328|288:344|288:344|224:344,1,160
152,368,49724,1,8,0:0:0:0:
232,352,49891,2,0,P|240:304|232:256,1,80,0|2,0:0|0:0,0:0:0:0:
88,256,50226,2,0,P|80:208|88:160,1,80,2|8,0:0|0:0,0:0:0:0:
232,144,50562,6,0,P|312:144|336:64,1,160
288,16,51064,1,8,0:0:0:0:
424,56,51232,2,0,L|408:144,1,80,0|2,0:0|0:0,0:0:0:0:
488,232,51567,1,2,0:0:0:0:
488,232,51651,1,0,0:0:0:0:
488,232,51735,2,0,L|472:320,1,80,8|0,0:0|0:0,0:0:0:0:
352,336,52070,6,0,P|336:328|264:328,1,80,8|0,0:0|0:0,0:0:0:0:
163,272,52405,1,8,0:0:0:0:
195,344,52573,1,8,0:0:0:0:
112,208,52740,6,0,P|128:200|200:200,1,80,8|8,0:0|0:0,0:0:0:0:
300,144,53076,1,8,0:0:0:0:
268,216,53243,1,8,0:0:0:0:
340,72,53411,6,0,B|260:44|260:100|180:72,1,160,4|0,0:0|0:0,0:0:0:0:
116,24,53914,1,0,0:0:0:0:
108,224,54081,2,0,P|115:161|107:105,2,120,0|0|8,0:0|0:0|0:0,0:0:0:0:
120,304,54752,6,0,B|168:296|168:296|192:304|192:304|252:296,1,120.000004577637,4|2,0:0|0:0,0:0:0:0:
204,224,55254,2,0,L|196:164,1,60.0000022888184,0|8,0:0|0:0,0:0:0:0:
284,232,55590,2,0,P|316:288|292:352,1,120.000004577637,0|2,0:0|0:0,0:0:0:0:
392,324,56092,6,0,P|397:293|392:264,1,60.0000022888184
360,132,56428,2,0,P|354:162|360:192,1,60.0000022888184,2|0,0:0|0:0,0:0:0:0:
288,108,56763,2,0,P|344:108|384:60,1,120.000004577637,8|0,0:0|0:0,0:0:0:0:
436,156,57266,1,0,0:0:0:0:
236,176,57433,6,0,P|216:152|208:104,1,60.0000022888184,2|2,0:0|0:0,0:0:0:0:
124,116,57768,2,0,P|132:88|149:62,1,60.0000022888184,2|0,0:0|0:0,0:0:0:0:
48,92,58104,2,0,B|36:124|48:152|48:152|60:180|48:212,1,120.000004577637,8|0,0:0|0:0,0:0:0:0:
24,292,58606,2,0,L|88:284,1,60.0000022888184,2|0,0:0|0:0,0:0:0:0:
156,324,58942,6,0,L|284:308,1,120.000004577637,8|0,0:0|0:0,0:0:0:0:
344,352,59444,2,0,P|368:312|440:304,1,120.000004577637,8|8,0:0|0:0,0:0:0:0:
500,352,59947,1,0,0:0:0:0:
472,232,60115,6,0,P|464:176|472:112,1,120.000004577637,4|2,0:0|0:0,0:0:0:0:
256,56,60785,1,2,0:0:0:0:
256,56,61120,1,2,0:0:0:0:
40,232,61455,6,0,P|48:176|40:112,1,120.000004577637,2|2,0:0|0:0,0:0:0:0:
256,56,62126,1,2,0:0:0:0:
256,56,62461,1,2,0:0:0:0:
360,256,62796,6,0,B|315:256|315:256|283:240|283:240|243:240,2,120,4|0|0,0:0|0:0|0:0,0:0:0:0:
160,128,63467,2,0,B|200:128|200:128|232:144|232:144|276:144,2,120,8|0|0,0:0|0:0|0:0,0:0:0:0:
184,288,64137,1,8,0:0:0:0:
184,288,64807,6,0,B|144:288|144:288|112:272|112:272|56:272,2,120
256,328,65478,6,0,P|264:248|256:168,1,160,0|12,0:0|0:0,0:0:0:0:
108,100,65981,2,0,P|104:140|108:184,1,80,0|2,0:0|0:0,0:0:0:0:
184,144,66316,1,2,0:0:0:0:
184,144,66400,1,0,0:0:0:0:
184,144,66483,1,8,0:0:0:0:
128,264,66651,1,0,0:0:0:0:
264,248,66819,6,0,P|336:264|360:344,1,160,2|8,0:0|0:0,0:0:0:0:
284,324,67321,1,0,0:0:0:0:
436,360,67489,2,0,P|440:316|436:280,2,80,2|2|8,0:0|0:0|0:0,0:0:0:0:
392,208,67992,6,0,P|384:136|392:48,1,160
464,88,68495,1,8,0:0:0:0:
392,208,68662,2,0,P|352:208|312:192,1,80,0|2,0:0|0:0,0:0:0:0:
179,270,68997,2,0,P|219:270|256:256,1,80,2|8,0:0|0:0,0:0:0:0:
112,312,69333,6,0,B|82:235|138:235|114:155,1,160
32,72,69835,2,0,B|72:80|72:80|111:73,1,80,8|0,0:0|0:0,0:0:0:0:
264,112,70171,1,2,0:0:0:0:
264,112,70254,1,0,0:0:0:0:
264,112,70338,2,0,B|224:104|224:104|184:112,1,80,2|8,0:0|0:0,0:0:0:0:
224,184,70673,1,0,0:0:0:0:
336,152,70841,6,0,P|343:112|335:73,1,80,2|0,0:0|0:0,0:0:0:0:
224,184,71176,2,0,P|217:223|225:262,1,80,8|0,0:0|0:0,0:0:0:0:
296,224,71511,2,0,L|384:232,1,80,2|2,0:0|0:0,0:0:0:0:
256,344,71847,2,0,L|168:336,1,80,8|0,0:0|0:0,0:0:0:0:
264,184,72182,6,0,L|424:200,1,160,2|8,0:0|0:0,0:0:0:0:
476,264,72685,1,0,0:0:0:0:
480,136,72852,2,0,B|488:96|488:96|480:56,1,80,2|2,0:0|0:0,0:0:0:0:
332,40,73187,2,0,B|324:80|324:80|332:120,1,80,8|0,0:0|0:0,0:0:0:0:
408,88,73523,5,8,0:0:0:0:
408,88,73690,1,0,0:0:0:0:
260,152,73858,1,10,0:0:0:0:
260,152,74025,1,0,0:0:0:0:
236,233,74193,6,0,P|275:236|311:219,1,80,2|2,0:0|0:0,0:0:0:0:
176,168,74528,2,0,P|136:164|100:180,1,80,8|0,0:0|0:0,0:0:0:0:
151,245,74863,6,0,L|156:288,3,40,8|0|0|0,0:0|0:0|0:0|0:0,0:0:0:0:
208,344,75198,2,0,L|204:384,3,40,8|0|8|0,0:0|0:0|0:0|0:0,0:0:0:0:
220,332,75534,2,0,B|260:332|260:332|292:348|292:348|348:348,2,120,0|0|0,0:0|0:0|0:0,0:0:0:0:
320,272,76204,6,0,P|368:232|352:136,1,160,4|8,0:0|0:0,0:0:0:0:
216,192,76707,2,0,B|256:200|256:200|296:192,1,80,0|8,0:0|0:0,0:0:0:0:
256,120,77042,1,0,0:0:0:0:
256,120,77126,1,0,0:0:0:0:
256,120,77210,1,8,0:0:0:0:
192,272,77377,1,0,0:0:0:0:
192,272,77545,6,0,P|144:232|160:136,1,160,8|8,0:0|0:0,0:0:0:0:
96,88,78048,1,0,0:0:0:0:
238,113,78215,2,0,L|160:128,1,80,8|0,0:0|0:0,0:0:0:0:
304,160,78550,1,8,0:0:0:0:
228,192,78718,6,0,P|276:240|364:216,1,160
384,144,79221,1,8,0:0:0:0:
464,160,79388,2,0,P|468:200|464:240,1,80,0|8,0:0|0:0,0:0:0:0:
360,300,79724,2,0,P|356:260|360:220,1,80,0|8,0:0|0:0,0:0:0:0:
240,184,80059,6,0,P|247:262|239:342,1,160
312,384,80562,1,8,0:0:0:0:
232,352,80729,2,0,L|152:368,1,80,0|8,0:0|0:0,0:0:0:0:
25,288,81064,1,0,0:0:0:0:
25,288,81148,1,0,0:0:0:0:
25,288,81232,2,0,L|104:304,1,80,8|0,0:0|0:0,0:0:0:0:
72,192,81567,6,0,L|64:112,1,80,8|0,0:0|0:0,0:0:0:0:
120,48,81902,1,8,0:0:0:0:
120,48,82070,1,0,0:0:0:0:
168,168,82238,6,0,L|160:248,1,80,8|0,0:0|0:0,0:0:0:0:
216,312,82573,1,8,0:0:0:0:
216,312,82740,1,0,0:0:0:0:
256,144,82908,6,0,P|308:204|392:184,1,160,8|8,0:0|0:0,0:0:0:0:
336,128,83411,1,0,0:0:0:0:
460,176,83578,2,0,B|460:216|460:216|444:248|444:248|444:292,1,120,2|0,0:0|0:0,0:0:0:0:
452,308,83914,2,0,P|424:292|372:288,1,80,8|8,0:0|0:0,0:0:0:0:
316,336,84249,5,4,0:0:0:0:
256,192,84333,12,0,89612,0:0:0:0:
