osu file format v13

[General]
AudioFilename: SPYAIR - Sakura Mitsu Tsuki.mp3
AudioLeadIn: 1000
PreviewTime: 35310
Countdown: 0
SampleSet: Soft
StackLeniency: 0.3
Mode: 0
LetterboxInBreaks: 0
WidescreenStoryboard: 0

[Editor]
DistanceSpacing: 1.3
BeatDivisor: 4
GridSize: 4
TimelineZoom: 1

[Metadata]
Title:Sakura Mitsutsuki
TitleUnicode:サクラミツツキ
Artist:SPYAIR
ArtistUnicode:SPYAIR
Creator:W h i t e
Version:Zzz's Hard
Source:銀魂´ 延長戦
Tags:Gintama' Enchousen opening MOKIKEN UZ sunrise jump jieusieu [ Zzz ] Sonnyc KantoKun w_h_i_t_e
BeatmapID:374730
BeatmapSetID:149144

[Difficulty]
HPDrainRate:5
CircleSize:4
OverallDifficulty:6
ApproachRate:7
SliderMultiplier:1.40000000596046
SliderTickRate:2

[Events]
//Background and Video events
0,0,"BG.jpg",0,0
Video,-156,"OP.avi"
//Break Periods
//Storyboard Layer 0 (Background)
//Storyboard Layer 1 (Fail)
//Storyboard Layer 2 (Pass)
//Storyboard Layer 3 (Foreground)
//Storyboard Sound Samples

[TimingPoints]
-220,335.195530726257,4,2,1,80,1,0
11846,-100,4,2,1,80,0,0
22572,-100,4,2,2,80,0,0
30953,-100,4,2,2,80,0,0
33298,-100,4,2,1,80,0,0
35981,-100,4,2,1,80,0,1
46539,-100,4,2,1,80,0,0
46707,-100,4,2,1,80,0,1
54752,-100,4,2,1,80,0,0
65813,-100,4,2,1,80,0,1
76036,-100,4,2,1,80,0,0
76204,-100,4,2,1,80,0,1
84249,-100,4,2,1,50,0,0
89611,-100,4,2,1,5,0,0

[Colours]
Combo1 : 17,254,176
Combo2 : 173,255,95
Combo3 : 255,88,100
Combo4 : 255,94,55

[HitObjects]
136,320,11176,6,0,L|136:250,1,70.000000298023,0|0,0:0|0:0,0:0:0:0:
100,168,11511,2,0,P|136:160|172:168,1,70.000000298023,0|0,0:0|0:0,0:0:0:0:
256,192,11847,6,0,P|328:192|376:144,1,140.000000596046,6|0,0:0|0:0,0:0:0:0:
324,24,12349,2,0,P|252:24|204:72,1,140.000000596046
288,108,12852,1,0,0:0:0:0:
256,192,13020,2,0,B|244:228|256:264|256:264|232:288|232:328,1,140.000000596046
324,324,13523,1,0,0:0:0:0:
416,324,13690,1,0,0:0:0:0:
500,288,13858,2,0,P|508:324|500:360,2,70.000000298023
456,208,14361,6,0,P|456:136|504:88,1,140.000000596046
460,8,14863,1,0,0:0:0:0:
460,8,15031,2,0,L|320:8,1,140.000000596046
228,8,15534,1,0,0:0:0:0:
272,88,15701,2,0,P|272:160|224:208,1,140.000000596046
184,288,16204,2,0,P|176:320|184:360,1,70.000000298023
268,324,16539,1,0,0:0:0:0:
268,324,16707,2,0,L|408:324,1,140.000000596046
492,360,17210,6,0,P|500:320|492:288,1,70.000000298023
444,216,17545,1,0,0:0:0:0:
388,144,17712,2,0,P|388:72|436:24,1,140.000000596046
472,108,18215,1,0,0:0:0:0:
388,144,18383,2,0,L|248:144,1,140.000000596046
164,108,18886,2,0,P|156:148|164:180,1,70.000000298023
204,256,19221,2,0,P|212:296|204:328,1,70.000000298023
120,292,19556,1,0,0:0:0:0:
204,256,19724,6,0,L|344:256,1,140.000000596046
436,256,20226,1,0,0:0:0:0:
504,196,20394,2,0,P|504:124|456:76,1,140.000000596046
420,160,20897,1,0,0:0:0:0:
328,160,21064,2,0,L|188:160,1,140.000000596046
96,160,21567,1,0,0:0:0:0:
64,340,21902,1,0,0:0:0:0:
142,288,22070,2,0,L|212:288,1,70.000000298023
304,256,22405,1,0,0:0:0:0:
304,256,22573,6,0,P|304:328|256:376,1,140.000000596046,12|8,0:0|0:0,0:0:0:0:
268,172,23243,2,0,P|340:172|388:220,1,140.000000596046,8|8,0:0|0:0,0:0:0:0:
184,208,23914,2,0,P|184:136|232:88,2,140.000000596046,8|8|8,0:0|0:0|0:0,0:0:0:0:
338,172,24752,2,0,L|268:172,1,70.000000298023,0|8,0:0|0:0,0:0:0:0:
292,260,25087,6,0,B|384:260|384:260|420:224,1,140.000000596046,0|0,0:0|0:0,0:0:0:0:
420,136,25590,1,8,0:0:0:0:
348,80,25757,2,0,L|208:80,1,140.000000596046,0|0,0:0|0:0,0:0:0:0:
116,80,26260,1,8,0:0:0:0:
160,160,26428,2,0,B|160:232|160:232|132:260|132:292,1,140.000000596046
224,300,26930,1,8,0:0:0:0:
316,300,27098,1,0,0:0:0:0:
400,264,27266,2,0,P|408:300|400:336,1,70.000000298023,8|0,0:0|0:0,0:0:0:0:
316,300,27601,1,8,0:0:0:0:
316,300,27768,6,0,B|308:260|316:228|316:228|268:180,1,140.000000596046,0|0,0:0|0:0,0:0:0:0:
204,116,28271,1,8,0:0:0:0:
288,84,28439,2,0,P|360:84|408:36,1,140.000000596046
324,0,28942,1,8,0:0:0:0:
288,84,29109,2,0,L|288:224,1,140.000000596046
288,316,29612,1,8,0:0:0:0:
208,272,29780,2,0,B|136:272|136:272|112:248|68:248,1,140.000000596046
16,176,30282,5,8,0:0:0:0:
16,176,30450,2,0,P|16:104|64:56,2,140.000000596046,0|0|0,0:0|0:0|0:0,0:0:0:0:
100,140,31288,2,0,L|240:140,1,140.000000596046,8|0,0:0|0:0,0:0:0:0:
276,56,31791,2,0,P|324:108|324:176,1,140.000000596046,8|0,0:0|0:0,0:0:0:0:
324,264,32293,2,0,B|361:264|385:240|385:240|457:240,2,140.000000596046,8|8|8,0:0|0:0|0:0,0:0:0:0:
276,56,33299,5,4,0:0:0:0:
256,192,35310,2,0,L|364:192,2,105.000000447034,0|0|0,0:0|0:0|0:0,0:0:0:0:
172,156,35981,6,0,P|172:228|220:276,1,140.000000596046,6|8,0:0|0:0,0:0:0:0:
256,192,36483,1,2,0:0:0:0:
172,156,36651,2,0,L|64:156,2,105.000000447034,2|2|2,0:0|0:0|0:0,0:0:0:0:
256,192,37321,2,0,L|396:192,1,140.000000596046,2|8,0:0|0:0,0:0:0:0:
488,192,37824,1,2,0:0:0:0:
488,284,37992,2,0,P|472:320|448:340,1,70.000000298023,2|2,0:0|0:0,0:0:0:0:
360,320,38327,1,8,0:0:0:0:
360,320,38495,6,0,L|220:320,1,140.000000596046,2|2,0:0|0:0,0:0:0:0:
128,312,38997,1,8,0:0:0:0:
184,240,39165,2,0,P|184:168|136:120,1,140.000000596046,2|2,0:0|0:0,0:0:0:0:
180,40,39668,1,8,0:0:0:0:
180,40,39835,2,0,L|320:40,1,140.000000596046,2|2,0:0|0:0,0:0:0:0:
404,4,40338,2,0,P|412:36|404:76,1,70.000000298023,8|2,0:0|0:0,0:0:0:0:
368,156,40673,2,0,P|368:228|416:276,1,140.000000596046,2|8,0:0|0:0,0:0:0:0:
452,192,41176,6,0,L|488:192,2,35.0000001490115,2|2|2,0:0|0:0|0:0,0:0:0:0:
368,156,41511,1,2,0:0:0:0:
368,156,41679,2,0,L|228:156,1,140.000000596046,8|2,0:0|0:0,0:0:0:0:
136,156,42182,1,2,0:0:0:0:
180,236,42349,2,0,P|180:308|132:356,1,140.000000596046,8|2,0:0|0:0,0:0:0:0:
96,272,42852,1,2,0:0:0:0:
56,188,43020,2,0,P|8:236|8:304,2,140.000000596046,8|2|8,0:0|0:0|0:0,0:0:0:0:
96,272,43858,1,2,0:0:0:0:
96,272,44025,6,0,L|236:272,1,140.000000596046,2|8,0:0|0:0,0:0:0:0:
328,272,44528,1,2,0:0:0:0:
328,272,44696,2,0,P|380:220|380:156,1,140.000000596046,2|8,0:0|0:0,0:0:0:0:
332,80,45198,1,2,0:0:0:0:
332,80,45366,2,0,L|192:80,1,140.000000596046,2|8,0:0|0:0,0:0:0:0:
100,80,45869,1,2,0:0:0:0:
144,160,46036,2,0,L|144:268,2,105.000000447034,2|2|2,0:0|0:0|0:0,0:0:0:0:
100,80,46707,5,6,0:0:0:0:
144,356,47042,1,8,0:0:0:0:
144,264,47210,1,2,0:0:0:0:
224,308,47377,2,0,L|332:308,2,105.000000447034,2|2|2,0:0|0:0|0:0,0:0:0:0:
144,356,48048,1,2,0:0:0:0:
420,308,48383,1,8,0:0:0:0:
328,308,48550,1,2,0:0:0:0:
372,228,48718,2,0,P|372:160|352:132,1,105.000000447034,2|2,0:0|0:0,0:0:0:0:
312,108,49053,2,0,L|240:108,1,70.000000298023,8|2,0:0|0:0,0:0:0:0:
152,108,49388,5,2,0:0:0:0:
60,108,49556,1,2,0:0:0:0:
104,188,49724,1,8,0:0:0:0:
104,188,49891,2,0,P|104:260|56:308,1,140.000000596046,2|2,0:0|0:0,0:0:0:0:
24,224,50394,1,8,0:0:0:0:
104,188,50562,2,0,L|244:188,1,140.000000596046,2|2,0:0|0:0,0:0:0:0:
328,152,51064,2,0,P|336:188|328:224,1,70.000000298023,8|2,0:0|0:0,0:0:0:0:
260,280,51400,2,0,L|120:280,1,140.000000596046,2|8,0:0|0:0,0:0:0:0:
88,96,52070,6,0,L|228:96,1,140.000000596046,6|8,0:0|0:0,0:0:0:0:
320,96,52573,1,2,0:0:0:0:
404,60,52740,2,0,P|412:92|404:132,1,70.000000298023,2|2,0:0|0:0,0:0:0:0:
372,284,53076,2,0,P|364:252|372:212,1,70.000000298023,8|2,0:0|0:0,0:0:0:0:
456,248,53411,1,6,0:0:0:0:
184,248,53914,5,2,0:0:0:0:
184,248,54081,2,0,L|76:248,2,105.000000447034,2|2|2,0:0|0:0|0:0,0:0:0:0:
276,248,54752,5,6,0:0:0:0:
456,248,55087,1,8,0:0:0:0:
316,132,55422,1,2,0:0:0:0:
360,212,55590,2,0,P|360:284|312:332,2,140.000000596046,2|2|2,0:0|0:0|0:0,0:0:0:0:
360,212,56595,5,2,0:0:0:0:
316,132,56763,2,0,P|316:60|364:12,1,140.000000596046,2|8,0:0|0:0,0:0:0:0:
484,60,57266,2,0,P|484:132|436:180,1,140.000000596046,2|2,0:0|0:0,0:0:0:0:
400,96,57768,1,8,0:0:0:0:
400,96,57936,1,2,0:0:0:0:
316,132,58104,6,0,L|176:132,1,140.000000596046,2|8,0:0|0:0,0:0:0:0:
84,132,58606,1,2,0:0:0:0:
132,208,58774,2,0,L|132:280,1,70.000000298023,2|2,0:0|0:0,0:0:0:0:
132,368,59109,1,8,0:0:0:0:
212,328,59277,2,0,B|284:328|284:328|308:304|348:304,1,140.000000596046,2|2,0:0|0:0,0:0:0:0:
436,304,59780,1,8,0:0:0:0:
212,328,60115,6,0,B|140:328|140:328|116:304|76:304,1,140.000000596046,6|2,0:0|0:0,0:0:0:0:
104,124,60785,2,0,B|176:124|176:124|200:148|240:148,1,140.000000596046,2|2,0:0|0:0,0:0:0:0:
240,240,61288,1,0,0:0:0:0:
240,240,61455,2,0,B|168:240|168:240|144:216|104:216,1,140.000000596046,2|2,0:0|0:0,0:0:0:0:
132,36,62126,2,0,B|204:36|204:36|228:60|268:60,1,140.000000596046,2|2,0:0|0:0,0:0:0:0:
356,60,62629,1,2,0:0:0:0:
440,24,62796,2,0,P|440:96|420:124,2,105.000000447034,8|2|2,0:0|0:0|0:0,0:0:0:0:
356,60,63467,2,0,L|248:60,2,105.000000447034,8|2|2,0:0|0:0|0:0,0:0:0:0:
440,24,64137,5,8,0:0:0:0:
80,48,64807,2,4,P|80:120|100:148,2,105.000000447034,2|2|2,0:0|0:0|0:0,0:0:0:0:
164,84,65478,1,2,0:0:0:0:
164,84,65813,6,0,L|236:84,1,70.000000298023,12|2,0:0|0:0,0:0:0:0:
320,116,66148,2,0,P|392:116|440:68,1,140.000000596046,2|8,0:0|0:0,0:0:0:0:
356,32,66651,1,2,0:0:0:0:
320,116,66819,2,0,L|320:256,1,140.000000596046,2|8,0:0|0:0,0:0:0:0:
320,348,67321,1,2,0:0:0:0:
240,304,67489,2,0,P|168:304|140:320,1,105.000000447034,2|2,0:0|0:0,0:0:0:0:
100,340,67824,2,0,P|64:348|28:340,1,70.000000298023,8|2,0:0|0:0,0:0:0:0:
64,256,68159,6,0,L|64:116,1,140.000000596046,2|8,0:0|0:0,0:0:0:0:
120,44,68662,2,0,L|260:44,1,140.000000596046,2|2,0:0|0:0,0:0:0:0:
352,44,69165,1,8,0:0:0:0:
308,124,69333,2,0,P|308:196|356:244,1,140.000000596046,2|2,0:0|0:0,0:0:0:0:
392,160,69835,2,0,L|462:160,1,70.000000298023,8|2,0:0|0:0,0:0:0:0:
308,124,70171,2,0,L|168:124,1,140.000000596046,2|8,0:0|0:0,0:0:0:0:
76,124,70673,6,0,L|40:124,2,35.0000001490115,2|2|6,0:0|0:0|0:0,0:0:0:0:
120,204,71009,1,2,0:0:0:0:
120,204,71176,2,0,P|120:276|72:324,1,140.000000596046,8|2,0:0|0:0,0:0:0:0:
36,240,71679,1,2,0:0:0:0:
120,204,71847,2,0,L|260:204,1,140.000000596046,8|2,0:0|0:0,0:0:0:0:
352,204,72349,1,2,0:0:0:0:
436,168,72517,2,0,P|436:240|388:288,2,140.000000596046,8|2|8,0:0|0:0|0:0,0:0:0:0:
352,204,73355,1,2,0:0:0:0:
268,240,73523,6,0,P|260:200|268:168,1,70.000000298023,8|2,0:0|0:0,0:0:0:0:
289,15,73858,2,0,P|298:49|292:84,1,70.000000298023,8|2,0:0|0:0,0:0:0:0:
204,48,74193,1,8,0:0:0:0:
204,48,74361,2,0,B|132:48|132:48|104:76|72:76,1,140.000000596046,2|2,0:0|0:0,0:0:0:0:
28,156,74863,2,0,P|28:228|76:276,1,140.000000596046,8|8,0:0|0:0,0:0:0:0:
112,192,75366,1,2,0:0:0:0:
204,192,75534,2,0,L|240:192,3,35.0000001490115,0|2|2|2,0:0|0:0|0:0|0:0,0:0:0:0:
284,192,75869,2,0,L|312:220,3,35.0000001490115,8|2|2|2,0:0|0:0|0:0|0:0,0:0:0:0:
348,240,76204,6,0,P|420:240|468:192,1,140.000000596046,6|8,0:0|0:0,0:0:0:0:
384,160,76707,1,2,0:0:0:0:
420,72,76874,2,0,P|380:64|348:72,1,70.000000298023,8|2,0:0|0:0,0:0:0:0:
272,112,77210,2,0,P|232:120|200:112,1,70.000000298023,8|2,0:0|0:0,0:0:0:0:
120,80,77545,2,0,P|48:80|0:128,1,140.000000596046,2|8,0:0|0:0,0:0:0:0:
84,164,78048,1,2,0:0:0:0:
84,256,78215,5,2,0:0:0:0:
84,348,78383,1,2,0:0:0:0:
164,304,78550,2,0,L|236:304,1,70.000000298023,8|0,0:0|0:0,0:0:0:0:
312,352,78886,2,0,L|384:352,1,70.000000298023,2|0,0:0|0:0,0:0:0:0:
460,304,79221,1,8,0:0:0:0:
412,228,79388,6,0,B|412:156|412:156|436:132|436:92,1,140.000000596046,2|2,0:0|0:0,0:0:0:0:
344,92,79891,1,8,0:0:0:0:
344,92,80059,2,0,P|272:92|224:44,1,140.000000596046,2|2,0:0|0:0,0:0:0:0:
144,88,80562,2,0,L|144:160,1,70.000000298023,8|2,0:0|0:0,0:0:0:0:
192,236,80897,2,0,P|192:308|144:356,1,140.000000596046,8|8,0:0|0:0,0:0:0:0:
108,272,81400,1,2,0:0:0:0:
192,236,81567,6,0,L|332:236,1,140.000000596046,6|8,0:0|0:0,0:0:0:0:
424,236,82070,1,2,0:0:0:0:
508,200,82238,2,0,P|516:232|508:272,1,70.000000298023,8|2,0:0|0:0,0:0:0:0:
424,236,82573,2,0,P|424:164|472:116,2,140.000000596046,8|2|8,0:0|0:0|0:0,0:0:0:0:
460,320,83411,1,0,0:0:0:0:
380,364,83578,2,0,L|340:364,3,35.0000001490115,0|0|0|0,0:0|0:0|0:0|0:0,0:0:0:0:
300,352,83914,2,0,L|260:352,3,35.0000001490115,0|0|0|0,0:0|0:0|0:0|0:0,0:0:0:0:
220,343,84249,1,4,0:0:0:0:
256,192,84333,12,0,89612,0:0:0:0:
