osu file format v13

[General]
AudioFilename: SPYAIR - Sakura Mitsu Tsuki.mp3
AudioLeadIn: 1000
PreviewTime: 35310
Countdown: 0
SampleSet: Soft
StackLeniency: 0.4
Mode: 0
LetterboxInBreaks: 0
WidescreenStoryboard: 0

[Editor]
DistanceSpacing: 1.2
BeatDivisor: 4
GridSize: 4
TimelineZoom: 1

[Metadata]
Title:Sakura Mitsutsuki
TitleUnicode:サクラミツツキ
Artist:SPYAIR
ArtistUnicode:SPYAIR
Creator:W h i t e
Version:Sakura
Source:銀魂´ 延長戦
Tags:Gintama' Enchousen opening MOKIKEN UZ sunrise jump jieusieu [ Zzz ] Sonnyc KantoKun w_h_i_t_e
BeatmapID:368558
BeatmapSetID:149144

[Difficulty]
HPDrainRate:6.5
CircleSize:4
OverallDifficulty:8
ApproachRate:9
SliderMultiplier:1.78
SliderTickRate:2

[Events]
//Background and Video events
0,0,"BG.jpg",0,0
Video,-156,"OP.avi"
//Break Periods
//Storyboard Layer 0 (Background)
//Storyboard Layer 1 (Fail)
//Storyboard Layer 2 (Pass)
//Storyboard Layer 3 (Foreground)
//Storyboard Sound Samples

[TimingPoints]
-220,335.195530726257,4,2,3,30,1,0
785,-100,4,2,3,30,0,0
1120,-125,4,2,1,60,0,0
6483,-125,4,2,3,30,0,0
6567,-125,4,2,1,60,0,0
9668,-117.647058823529,4,2,1,60,0,0
10171,-111.111111111111,4,2,1,60,0,0
10673,-105.263157894737,4,2,1,60,0,0
11176,-100,4,2,6,30,0,0
11847,-166.666666666667,4,2,1,30,0,0
11930,-166.666666666667,4,2,6,30,0,0
22573,-111.111111111111,4,2,2,50,0,0
25087,-111.111111111111,4,2,1,50,0,0
25422,-111.111111111111,4,2,2,50,0,0
25925,-111.111111111111,4,2,3,40,0,0
26009,-111.111111111111,4,2,2,50,0,0
26595,-111.111111111111,4,2,3,40,0,0
26679,-111.111111111111,4,2,2,50,0,0
27936,-111.111111111111,4,2,1,50,0,0
28020,-111.111111111111,4,2,2,50,0,0
28606,-111.111111111111,4,2,3,40,0,0
28690,-111.111111111111,4,2,2,50,0,0
29193,-111.111111111111,4,2,3,40,0,0
29361,-111.111111111111,4,2,2,50,0,0
29947,-111.111111111111,4,2,3,40,0,0
30031,-111.111111111111,4,2,2,50,0,0
30450,-111.111111111111,4,2,1,50,0,0
30785,-111.111111111111,4,2,2,50,0,0
33299,-111.111111111111,4,2,6,30,0,0
33383,-111.111111111111,4,2,2,10,0,0
35310,-111.111111111111,4,2,2,60,0,0
35981,-100,4,2,1,60,0,1
36064,-100,4,2,1,90,0,1
40841,-100,4,2,4,80,0,1
40925,-100,4,2,1,90,0,1
43523,-100,4,2,4,90,0,1
43606,-100,4,2,1,90,0,1
46539,-100,4,2,1,90,0,0
46707,-100,4,2,1,60,0,1
46791,-100,4,2,1,90,0,1
51567,-100,4,2,4,80,0,1
51651,-100,4,2,1,90,0,1
52405,-100,4,2,1,50,0,1
52573,-100,4,2,1,55,0,1
52740,-100,4,2,1,60,0,1
52908,-100,4,2,1,65,0,1
53076,-100,4,2,1,70,0,1
53243,-100,4,2,1,75,0,1
53411,-100,4,2,1,70,0,1
54752,-111.111111111111,4,2,1,70,0,0
63131,-111.111111111111,4,2,1,40,0,0
63299,-111.111111111111,4,2,1,45,0,0
63467,-111.111111111111,4,2,1,50,0,0
63634,-111.111111111111,4,2,1,55,0,0
63802,-111.111111111111,4,2,1,60,0,0
63969,-111.111111111111,4,2,1,65,0,0
64136,-111.111111111111,4,2,1,70,0,0
64724,-111.111111111111,4,2,1,5,0,0
64807,-166.666666666667,4,2,1,40,0,0
65813,-83.3333333333333,4,2,1,60,0,1
65897,-83.3333333333333,4,2,1,90,0,1
66148,-100,4,2,1,90,0,1
70338,-100,4,2,4,80,0,1
70422,-100,4,2,1,90,0,1
73020,-100,4,2,4,80,0,1
73104,-100,4,2,1,90,0,1
75198,-100,4,2,1,30,0,1
75366,-100,4,2,1,35,0,1
75534,-100,4,2,1,40,0,1
75701,-100,4,2,1,45,0,1
75869,-100,4,2,1,50,0,1
76036,-100,4,2,1,55,0,0
76204,-90.9090909090909,4,2,1,70,0,1
76288,-90.9090909090909,4,2,1,90,0,1
83243,-90.9090909090909,4,2,1,30,0,1
83411,-90.9090909090909,4,2,1,35,0,1
83578,-90.9090909090909,4,2,1,40,0,1
83746,-90.9090909090909,4,2,1,45,0,1
83914,-90.9090909090909,4,2,1,50,0,1
84081,-90.9090909090909,4,2,1,55,0,1
84249,-125,4,2,1,60,0,0
87433,-117.647058823529,4,2,1,60,0,0
87936,-111.111111111111,4,2,1,60,0,0
88942,-125,4,2,1,60,0,0
89612,-125,4,2,2,20,0,0

[Colours]
Combo1 : 17,254,176
Combo2 : 173,255,95
Combo3 : 255,88,100
Combo4 : 255,94,55

[HitObjects]
312,96,785,5,8,0:0:0:0:
313,99,869,1,8,0:0:0:0:
314,102,953,1,8,0:0:0:0:
315,105,1036,1,8,0:0:0:0:
316,108,1120,6,0,L|420:100,1,71.2,2|0,0:0|0:0,0:0:0:0:
472,96,1455,1,2,0:0:0:0:
264,28,1623,6,0,P|236:60|228:92,1,71.2,0|8,0:0|0:0,0:0:0:0:
248,176,1958,1,0,0:0:0:0:
156,52,2126,6,0,P|147:93|156:125,1,71.2,0|2,0:0|0:0,0:0:0:0:
244,192,2461,1,0,0:0:0:0:
76,128,2629,6,0,P|89:168|113:191,1,71.2,8|2,0:0|0:0,0:0:0:0:
240,208,2964,1,0,0:0:0:0:
156,312,3131,5,8,0:0:0:0:
328,248,3299,1,0,0:0:0:0:
236,224,3467,1,2,0:0:0:0:
358,354,3634,1,8,0:0:0:0:
508,260,3802,6,0,P|505:226|504:188,1,71.2,2|8,0:0|0:0,0:0:0:0:
512,100,4137,1,2,0:0:0:0:
361,103,4305,6,0,P|326:111|291:107,1,71.2,0|8,0:0|0:0,0:0:0:0:
436,56,4640,1,0,0:0:0:0:
288,192,4807,6,0,P|253:182|225:161,1,71.2,0|2,0:0|0:0,0:0:0:0:
436,148,5143,1,0,0:0:0:0:
180,236,5310,6,0,P|155:210|141:178,1,71.2,8|2,0:0|0:0,0:0:0:0:
376,216,5645,1,0,0:0:0:0:
276,308,5813,5,2,0:0:0:0:
412,348,5981,1,8,0:0:0:0:
412,348,6148,1,8,0:0:0:0:
288,216,6316,1,8,0:0:0:0:
285,218,6400,1,0,0:0:0:0:
282,220,6483,6,0,L|211:215,1,71.2,8|0,0:0|0:0,0:0:0:0:
120,208,6819,1,2,0:0:0:0:
28,316,6986,5,0,0:0:0:0:
156,292,7154,1,8,0:0:0:0:
156,292,7321,1,0,0:0:0:0:
260,136,7489,5,0,0:0:0:0:
84,124,7657,1,2,0:0:0:0:
84,124,7824,1,0,0:0:0:0:
212,216,7992,5,8,0:0:0:0:
304,56,8159,1,2,0:0:0:0:
206,198,8327,1,0,0:0:0:0:
324,52,8495,6,0,L|396:56,1,71.2,8|0,0:0|0:0,0:0:0:0:
280,148,8830,2,0,L|352:144,1,71.2,2|8,0:0|0:0,0:0:0:0:
460,184,9165,6,0,B|468:164|468:164|471:135|460:108,1,71.2,0|8,0:0|0:0,0:0:0:0:
412,260,9500,1,2,0:0:0:0:
289,297,9668,6,0,P|253:307|216:304,1,75.6500014429093,0|8,0:0|0:0,0:0:0:0:
128,276,10003,1,0,0:0:0:0:
182,138,10171,6,0,P|198:174|194:230,1,80.0999975555421,0|2,0:0|0:0,0:0:0:0:
144,364,10506,1,0,0:0:0:0:
53,233,10673,6,0,P|80:204|145:192,1,84.5499977422715,8|2,0:0|0:0,0:0:0:0:
280,164,11009,1,0,0:0:0:0:
412,260,11176,5,2,0:0:0:0:
380,152,11344,1,0,0:0:0:0:
488,312,11511,1,2,0:0:0:0:
500,200,11679,1,0,0:0:0:0:
404,352,11847,6,0,L|340:356,1,53.3999983703614,6|0,2:0|0:0,0:0:0:0:
228,372,12182,1,2,0:0:0:0:
131,318,12349,2,0,P|160:289|218:262,1,106.799996740723,0|0,0:0|0:0,0:0:0:0:
312,264,12852,1,2,0:0:0:0:
360,84,13020,6,0,P|372:124|368:188,1,106.799996740723,0|0,0:0|0:0,0:0:0:0:
312,264,13523,1,2,0:0:0:0:
404,276,13690,1,0,0:0:0:0:
180,164,13858,5,0,0:0:0:0:
272,176,14025,1,0,0:0:0:0:
238,91,14193,1,2,0:0:0:0:
217,251,14361,2,0,L|225:307,2,53.3999983703614
368,188,14863,5,2,0:0:0:0:
312,264,15031,2,0,B|316:308|316:308|320:324|320:324|324:372,1,106.799996740723
217,251,15534,1,2,0:0:0:0:
404,276,15701,2,0,P|414:271|462:192,1,106.799996740723
452,96,16204,2,0,L|456:20,1,53.3999983703614,2|0,0:0|0:0,0:0:0:0:
364,136,16539,2,0,L|367:189,1,53.3999983703614
296,64,16874,1,2,0:0:0:0:
268,160,17042,6,0,L|256:213,1,53.3999983703614
172,104,17377,2,0,L|175:157,1,53.3999983703614,0|2,0:0|0:0,0:0:0:0:
212,292,17712,2,0,B|244:308|288:304|316:280,1,106.799996740723
128,236,18215,1,2,0:0:0:0:
16,348,18383,2,0,L|122:341,1,106.799996740723
212,292,18886,2,0,P|216:264|208:216,1,53.3999983703614,2|0,0:0|0:0,0:0:0:0:
44,212,19221,2,0,P|42:238|46:264,1,53.3999983703614
122,341,19556,1,2,0:0:0:0:
108,148,19724,6,0,L|104:92,1,53.3999983703614
208,212,20059,2,0,L|211:158,1,53.3999983703614,0|2,0:0|0:0,0:0:0:0:
148,24,20394,2,0,B|116:8|72:12|44:36,1,106.799996740723
224,68,20897,1,2,0:0:0:0:
300,116,21064,2,0,P|340:120|380:108,1,80.0999975555421
395,95,21400,2,0,L|399:39,1,53.3999983703614,0|2,0:0|0:0,0:0:0:0:
416,192,21735,1,0,0:0:0:0:
320,216,21902,5,0,0:0:0:0:
488,120,22070,1,0,0:0:0:0:
492,316,22238,1,2,0:0:0:0:
416,192,22405,1,0,0:0:0:0:
344,324,22573,6,0,L|264:320,1,80.0999975555421,4|0,0:0|0:0,0:0:0:0:
76,212,22908,2,0,L|156:208,1,80.0999975555421,8|0,0:0|0:0,0:0:0:0:
292,164,23243,1,8,0:0:0:0:
192,64,23411,1,0,0:0:0:0:
292,164,23578,2,0,P|300:204|292:248,1,80.0999975555421,8|0,0:0|0:0,0:0:0:0:
176,356,23914,6,0,P|135:354|96:353,1,80.0999975555421,8|0,0:0|0:0,0:0:0:0:
52,152,24249,1,8,0:0:0:0:
144,212,24416,2,0,L|184:210|224:208,1,80.0999975555421,0|8,0:0|0:0,0:0:0:0:
368,112,24752,1,0,0:0:0:0:
368,112,24835,1,0,0:0:0:0:
368,112,24919,1,8,0:0:0:0:
240,216,25087,1,2,0:0:0:0:
216,52,25254,6,0,P|256:44|300:52,1,80.0999975555421,2|0,0:0|0:0,0:0:0:0:
464,104,25590,1,8,0:0:0:0:
404,268,25757,2,0,B|424:212|388:164|388:164|404:184|428:192,1,160.199995111084
464,104,26260,1,8,0:0:0:0:
324,228,26428,2,0,B|264:224|264:224|224:232|224:232|164:228,1,160.199995111084
68,352,26930,2,0,L|148:348,1,80.0999975555421,8|0,0:0|0:0,0:0:0:0:
243,272,27266,2,0,P|252:234|248:194,1,80.0999975555421,8|0,0:0|0:0,0:0:0:0:
204,112,27601,1,8,0:0:0:0:
164,228,27768,1,0,0:0:0:0:
276,280,27936,6,0,L|356:276,1,80.0999975555421,2|0,0:0|0:0,0:0:0:0:
176,352,28271,1,8,0:0:0:0:
176,352,28439,2,0,P|96:348|40:296,1,160.199995111084
12,156,28942,1,8,0:0:0:0:
140,96,29109,6,0,L|136:256,1,160.199995111084
284,284,29612,1,8,0:0:0:0:
236,140,29780,2,0,P|244:80|220:24,1,120.149996333313
208,8,30115,2,0,P|240:28|288:32,1,80.0999975555421,0|8,0:0|0:0,0:0:0:0:
500,52,30450,5,2,0:0:0:0:
500,52,30617,2,0,P|460:45|420:56,1,80.0999975555421,2|0,0:0|0:0,0:0:0:0:
336,248,30953,2,0,L|332:168,1,80.0999975555421,8|0,0:0|0:0,0:0:0:0:
384,332,31288,2,0,P|312:340|244:284,1,160.199995111084,8|8,0:0|0:0,0:0:0:0:
188,156,31791,1,0,0:0:0:0:
332,168,31958,6,0,L|336:248,1,80.0999975555421,8|0,0:0|0:0,0:0:0:0:
160,324,32293,2,0,P|154:285|164:244,1,80.0999975555421,8|0,0:0|0:0,0:0:0:0:
232,164,32629,1,8,0:0:0:0:
247,288,32796,1,0,0:0:0:0:
132,236,32964,6,0,P|112:196|116:120,1,120.149996333313,8|0,0:0|0:0,0:0:0:0:
115,122,33299,1,4,0:0:0:0:
256,192,33383,12,0,34975,0:0:0:0:
384,176,35310,6,0,B|476:168|476:168|452:156,1,120.149996333313
384,96,35645,2,0,P|344:104|314:128,1,80.0999975555421
268,256,35981,6,0,B|336:252|336:252|384:264|384:264|480:256,1,178,4|8,0:0|0:0,0:0:0:0:
444,259,36483,1,0,0:0:0:0:
280,344,36651,1,2,0:0:0:0:
296,156,36819,1,2,0:0:0:0:
356,280,36986,2,0,P|376:320|372:380,1,89,8|0,0:0|0:0,0:0:0:0:
216,196,37321,6,0,P|208:144|252:76,1,133.5,2|0,0:0|0:0,0:0:0:0:
268,68,37657,2,0,P|224:80|180:76,1,89,8|0,0:0|0:0,0:0:0:0:
60,36,37992,1,2,0:0:0:0:
88,160,38159,2,0,L|80:248,1,89,2|8,0:0|0:0,0:0:0:0:
280,344,38495,6,0,L|272:256,1,89,0|2,0:0|0:0,0:0:0:0:
112,120,38830,2,0,L|104:208,1,89,0|8,0:0|0:0,0:0:0:0:
88,332,39165,1,0,0:0:0:0:
200,284,39333,1,2,0:0:0:0:
104,208,39500,1,2,0:0:0:0:
168,360,39668,1,8,0:0:0:0:
328,324,39835,6,0,P|372:320|416:332,1,89,0|2,0:0|0:0,0:0:0:0:
476,124,40171,1,0,0:0:0:0:
388,184,40338,2,0,P|345:195|301:191,1,89,8|0,0:0|0:0,0:0:0:0:
304,344,40673,2,0,P|369:332|432:352,1,133.5,2|0,0:0|0:0,0:0:0:0:
448,364,41009,1,8,0:0:0:0:
196,264,41176,1,0,0:0:0:0:
184,268,41260,1,8,0:0:0:0:
172,272,41344,6,0,L|84:268,1,89,2|0,0:0|0:0,0:0:0:0:
0,200,41679,1,8,0:0:0:0:
68,372,41847,1,0,0:0:0:0:
188,231,42014,2,0,P|192:187|183:144,1,89,2|2,0:0|0:0,0:0:0:0:
136,44,42349,1,8,0:0:0:0:
248,56,42517,1,0,0:0:0:0:
248,56,42601,1,0,0:0:0:0:
248,56,42685,6,0,L|336:44,1,89,2|0,0:0|0:0,0:0:0:0:
100,124,43020,2,0,L|12:112,1,89,8|0,0:0|0:0,0:0:0:0:
240,152,43355,2,0,L|373:134,1,133.5,2|0,0:0|0:0,0:0:0:0:
440,172,43690,2,0,P|449:129|431:81,1,89,8|0,0:0|0:0,0:0:0:0:
373,134,43942,1,8,0:0:0:0:
373,134,44025,6,0,P|378:217|464:244,1,178,2|8,0:0|0:0,0:0:0:0:
304,268,44528,1,0,0:0:0:0:
304,268,44612,1,8,0:0:0:0:
304,268,44696,2,0,L|216:256,1,89,2|2,0:0|0:0,0:0:0:0:
48,196,45031,2,0,L|136:184,1,89,8|0,0:0|0:0,0:0:0:0:
244,20,45366,6,0,P|252:63|248:107,1,89,2|2,0:0|0:0,0:0:0:0:
132,272,45701,2,0,P|127:227|136:184,1,89,8|0,0:0|0:0,0:0:0:0:
173,115,45953,1,8,0:0:0:0:
173,115,46036,2,0,L|85:103,1,89,2|2,0:0|0:0,0:0:0:0:
252,232,46372,2,0,L|340:220,1,89,8|0,0:0|0:0,0:0:0:0:
460,120,46707,6,0,P|392:132|308:72,1,178,4|8,0:0|0:0,0:0:0:0:
407,32,47210,1,0,0:0:0:0:
436,224,47377,1,2,0:0:0:0:
460,120,47545,1,2,0:0:0:0:
344,276,47712,2,0,L|352:364,1,89,8|0,0:0|0:0,0:0:0:0:
216,168,48048,6,0,L|228:35,1,133.5,2|0,0:0|0:0,0:0:0:0:
232,8,48383,2,0,P|212:48|176:72,1,89,8|0,0:0|0:0,0:0:0:0:
64,140,48718,1,2,0:0:0:0:
176,208,48886,2,0,L|264:200,1,89,2|8,0:0|0:0,0:0:0:0:
88,152,49221,6,0,L|0:144,1,89,0|2,0:0|0:0,0:0:0:0:
224,236,49556,2,0,L|312:228,1,89,0|8,0:0|0:0,0:0:0:0:
432,264,49891,1,0,0:0:0:0:
407,142,50059,1,2,0:0:0:0:
308,248,50226,1,2,0:0:0:0:
283,370,50394,1,8,0:0:0:0:
432,264,50562,6,0,P|436:216|424:176,1,89,0|2,0:0|0:0,0:0:0:0:
328,100,50897,1,0,0:0:0:0:
224,236,51064,2,0,L|312:228,1,89,8|0,0:0|0:0,0:0:0:0:
164,120,51400,2,0,P|96:128|40:100,1,133.5,2|0,0:0|0:0,0:0:0:0:
24,84,51735,1,8,0:0:0:0:
64,220,51902,1,0,0:0:0:0:
64,220,51986,1,0,0:0:0:0:
64,220,52070,1,8,0:0:0:0:
477,192,52405,5,8,0:0:0:0:
370,202,52573,1,8,0:0:0:0:
432,289,52740,1,8,0:0:0:0:
458,167,52908,5,8,0:0:0:0:
356,264,53076,1,8,0:0:0:0:
492,299,53243,1,8,0:0:0:0:
324,120,53411,5,12,0:0:0:0:
324,120,53914,5,0,0:0:0:0:
356,264,54081,1,0,0:0:0:0:
200,104,54249,1,2,0:0:0:0:
202,107,54333,1,0,0:0:0:0:
204,110,54416,1,8,0:0:0:0:
252,220,54584,1,0,0:0:0:0:
12,164,54752,6,0,P|52:156|96:160,1,80.0999975555421,4|0,0:0|0:0,0:0:0:0:
208,300,55087,2,0,P|132:316|60:280,2,160.199995111084,0|8|2,0:0|0:0|0:0,0:0:0:0:
300,252,55925,1,0,0:0:0:0:
216,192,56092,1,2,0:0:0:0:
388,308,56260,1,0,0:0:0:0:
304,148,56428,1,2,0:0:0:0:
296,356,56595,1,0,0:0:0:0:
392,204,56763,6,0,P|404:136|360:60,1,160.199995111084,8|2,0:0|0:0,0:0:0:0:
256,56,57266,2,0,B|232:48|232:48|176:52,1,80.0999975555421,0|2,0:0|0:0,0:0:0:0:
0,92,57601,2,0,B|22:104|22:104|78:109,1,80.0999975555421,2|2,0:0|0:0,0:0:0:0:
160,192,57936,1,0,0:0:0:0:
104,276,58104,6,0,P|176:284|248:236,1,160.199995111084,8|0,0:0|0:0,0:0:0:0:
304,148,58606,1,2,0:0:0:0:
356,236,58774,1,2,0:0:0:0:
160,192,58942,2,0,P|120:180|64:184,1,80.0999975555421,8|0,0:0|0:0,0:0:0:0:
132,368,59277,1,0,0:0:0:0:
132,368,59444,2,0,P|171:367|210:356,1,80.0999975555421,8|0,0:0|0:0,0:0:0:0:
356,236,59780,1,8,0:0:0:0:
248,256,59947,1,0,0:0:0:0:
320,336,60115,6,0,L|436:332,1,80.0999975555421,4|0,0:0|0:0,0:0:0:0:
248,256,60450,2,0,P|168:276|96:232,2,160.199995111084,2|2|2,0:0|0:0|0:0,0:0:0:0:
288,152,61288,1,0,0:0:0:0:
183,171,61455,6,0,P|183:132|198:95,1,80.0999975555421,2|0,0:0|0:0,0:0:0:0:
324,28,61791,2,0,B|388:24|388:24|420:32|420:32|484:28,2,160.199995111084,2|2|2,0:0|0:0|0:0,0:0:0:0:
324,28,62629,1,0,0:0:0:0:
412,140,62796,5,4,0:0:0:0:
224,152,62964,1,0,0:0:0:0:
216,164,63048,1,0,0:0:0:0:
208,176,63131,2,0,P|248:184|296:176,1,80.0999975555421,8|8,0:0|0:0,0:0:0:0:
424,48,63467,5,8,0:0:0:0:
388,220,63634,1,8,0:0:0:0:
324,28,63802,1,8,0:0:0:0:
456,144,63969,1,8,0:0:0:0:
252,104,64137,6,0,P|136:136|184:256,1,280.349991444397,8|0,0:0|0:0,0:0:0:0:
196,260,64807,6,0,L|114:253,2,80.0999975555421,0|0|0,0:0|0:0|0:0,0:0:0:0:
288,200,65478,2,0,P|327:200|365:185,1,80.0999975555421,0|0,0:0|0:0,0:0:0:0:
384,168,65813,6,0,L|380:276,1,106.799996740723,12|0,0:0|0:0,0:0:0:0:
495,324,66148,1,2,0:0:0:0:
480,200,66316,1,2,0:0:0:0:
477,196,66400,1,0,0:0:0:0:
474,192,66483,2,0,L|476:104,1,89,8|0,0:0|0:0,0:0:0:0:
316,28,66819,6,0,L|332:160,1,133.5,2|0,0:0|0:0,0:0:0:0:
344,240,67154,2,0,P|304:236|261:199,1,89,8|0,0:0|0:0,0:0:0:0:
216,92,67489,1,2,0:0:0:0:
136,232,67657,2,0,L|132:320,1,89,2|8,0:0|0:0,0:0:0:0:
208,120,67992,6,0,L|204:32,1,89,0|2,0:0|0:0,0:0:0:0:
4,124,68327,2,0,L|0:212,1,89,0|8,0:0|0:0,0:0:0:0:
112,80,68662,1,0,0:0:0:0:
96,196,68830,1,2,0:0:0:0:
200,148,68997,1,2,0:0:0:0:
4,124,69165,1,8,0:0:0:0:
200,148,69333,6,0,P|248:152|288:148,1,89,0|2,0:0|0:0,0:0:0:0:
428,108,69668,1,0,0:0:0:0:
392,252,69835,2,0,P|347:247|303:251,1,89,8|0,0:0|0:0,0:0:0:0:
76,344,70171,2,0,P|136:356|204:336,1,133.5,2|0,0:0|0:0,0:0:0:0:
204,336,70506,1,8,0:0:0:0:
124,166,70673,1,0,0:0:0:0:
126,169,70757,1,8,0:0:0:0:
128,172,70841,6,0,L|136:261,1,89,2|0,0:0|0:0,0:0:0:0:
144,68,71176,1,8,0:0:0:0:
48,104,71344,1,0,0:0:0:0:
224,132,71511,2,0,P|268:135|316:132,1,89,2|2,0:0|0:0,0:0:0:0:
444,100,71847,1,8,0:0:0:0:
408,232,72014,1,0,0:0:0:0:
410,235,72098,1,0,0:0:0:0:
412,238,72182,6,0,B|424:270|424:270|420:326,1,89,2|0,0:0|0:0,0:0:0:0:
312,132,72517,2,0,B|300:100|300:100|304:44,1,89,8|0,0:0|0:0,0:0:0:0:
316,236,72852,2,0,P|264:224|212:164,1,133.5,2|0,0:0|0:0,0:0:0:0:
218,80,73187,2,0,L|129:86,1,89,8|0,0:0|0:0,0:0:0:0:
129,86,73439,1,0,0:0:0:0:
129,86,73523,5,8,0:0:0:0:
115,202,73690,1,0,0:0:0:0:
22,132,73858,1,8,0:0:0:0:
184,151,74025,1,0,0:0:0:0:
88,284,74193,5,2,0:0:0:0:
22,132,74361,1,8,0:0:0:0:
199,260,74528,2,0,B|227:252|227:252|303:256,1,89
448,328,74863,6,0,P|468:244|432:160,1,178,8|0,0:0|0:0,0:0:0:0:
416,148,75282,1,8,0:0:0:0:
396,140,75366,1,8,0:0:0:0:
376,136,75450,1,8,0:0:0:0:
332,132,75534,5,8,0:0:0:0:
304,156,75617,1,8,0:0:0:0:
272,172,75701,1,8,0:0:0:0:
240,184,75785,1,8,0:0:0:0:
204,184,75869,1,8,0:0:0:0:
168,176,75953,1,8,0:0:0:0:
140,156,76036,1,8,0:0:0:0:
116,128,76120,1,8,0:0:0:0:
100,92,76204,6,0,B|104:128|104:128|100:156|80:184,1,97.900002987671,4|0,0:0|0:0,0:0:0:0:
264,28,76539,2,0,B|230:42|230:42|203:47|170:37,1,97.900002987671,8|0,0:0|0:0,0:0:0:0:
377,148,76874,2,0,B|353:121|353:121|339:96|339:62,1,97.900002987671,8|0,0:0|0:0,0:0:0:0:
335,294,77210,2,0,B|353:262|353:262|372:242|405:231,1,97.900002987671,8|0,0:0|0:0,0:0:0:0:
183,298,77545,6,0,B|218:306|218:306|244:318|264:346,1,97.900002987671,8|0,0:0|0:0,0:0:0:0:
512,320,77880,2,0,P|472:328|416:312,1,97.900002987671,8|0,0:0|0:0,0:0:0:0:
256,192,78215,1,8,0:0:0:0:
432,116,78383,1,0,0:0:0:0:
418,313,78550,1,8,0:0:0:0:
328,116,78718,1,0,0:0:0:0:
112,144,78886,6,0,B|144:131|168:104|172:68,1,97.900002987671,8|0,0:0|0:0,2:0:0:0:
165,314,79221,2,0,B|164:279|145:248|112:233,1,97.900002987671,8|0,0:0|0:0,2:0:0:0:
344,315,79556,2,0,B|311:306|275:314|251:341,1,97.900002987671,8|0,0:0|0:0,2:0:0:0:
400,146,79891,2,0,B|381:174|378:211|396:242,1,97.900002987671,8|0,0:0|0:0,2:0:0:0:
400,248,80143,1,0,0:0:0:0:
408,256,80226,6,0,L|508:260,1,97.900002987671,8|0,0:0|0:0,0:0:0:0:
343,74,80562,2,0,B|312:81|278:67|257:40,1,97.900002987671,8|0,0:0|0:0,2:0:0:0:
436,60,80897,1,8,0:0:0:0:
210,167,81064,2,0,L|308:164,1,97.900002987671,0|8,0:0|0:0,0:0:0:0:
128,68,81400,1,0,0:0:0:0:
260,244,81567,6,0,P|220:300|236:376,1,146.850004481506,8|0,0:0|0:0,0:0:0:0:
300,320,81902,2,0,L|400:324,1,97.900002987671,8|0,0:0|0:0,0:0:0:0:
147,328,82238,2,0,L|235:373,1,97.900002987671,8|0,0:0|0:0,0:0:0:0:
4,272,82573,2,0,L|65:351,1,97.900002987671,8|0,0:0|0:0,0:0:0:0:
112,172,82908,6,0,B|91:149|85:111|98:79,1,97.900002987671,8|0,0:0|0:0,2:0:0:0:
216,116,83243,1,8,0:0:0:0:
241,126,83327,1,8,0:0:0:0:
268,133,83411,1,8,0:0:0:0:
296,135,83495,1,8,0:0:0:0:
324,132,83578,1,8,0:0:0:0:
351,125,83662,1,8,0:0:0:0:
377,113,83746,1,8,0:0:0:0:
400,98,83830,1,8,0:0:0:0:
420,78,83914,5,8,0:0:0:0:
451,107,83997,1,8,0:0:0:0:
469,148,84081,1,8,0:0:0:0:
470,192,84165,1,8,0:0:0:0:
455,236,84249,6,0,L|384:232,1,71.2,4|0,0:0|0:0,0:0:0:0:
284,224,84584,1,2,0:0:0:0:
360,380,84752,6,0,L|328:315,1,71.2,0|8,0:0|0:0,0:0:0:0:
276,216,85087,1,0,0:0:0:0:
180,372,85254,6,0,L|219:312,1,71.2,0|2,0:0|0:0,0:0:0:0:
268,208,85590,1,0,0:0:0:0:
84,216,85757,6,0,L|155:220,1,71.2,8|2,0:0|0:0,0:0:0:0:
260,200,86092,1,0,0:0:0:0:
188,120,86260,5,8,0:0:0:0:
280,100,86428,1,0,0:0:0:0:
252,192,86595,1,2,0:0:0:0:
221,34,86763,1,8,0:0:0:0:
372,88,86930,6,0,B|380:112|380:112|376:160,1,71.2,0|8,0:0|0:0,0:0:0:0:
364,264,87266,1,2,0:0:0:0:
492,156,87433,6,0,B|486:183|486:183|457:221,1,75.6500014429093,0|8,0:0|0:0,0:0:0:0:
356,276,87768,1,0,0:0:0:0:
137,339,87936,6,0,L|217:334,1,80.0999975555421,0|2,0:0|0:0,0:0:0:0:
348,288,88271,1,0,0:0:0:0:
247,204,88439,5,8,0:0:0:0:
312,140,88606,1,0,0:0:0:0:
340,300,88774,1,0,0:0:0:0:
156,188,88942,6,0,L|84:184,1,71.2,2|8,0:0|0:0,0:0:0:0:
12,84,89277,1,8,0:0:0:0:
136,64,89444,2,0,L|208:60,1,71.2,8|0,0:0|0:0,0:0:0:0:
