osu file format v13

[General]
AudioFilename: SPYAIR - Sakura Mitsu Tsuki.mp3
AudioLeadIn: 1000
PreviewTime: 35310
Countdown: 0
SampleSet: Soft
StackLeniency: 0.5
Mode: 0
LetterboxInBreaks: 0
WidescreenStoryboard: 0

[Editor]
Bookmarks: 11171
DistanceSpacing: 1.2
BeatDivisor: 4
GridSize: 4
TimelineZoom: 1

[Metadata]
Title:Sakura Mitsutsuki
TitleUnicode:サクラミツツキ
Artist:SPYAIR
ArtistUnicode:SPYAIR
Creator:W h i t e
Version:Easy
Source:銀魂´ 延長戦
Tags:Gintama' Enchousen opening MOKIKEN UZ sunrise jump jieusieu [ Zzz ] Sonnyc KantoKun w_h_i_t_e
BeatmapID:378204
BeatmapSetID:149144

[Difficulty]
HPDrainRate:1.2
CircleSize:3
OverallDifficulty:1.2
ApproachRate:3
SliderMultiplier:0.80000000596046
SliderTickRate:1

[Events]
//Background and Video events
0,0,"BG.jpg",0,0
Video,-156,"OP.avi"
//Break Periods
//Storyboard Layer 0 (Background)
//Storyboard Layer 1 (Fail)
//Storyboard Layer 2 (Pass)
//Storyboard Layer 3 (Foreground)
//Storyboard Sound Samples

[TimingPoints]
-220,335.195530726257,4,2,0,50,1,0
11846,-100,4,2,1,50,0,0
11930,-100,4,2,6,30,0,0
22908,-100,4,2,3,50,0,0
23578,-100,4,2,2,60,0,0
24249,-100,4,2,3,50,0,0
24919,-100,4,2,2,60,0,0
25254,-100,4,2,1,60,0,0
25589,-100,4,2,2,60,0,0
25925,-100,4,2,3,50,0,0
26595,-100,4,2,2,60,0,0
27266,-100,4,2,3,50,0,0
27936,-100,4,2,1,60,0,0
28271,-100,4,2,2,60,0,0
28606,-100,4,2,3,50,0,0
29277,-100,4,2,2,60,0,0
30450,-100,4,2,1,60,0,0
30953,-100,4,2,3,50,0,0
31623,-100,4,2,2,70,0,0
35981,-100,4,2,1,60,0,1
36148,-100,4,2,5,70,0,1
36483,-100,4,2,1,80,0,1
37489,-100,4,2,5,70,0,1
37824,-100,4,2,1,80,0,1
38829,-100,4,2,5,70,0,1
39164,-100,4,2,1,80,0,1
39499,-100,4,2,5,70,0,1
39835,-100,4,2,1,80,0,1
41511,-100,4,2,5,70,0,1
41846,-100,4,2,1,80,0,1
42851,-100,4,2,5,70,0,1
43187,-100,4,2,1,80,0,1
44192,-100,4,2,5,70,0,1
44527,-100,4,2,1,80,0,1
44863,-100,4,2,5,70,0,1
45198,-100,4,2,1,80,0,1
46539,-100,4,2,1,80,0,0
46707,-100,4,2,1,80,0,1
46874,-100,4,2,5,70,0,1
47209,-100,4,2,1,80,0,1
48214,-100,4,2,5,70,0,1
48550,-100,4,2,1,80,0,1
49555,-100,4,2,5,70,0,1
49890,-100,4,2,1,80,0,1
50896,-100,4,2,5,70,0,1
51231,-100,4,2,1,80,0,1
52070,-100,4,2,1,50,0,1
52405,-100,4,2,5,55,0,1
52740,-100,4,2,5,60,0,1
53076,-100,4,2,1,65,0,1
53411,-100,4,2,1,70,0,1
54752,-100,4,2,1,60,0,0
54919,-100,4,2,1,80,0,0
56259,-100,4,2,4,70,0,0
56594,-100,4,2,5,70,0,0
56930,-100,4,2,1,80,0,0
58941,-100,4,2,4,70,0,0
59276,-100,4,2,5,70,0,0
59611,-100,4,2,1,80,0,0
60115,-100,4,2,1,60,0,0
60282,-100,4,2,1,80,0,0
62796,-100,4,2,1,50,0,0
63131,-100,4,2,5,55,0,0
63383,-100,4,2,1,55,0,0
63550,-100,4,2,5,60,0,0
63802,-100,4,2,5,65,0,0
64137,-100,4,2,1,70,0,0
65813,-100,4,2,1,80,0,1
66986,-100,4,2,5,70,0,1
67321,-100,4,2,1,80,0,1
68327,-100,4,2,5,70,0,1
68662,-100,4,2,1,80,0,1
68997,-100,4,2,5,70,0,1
69333,-100,4,2,1,80,0,1
71009,-100,4,2,5,70,0,1
71344,-100,4,2,1,80,0,1
72349,-100,4,2,5,70,0,1
72685,-100,4,2,1,80,0,1
73690,-100,4,2,5,70,0,1
74025,-100,4,2,1,80,0,1
74361,-100,4,2,5,70,0,1
74696,-100,4,2,1,80,0,1
76036,-100,4,2,1,80,0,0
76204,-100,4,2,1,60,0,1
76372,-100,4,2,5,70,0,1
76707,-100,4,2,1,80,0,1
77042,-100,4,2,5,70,0,1
77377,-100,4,2,1,80,0,1
79053,-100,4,2,5,70,0,1
79388,-100,4,2,1,80,0,1
79724,-100,4,2,5,70,0,1
80059,-100,4,2,1,80,0,1
81735,-100,4,2,5,70,0,1
82070,-100,4,2,1,80,0,1
82405,-100,4,2,5,70,0,1
82740,-100,4,2,1,80,0,1
84249,-100,4,2,1,80,0,0
89612,-100,4,2,1,5,0,0

[Colours]
Combo1 : 17,254,176
Combo2 : 173,255,95
Combo3 : 255,88,100
Combo4 : 255,94,55

[HitObjects]
148,104,11176,5,0,0:0:0:0:
52,102,11511,1,2,0:0:0:0:
96,188,11847,6,0,P|184:196|236:148,1,160.000001192092,4|0,0:0|0:0,0:0:0:0:
252,56,12852,1,2,0:0:0:0:
328,116,13187,2,0,L|321:275,1,160.000001192092
316,372,14193,1,2,0:0:0:0:
234,320,14528,6,0,B|178:304|178:304|136:328|80:324,2,160.000001192092
316,372,16204,1,2,0:0:0:0:
320,276,16539,1,0,0:0:0:0:
452,136,17210,6,0,B|396:152|396:152|352:128|296:132,1,160.000001192092
204,148,18215,1,2,0:0:0:0:
116,184,18550,2,0,P|118:106|176:56,1,160.000001192092
356,136,19891,6,0,B|372:176|356:216|356:216|384:244|383:288,1,160.000001192092
288,284,20897,1,2,0:0:0:0:
204,332,21232,2,0,B|160:352|160:352|104:356|52:328,1,160.000001192092
0,248,22238,1,2,0:0:0:0:
24,156,22573,6,0,P|136:172|208:80,1,240.000001788138,4|8,0:0|0:0,0:0:0:0:
304,80,23914,2,0,P|374:171|488:156,1,240.000001788138,8|8,0:0|0:0,0:0:0:0:
496,252,25254,1,2,0:0:0:0:
496,348,25590,6,0,B|452:351|412:320|400:272|400:272|380:300|340:316|304:312,1,240.000001788138,8|8,0:0|0:0,0:0:0:0:
208,312,26930,2,0,B|172:316|132:300|112:272|112:272|100:320|61:350|16:348,1,240.000001788138,8|2,0:0|0:0,0:0:0:0:
20,252,28271,6,0,P|16:180|132:76,1,240.000001788138,8|8,0:0|0:0,0:0:0:0:
228,80,29612,1,8,0:0:0:0:
324,76,29947,2,0,L|404:72,1,80.000000596046,8|8,0:0|0:0,0:0:0:0:
501,72,30617,6,0,B|501:116|473:156|425:168|425:168|453:188|469:228|465:264,1,240.000001788138,2|8,0:0|0:0,0:0:0:0:
405,340,31958,2,0,L|325:344,1,80.000000596046,8|8,0:0|0:0,0:0:0:0:
291,253,32629,2,0,L|371:249,1,80.000000596046,8|8,0:0|0:0,0:0:0:0:
466,264,33299,1,4,0:0:0:0:
46,264,35310,5,0,0:0:0:0:
111,193,35645,1,0,0:0:0:0:
184,256,35981,6,0,P|255:285|327:256,1,160.000001192092,4|2,0:0|0:0,0:0:0:0:
256,192,36986,1,8,0:0:0:0:
327,127,37321,2,0,P|255:98|184:128,1,160.000001192092,2|2,0:0|0:0,0:0:0:0:
112,192,38327,1,8,0:0:0:0:
48,264,38662,6,0,P|18:192|47:120,2,160.000001192092,2|2|2,0:0|0:0|0:0,0:0:0:0:
116,332,40338,1,8,0:0:0:0:
212,332,40673,2,0,L|296:328,1,80.000000596046,2|8,0:0|0:0,0:0:0:0:
388,308,41344,6,0,P|424:244|420:160,1,160.000001192092,4|2,0:0|0:0,0:0:0:0:
384,72,42349,1,8,0:0:0:0:
308,128,42685,2,0,P|232:144|156:116,1,160.000001192092,2|2,0:0|0:0,0:0:0:0:
84,52,43690,1,8,0:0:0:0:
64,148,44025,6,0,B|48:188|72:224|72:224|96:260|80:300,2,160.000001192092,2|2|2,0:0|0:0|0:0,0:0:0:0:
84,52,45701,1,8,0:0:0:0:
160,112,46036,1,2,0:0:0:0:
256,116,46372,1,8,0:0:0:0:
344,76,46707,6,0,P|420:66|482:113,1,160.000001192092,4|2,0:0|0:0,0:0:0:0:
396,156,47712,1,8,0:0:0:0:
448,237,48048,2,0,P|370:246|310:199,1,160.000001192092,2|2,0:0|0:0,0:0:0:0:
256,116,49053,1,8,0:0:0:0:
168,76,49388,6,0,P|91:66|29:113,1,160.000001192092,2|2,0:0|0:0,0:0:0:0:
116,156,50394,1,8,0:0:0:0:
64,237,50729,2,0,P|141:246|201:199,1,160.000001192092,2|2,0:0|0:0,0:0:0:0:
256,116,51735,1,8,0:0:0:0:
352,111,52070,6,0,P|401:211|322:291,1,240.000001788138,8|8,0:0|0:0,0:0:0:0:
308,196,53411,1,4,0:0:0:0:
124,148,54081,2,0,L|44:152,1,80.000000596046,0|8,0:0|0:0,0:0:0:0:
44,56,54752,6,0,L|124:52,1,80.000000596046,4|2,0:0|0:0,0:0:0:0:
220,44,55422,1,8,0:0:0:0:
128,212,56092,2,0,P|244:236|348:180,1,240.000001788138,2|2,0:0|0:0,0:0:0:0:
392,96,57433,6,0,L|472:92,2,80.000000596046,2|2|8,0:0|0:0|0:0,0:0:0:0:
476,268,58774,2,0,B|396:272|396:272|316:260|316:260|236:264,1,240.000001788138,2|2,0:0|0:0,0:0:0:0:
140,268,60115,5,4,0:0:0:0:
180,76,60785,1,2,0:0:0:0:
372,116,61455,1,2,0:0:0:0:
332,308,62126,1,2,0:0:0:0:
140,268,62796,6,0,P|108:196|116:116,2,160.000001192092,8|8|8,0:0|0:0|0:0,0:0:0:0:
320,340,64807,5,0,0:0:0:0:
376,156,65478,1,0,0:0:0:0:
296,104,65813,6,0,P|257:98|218:104,1,80.000000596046,4|2,0:0|0:0,0:0:0:0:
256,192,66483,1,8,0:0:0:0:
185,257,66819,2,0,P|257:286|328:256,1,160.000001192092,2|2,0:0|0:0,0:0:0:0:
400,192,67824,1,8,0:0:0:0:
464,120,68159,6,0,P|494:192|465:264,2,160.000001192092,2|2|2,0:0|0:0|0:0,0:0:0:0:
396,52,69835,1,8,0:0:0:0:
300,52,70171,2,0,L|216:56,1,80.000000596046,2|8,0:0|0:0,0:0:0:0:
124,76,70841,6,0,P|88:140|92:224,1,160.000001192092,2|2,0:0|0:0,0:0:0:0:
128,312,71847,1,8,0:0:0:0:
204,256,72182,2,0,P|280:240|356:268,1,160.000001192092,2|2,0:0|0:0,0:0:0:0:
428,332,73187,1,8,0:0:0:0:
448,236,73523,6,0,B|464:196|440:160|440:160|416:124|432:84,2,160.000001192092,2|2|2,0:0|0:0|0:0,0:0:0:0:
428,332,75198,1,8,0:0:0:0:
352,272,75534,1,2,0:0:0:0:
256,268,75869,1,8,0:0:0:0:
168,308,76204,6,0,P|92:318|30:271,2,160.000001192092,4|8|8,0:0|0:0|0:0,0:0:0:0:
116,228,77880,1,8,0:0:0:0:
100,132,78215,2,0,P|139:136|176:152,1,80.000000596046,8|8,0:0|0:0,0:0:0:0:
256,208,78886,6,0,P|332:218|394:171,2,160.000001192092,8|8|8,0:0|0:0|0:0,0:0:0:0:
309,127,80562,1,8,0:0:0:0:
325,31,80897,2,0,P|285:35|248:51,1,80.000000596046,8|8,0:0|0:0,0:0:0:0:
176,116,81567,6,0,B|136:100|100:124|100:124|64:148|24:132,2,160.000001192092,8|8|8,0:0|0:0|0:0,0:0:0:0:
152,208,83243,1,8,0:0:0:0:
124,300,83578,2,0,P|163:302|204:288,1,80.000000596046,8|8,0:0|0:0,0:0:0:0:
256,192,84249,12,0,89612,0:0:0:0:
