osu file format v14

[General]
AudioFilename: SPYAIR - Sakura Mitsu Tsuki.mp3
AudioLeadIn: 1000
PreviewTime: 35310
Countdown: 0
SampleSet: Soft
StackLeniency: 0.7
Mode: 0
LetterboxInBreaks: 0
WidescreenStoryboard: 0

[Editor]
DistanceSpacing: 1.8
BeatDivisor: 4
GridSize: 4
TimelineZoom: 2.699999

[Metadata]
Title:Sakura Mitsutsuki
TitleUnicode:サクラミツツキ
Artist:SPYAIR
ArtistUnicode:SPYAIR
Creator:Im so mad bro
Version:Sakura
Source:銀魂´ 延長戦
Tags:Gintama Sakura Bokura Im_so_mad_bro Enchousen Opening
BeatmapID:678314
BeatmapSetID:302643

[Difficulty]
HPDrainRate:6.5
CircleSize:4
OverallDifficulty:8
ApproachRate:9
SliderMultiplier:1.78
SliderTickRate:2

[Events]
//Background and Video events
0,0,"BG.jpg",0,0
Video,-156,"OP.avi"
//Break Periods
//Storyboard Layer 0 (Background)
//Storyboard Layer 1 (Fail)
//Storyboard Layer 2 (Pass)
//Storyboard Layer 3 (Foreground)
//Storyboard Sound Samples

[TimingPoints]
1120,335.195530726257,4,2,0,30,1,0
5729,-133.333333333333,4,2,0,30,0,0
8159,-100,4,2,0,30,0,0
11763,-200,4,2,0,30,0,0
12650,-200,4,2,0,30,0,0
12750,-200,4,2,0,30,0,0
13690,-100,4,2,0,30,0,0
22573,-133.333333333333,4,2,0,30,0,0
24333,-100,4,2,0,30,0,0
31288,-133.333333333333,4,2,0,30,0,0
35298,-133.333333333333,4,1,0,45,0,1
37824,-100,4,1,0,45,0,1
38495,-80,4,1,0,45,0,1
39791,-133.333333333333,4,1,0,45,0,1
41344,-181.818181818181,4,1,0,45,0,1
42681,-80,4,1,0,45,0,1
42685,-133.333333333333,4,1,0,45,0,1
43020,-79.9999999999999,4,1,0,45,0,1
44025,-100,4,1,0,45,0,1
46707,-66.6666666666667,4,1,0,45,0,1
47293,-100,4,1,0,45,0,1
47964,-66.6666666666667,4,1,0,45,0,1
49137,-100,4,1,0,45,0,1
52070,-133.333333333333,4,1,0,45,0,1
55003,-100,4,1,0,45,0,0
58104,-200,4,1,0,45,0,0
58606,-133.333333333333,4,1,0,45,0,0
59025,-133.333333333333,4,1,0,45,0,0
64807,-133.333333333333,4,1,0,45,0,1
74863,-133.333333333333,4,1,0,45,0,1
76707,-100,4,1,0,45,0,1
83243,-200,4,1,0,45,0,1
84416,-200,4,1,0,45,0,0

[Colours]
Combo1 : 255,255,191
Combo2 : 255,215,255
Combo3 : 255,215,196
Combo4 : 204,255,255

[HitObjects]
180,320,1120,5,0,0:0:0:0:
73,255,1288,1,0,0:0:0:0:
100,132,1455,2,0,P|144:80|196:84,1,89
289,180,1791,5,0,0:0:0:0:
362,257,1958,1,0,0:0:0:0:
260,344,2126,1,0,0:0:0:0:
220,201,2293,5,0,0:0:0:0:
140,128,2460,1,0,0:0:0:0:
244,40,2628,1,0,0:0:0:0:
404,128,2796,5,0,0:0:0:0:
340,240,2964,1,0,0:0:0:0:
368,294,3131,1,0,0:0:0:0:
288,156,3299,1,0,0:0:0:0:
140,128,3467,2,0,P|88:152|71:177,1,89
284,324,3802,6,0,L|371:294,1,89
212,256,4137,6,0,L|124:226,1,89
284,184,4472,6,0,L|367:154,2,89
124,220,4975,1,0,0:0:0:0:
200,80,5143,1,0,0:0:0:0:
232,216,5310,1,0,0:0:0:0:
264,328,5478,5,0,0:0:0:0:
368,244,5645,1,0,0:0:0:0:
352,124,5813,2,0,P|312:84|284:76,2,66.7500025463105
188,264,6483,5,0,0:0:0:0:
288,280,6651,1,0,0:0:0:0:
368,220,6819,1,0,0:0:0:0:
352,120,6986,1,0,0:0:0:0:
224,84,7154,5,0,0:0:0:0:
124,100,7321,1,0,0:0:0:0:
108,200,7489,1,0,0:0:0:0:
236,56,7657,1,0,0:0:0:0:
96,80,7824,1,0,0:0:0:0:
84,228,7992,1,0,0:0:0:0:
188,312,8159,2,0,P|244:332|276:328,1,89
408,240,8495,2,0,P|364:260|316:252,1,89
192,164,8830,2,0,P|244:184|284:184,1,89
436,64,9165,5,0,0:0:0:0:
320,36,9333,1,0,0:0:0:0:
264,104,9500,1,0,0:0:0:0:
64,168,9668,5,0,0:0:0:0:
180,140,9836,1,0,0:0:0:0:
280,208,10003,1,0,0:0:0:0:
464,268,10171,5,0,0:0:0:0:
336,232,10339,1,0,0:0:0:0:
280,300,10506,1,0,0:0:0:0:
192,316,10673,2,0,P|144:312|104:308,2,89
384,252,11176,6,0,P|404:188|380:140,1,89
360,96,11511,2,0,P|300:48|252:52,1,89
224,40,11847,2,0,B|96:104|212:164|88:236,2,222.5
180,264,13690,6,0,P|212:316|252:316,1,89
272,200,14025,1,0,0:0:0:0:
380,204,14193,2,0,P|356:256|308:260,1,89
284,92,14696,5,0,0:0:0:0:
148,48,14863,1,0,0:0:0:0:
200,140,15031,2,0,P|240:176|280:172,1,89
364,212,15366,1,0,0:0:0:0:
300,300,15534,2,0,P|276:328|228:320,1,89
148,264,15869,1,0,0:0:0:0:
92,172,16036,2,0,P|116:113|152:96,1,89
236,64,16539,6,0,P|308:88|340:108,1,89
176,228,17042,1,0,0:0:0:0:
344,276,17377,2,0,P|388:272|432:248,1,89
320,136,17712,2,0,P|276:140|240:164,1,89
160,232,18048,2,0,P|116:160|168:96,1,178
364,72,18718,1,0,0:0:0:0:
432,188,18886,1,0,0:0:0:0:
364,304,19053,1,0,0:0:0:0:
156,208,19221,6,0,P|144:160|172:112,1,89
256,68,19724,1,0,0:0:0:0:
432,188,20059,1,0,0:0:0:0:
256,308,20394,1,0,0:0:0:0:
56,224,20729,1,0,0:0:0:0:
128,120,20897,1,0,0:0:0:0:
260,192,21064,2,0,P|340:188|448:188,1,178
428,104,21902,5,0,0:0:0:0:
384,244,22070,1,0,0:0:0:0:
475,198,22238,1,0,0:0:0:0:
336,149,22406,1,0,0:0:0:0:
264,216,22573,2,0,B|208:336|148:296|88:240|92:144|140:84|204:48|276:24|384:76|432:192|328:296,1,667.5
216,320,24416,5,0,0:0:0:0:
144,268,24584,2,0,B|104:240|104:240|76:212|76:108,1,178
164,76,25087,1,0,0:0:0:0:
364,100,25422,2,0,P|380:148|372:192,1,89
280,320,25757,5,0,0:0:0:0:
384,236,25925,2,0,P|332:248|296:232,1,89
192,168,26260,1,0,0:0:0:0:
312,112,26428,2,0,P|284:80|232:64,1,89
116,84,26763,1,0,0:0:0:0:
36,192,26930,2,0,P|60:228|100:248,1,89
208,304,27266,1,0,0:0:0:0:
364,252,27433,1,0,0:0:0:0:
372,72,27768,6,0,P|232:72|184:84,1,178
88,160,28271,1,0,0:0:0:0:
156,276,28439,2,0,P|296:276|344:264,1,178
416,136,28942,1,0,0:0:0:0:
432,236,29109,2,0,P|448:296|448:340,1,89
328,52,29780,6,0,L|160:76,1,133.5
180,152,30115,2,0,L|348:128,1,133.5
332,208,30450,6,0,L|164:232,1,133.5
208,304,30785,6,0,L|376:280,1,133.5
380,240,31120,5,0,0:0:0:0:
412,180,31288,2,0,P|428:116|412:60,2,100.125003819466
360,272,31958,2,0,B|224:332|112:288|32:128|144:44,1,467.250017824174
360,87,33299,1,4,0:0:0:0:
104,176,33467,1,4,0:0:0:0:
124,48,33633,1,4,0:0:0:0:
311,241,33801,1,4,0:0:0:0:
156,260,34137,5,4,0:0:0:0:
360,120,34305,1,4,0:0:0:0:
124,48,34472,1,4,0:0:0:0:
364,116,34807,1,4,0:0:0:0:
104,176,34975,1,4,0:0:0:0:
256,328,35143,1,4,0:0:0:0:
232,116,35310,6,0,P|172:88|116:112,2,100.125003819466
275,283,35981,2,0,P|177:296|92:248,1,200.250007638932
296,84,36651,6,0,P|361:62|393:100,2,100.125003819466
242,275,37322,2,0,P|338:295|424:248,1,200.250007638932
72,260,37992,6,0,P|116:268|168:256,1,89
156,184,38243,6,0,P|120:192|68:184,1,89
92,104,38495,1,0,0:0:0:0:
308,48,38830,1,0,0:0:0:0:
404,248,39165,1,0,0:0:0:0:
192,312,39500,1,0,0:0:0:0:
120,200,39835,2,0,P|96:136|140:68,2,133.500005092621
224,56,40673,5,0,0:0:0:0:
328,88,41009,2,0,P|380:152|376:192,1,100.125003819466
328,236,41344,2,0,B|356:296|356:296|192:296|112:224|88:192|88:192,1,342.650010456848
72,96,42685,2,0,B|112:56|220:48,1,133.500005092621
256,108,43187,1,0,0:0:0:0:
352,64,43355,6,0,P|456:148|468:188,1,166.875
456,248,43690,2,0,P|368:324|316:328,1,166.875
229,291,44025,2,0,B|172:272|172:272|208:240|208:240|160:256|160:256|200:220|200:220|156:244|156:244|192:212|192:212|144:232|144:232|184:200|184:200|136:220|136:220|176:188|176:188|150:184|150:184|29:18,1,712
219,57,45534,5,0,0:0:0:0:
352,104,45701,1,0,0:0:0:0:
360,246,45869,1,0,0:0:0:0:
226,303,46036,6,0,P|168:317|128:312,1,89
115,233,46288,2,0,P|177:238|205:223,1,89
246,173,46539,1,0,0:0:0:0:
327,62,46707,2,0,P|401:146|378:295,1,267.000010185242
168,321,47210,1,0,0:0:0:0:
181,233,47377,6,0,P|123:247|83:242,1,89
70,163,47629,2,0,P|132:168|160:153,1,89
200,100,47880,1,0,0:0:0:0:
250,73,48048,2,0,B|346:67|346:67|429:217,1,267.000010185242
328,336,48550,5,0,0:0:0:0:
188,288,48718,1,0,0:0:0:0:
104,168,48886,1,0,0:0:0:0:
224,84,49053,1,0,0:0:0:0:
324,80,49221,2,0,P|364:172|348:204,1,89
412,288,49556,5,0,0:0:0:0:
288,300,49724,2,0,P|232:308|200:280,1,89
124,200,50059,1,0,0:0:0:0:
212,112,50226,2,0,P|276:92|308:100,2,89
232,40,50729,5,0,0:0:0:0:
117,95,50897,2,0,P|67:171|81:219,1,133.5
187,267,51400,6,0,P|274:300|321:276,1,133.5
344,196,51735,2,0,P|235:208|212:187,1,133.5
82,154,52070,6,0,P|116:112|166:92,1,100.125003819466
256,64,52405,1,0,0:0:0:0:
400,188,52573,1,0,0:0:0:0:
256,308,52740,1,0,0:0:0:0:
128,192,52908,1,0,0:0:0:0:
160,276,53076,1,0,0:0:0:0:
352,280,53243,1,0,0:0:0:0:
256,188,53411,1,0,0:0:0:0:
363,104,53914,5,0,0:0:0:0:
247,74,54081,2,0,P|164:100|145:134,1,100.125003819466
126,210,54416,2,0,P|145:264|156:276,2,66.7500025463105
393,221,55087,5,0,0:0:0:0:
208,308,55422,1,0,0:0:0:0:
76,284,55590,1,0,0:0:0:0:
52,172,55925,2,0,P|68:101|110:58,1,133.500005092621
174,39,56260,2,0,P|271:47|303:71,1,133.5
356,108,56595,2,0,P|377:152|401:173,2,44.5
108,288,57098,5,0,0:0:0:0:
66,208,57266,2,0,L|146:145,4,89
216,88,58104,2,0,P|256:76|304:88,1,89
380,138,58606,1,0,0:0:0:0:
364,261,58774,2,0,P|322:303|285:312,1,89
148,192,59277,2,0,B|104:177|104:177|219:271,1,166.875006365776
256,256,59780,5,0,0:0:0:0:
356,312,60115,2,0,P|408:304|464:272,1,100.125003819466
428,216,60450,2,0,P|384:240|328:248,1,100.125003819466
312,180,60785,2,0,P|372:172|416:136,1,100.125003819466
160,316,61120,6,0,P|104:304|52:268,1,100.125003819466
84,216,61455,2,0,P|124:240|196:256,1,100.125003819466
204,192,61790,2,0,P|144:176|96:140,1,100.125003819466
140,92,62126,2,0,P|188:120|236:124,1,100.125003819466
380,284,62461,1,0,0:0:0:0:
304,172,62796,5,0,0:0:0:0:
434,170,63020,1,0,0:0:0:0:
370,59,63243,1,0,0:0:0:0:
237,249,63467,5,0,0:0:0:0:
140,338,63690,1,0,0:0:0:0:
111,212,63914,1,0,0:0:0:0:
192,68,64137,2,0,B|126:33|126:33|308:55,1,233.625008912087
440,188,64807,6,0,P|368:212|320:192,1,100.125003819466
272,100,65310,1,0,0:0:0:0:
280,264,65478,1,0,0:0:0:0:
248,40,65813,1,0,0:0:0:0:
72,188,66148,6,0,P|144:212|192:192,1,100.125003819466
240,100,66651,1,0,0:0:0:0:
232,264,66819,1,0,0:0:0:0:
368,304,66986,5,0,0:0:0:0:
436,188,67154,1,0,0:0:0:0:
344,92,67321,1,0,0:0:0:0:
88,188,67489,6,0,P|180:192|244:164,1,133.500005092621
240,100,67992,1,0,0:0:0:0:
368,196,68327,1,0,0:0:0:0:
240,292,68662,1,0,0:0:0:0:
120,188,68997,1,0,0:0:0:0:
380,192,69333,2,0,L|428:144,2,66.7500025463105
112,96,70171,5,0,0:0:0:0:
400,96,70506,1,0,0:0:0:0:
424,168,70841,1,0,0:0:0:0:
352,228,71009,1,0,0:0:0:0:
276,284,71176,1,0,0:0:0:0:
200,340,71344,1,0,0:0:0:0:
284,300,71511,5,0,0:0:0:0:
216,234,71679,1,0,0:0:0:0:
153,164,71846,1,0,0:0:0:0:
89,95,72014,1,0,0:0:0:0:
260,68,72182,2,0,P|312:96|356:72,1,66.7500025463105
396,148,72517,1,0,0:0:0:0:
80,68,72852,5,0,0:0:0:0:
80,316,73187,1,0,0:0:0:0:
308,304,73523,5,0,0:0:0:0:
384,252,73690,1,0,0:0:0:0:
364,160,73858,1,0,0:0:0:0:
292,100,74025,1,0,0:0:0:0:
128,108,74193,5,0,0:0:0:0:
72,184,74361,1,0,0:0:0:0:
136,248,74528,1,0,0:0:0:0:
220,288,74696,1,0,0:0:0:0:
308,252,74863,2,0,P|340:196|332:168,1,66.7500025463105
224,64,75198,5,0,0:0:0:0:
190,62,75281,1,0,0:0:0:0:
157,67,75365,1,0,0:0:0:0:
126,80,75449,1,0,0:0:0:0:
100,100,75533,1,0,0:0:0:0:
81,128,75616,1,0,0:0:0:0:
72,160,75700,1,0,0:0:0:0:
70,193,75784,1,0,0:0:0:0:
75,226,75868,1,0,0:0:0:0:
86,257,75952,1,0,0:0:0:0:
101,287,76035,1,0,0:0:0:0:
164,336,76204,2,0,P|224:352|296:320,1,133.500005092621
416,132,76874,6,0,P|360:120|312:144,1,89
436,248,77377,1,0,0:0:0:0:
328,204,77545,2,0,P|252:172|160:196,1,178
256,72,78215,5,0,0:0:0:0:
124,188,78550,1,0,0:0:0:0:
256,308,78886,1,0,0:0:0:0:
388,188,79221,1,0,0:0:0:0:
340,108,79556,5,0,0:0:0:0:
344,268,79891,1,0,0:0:0:0:
184,268,80226,1,0,0:0:0:0:
180,108,80562,1,0,0:0:0:0:
132,188,80897,5,0,0:0:0:0:
380,188,81232,1,0,0:0:0:0:
280,72,81567,5,0,0:0:0:0:
192,80,81735,1,0,0:0:0:0:
140,152,81902,1,0,0:0:0:0:
164,236,82070,1,0,0:0:0:0:
224,16,82238,5,0,0:0:0:0:
88,80,82405,1,0,0:0:0:0:
96,220,82573,1,0,0:0:0:0:
204,288,82740,2,0,P|308:308|344:244,1,178
376,168,83243,1,0,0:0:0:0:
365,148,83326,1,0,0:0:0:0:
354,129,83410,1,0,0:0:0:0:
339,112,83494,1,0,0:0:0:0:
321,99,83578,1,0,0:0:0:0:
301,91,83661,1,0,0:0:0:0:
279,88,83745,1,0,0:0:0:0:
256,89,83829,1,0,0:0:0:0:
235,93,83913,1,0,0:0:0:0:
214,101,83997,1,0,0:0:0:0:
193,110,84080,1,0,0:0:0:0:
175,122,84164,1,0,0:0:0:0:
159,137,84248,1,0,0:0:0:0:
256,192,84416,12,0,87266,0:0:0:0:
