osu file format v12

[General]
AudioFilename: 01 Last Moment.mp3
AudioLeadIn: 1100
PreviewTime: 55400
Countdown: 0
SampleSet: Soft
StackLeniency: 0.7
Mode: 0
LetterboxInBreaks: 0
WidescreenStoryboard: 0

[Editor]
Bookmarks: 128696
DistanceSpacing: 1
BeatDivisor: 4
GridSize: 4

[Metadata]
Title:Last Moment
TitleUnicode:Last Moment
Artist:SPYAIR
ArtistUnicode:SPYAIR
Creator:HabiHolic
Version:Hard
Source:BLEACH
Tags:ending Yasora
BeatmapID:328411
BeatmapSetID:130114

[Difficulty]
HPDrainRate:6
CircleSize:4
OverallDifficulty:6
ApproachRate:7
SliderMultiplier:1.6
SliderTickRate:1

[Events]
//Background and Video events
0,0,"Wallpapers-bleach-manga-and-tv-13574439-1600-1200.jpg",0,0
//Break Periods
2,44814,50987
2,92087,98259
2,135723,141896
2,164814,169168
//Storyboard Layer 0 (Background)
//Storyboard Layer 1 (Fail)
//Storyboard Layer 2 (Pass)
//Storyboard Layer 3 (Foreground)
//Storyboard Sound Samples
//Background Colour Transformations
3,100,163,162,255

[TimingPoints]
978,454.545454545455,4,2,0,70,1,0
15523,-100,4,1,0,70,0,0
51887,-100,4,2,0,70,0,0
55523,-100,4,1,0,70,0,1
70068,-100,4,1,0,70,0,0
99159,-100,4,2,0,70,0,0
101887,-100,4,2,0,30,0,0
102114,-100,4,2,0,40,0,0
102341,-100,4,2,0,50,0,0
102568,-100,4,2,0,60,0,0
102796,-100,4,1,0,70,0,1
117341,-100,4,1,0,70,0,0
142796,-133.333333333333,4,2,0,70,0,0
149159,-133.333333333333,4,1,0,70,0,0
150068,-100,4,1,0,70,0,1
164614,-100,4,1,0,70,0,0

[Colours]
Combo1 : 128,128,255
Combo2 : 27,114,220
Combo3 : 90,191,245
Combo4 : 43,43,157

[HitObjects]
340,120,978,2,0,P|280:164|192:152,1,160,4|2,0:0|0:0,0:0:0:0:
104,116,1659,1,0,0:0:0:0:
32,184,1887,2,0,P|28:224|40:268,1,80
108,336,2341,1,2,0:0:0:0:
204,304,2568,2,0,P|284:296|352:344,1,160
444,340,3250,2,0,P|456:304|456:256,1,80,2|0,0:0|0:0,0:0:0:0:
452,168,3705,1,0,0:0:0:0:
352,136,3932,2,0,P|352:175|364:213,2,80,0|2|0,0:0|0:0|0:0,0:0:0:0:
336,44,4614,6,0,P|264:32|192:80,1,160,0|2,0:0|0:0,0:0:0:0:
148,164,5296,1,0,0:0:0:0:
48,120,5523,2,0,P|40:168|56:216,1,80
112,268,5978,1,2,0:0:0:0:
216,248,6205,2,0,P|296:240|356:296,1,160
444,336,6887,1,2,0:0:0:0:
480,240,7114,2,0,P|488:164|472:80,1,160
392,32,7796,2,0,P|352:24|312:32,1,80,2|0,0:0|0:0,0:0:0:0:
216,68,8250,6,0,P|136:76|72:28,2,160,0|2|0,0:0|0:0|0:0,0:0:0:0:
280,140,9387,2,0,P|292:176|288:224,1,80,0|2,0:0|0:0,0:0:0:0:
244,296,9841,2,0,P|176:336|88:328,1,160,0|2,0:0|0:0,0:0:0:0:
97,331,10523,1,2,0:0:0:0:
32,252,10750,1,0,0:0:0:0:
32,252,10978,2,0,P|24:216|28:172,1,80
140,116,11432,2,0,P|148:152|144:196,1,80,2|0,0:0|0:0,0:0:0:0:
208,272,11887,6,0,P|264:312|352:296,1,160,0|2,0:0|0:0,0:0:0:0:
436,248,12568,1,0,0:0:0:0:
436,248,12796,2,0,P|380:208|292:224,1,160,0|2,0:0|0:0,0:0:0:0:
220,160,13478,1,0,0:0:0:0:
220,160,13705,2,0,L|136:168,1,80
32,79,14159,2,0,L|112:72,1,80,2|0,0:0|0:0,0:0:0:0:
260,44,14614,5,0,3:0:0:0:
279,47,14728,1,0,3:0:0:0:
299,50,14841,1,0,3:0:0:0:
319,54,14955,1,0,3:0:0:0:
338,57,15068,1,0,3:0:0:0:
358,60,15182,1,0,3:0:0:0:
378,64,15296,1,0,3:0:0:0:
398,67,15409,1,0,3:0:0:0:
417,70,15523,6,0,P|396:144|432:220,1,160,4|8,0:0|0:0,0:0:0:0:
484,292,16205,1,0,0:0:0:0:
396,332,16432,2,0,P|360:348|312:344,1,80
248,280,16887,1,8,0:0:0:0:
160,232,17114,2,0,P|88:224|28:280,1,160
116,312,17796,1,8,0:0:0:0:
116,312,18023,2,0,L|56:164,1,160
8,84,18705,2,0,P|48:72|88:80,1,80,8|0,0:0|0:0,0:0:0:0:
164,128,19159,6,0,P|236:136|304:84,1,160,0|8,0:0|0:0,0:0:0:0:
384,36,19841,1,0,0:0:0:0:
464,96,20068,2,0,P|476:132|476:180,1,80
416,244,20523,1,8,0:0:0:0:
316,264,20750,2,0,P|240:252|168:296,1,160
76,328,21432,2,0,P|40:304|20:264,1,80,8|0,0:0|0:0,0:0:0:0:
76,142,21887,2,0,P|84:181|104:216,1,80
180,140,22341,2,0,P|176:108|184:56,1,80,8|0,0:0|0:0,0:0:0:0:
276,32,22796,6,0,P|356:32|420:80,1,160,4|8,0:0|0:0,0:0:0:0:
456,164,23478,1,0,0:0:0:0:
464,256,23705,2,0,P|424:252|388:224,1,80
328,160,24159,1,8,0:0:0:0:
240,112,24387,2,0,P|172:104|92:152,1,160
36,296,25068,1,8,0:0:0:0:
36,296,25296,2,0,P|104:304|184:256,1,160
264,208,25978,2,0,L|352:212,1,80,8|0,0:0|0:0,0:0:0:0:
436,256,26432,6,0,P|460:196|460:96,1,160,0|8,0:0|0:0,0:0:0:0:
384,52,27114,1,0,0:0:0:0:
384,52,27341,2,0,L|296:56,1,80
216,28,27796,1,8,0:0:0:0:
216,28,28023,2,0,P|160:72|64:64,1,160
24,148,28705,2,0,P|20:192|24:232,1,80,8|0,0:0|0:0,0:0:0:0:
128,316,29159,2,0,P|132:272|128:232,1,80,0|0,0:0|0:0,0:0:0:0:
192,148,29614,1,8,0:0:0:0:
192,148,29841,2,0,L|360:136,1,160
452,176,30523,6,0,P|464:216|464:260,1,80,4|0,0:0|0:0,0:0:0:0:
356,360,30978,2,0,P|348:332|348:280,1,80
256,244,31432,1,8,0:0:0:0:
164,288,31659,1,0,0:0:0:0:
84,228,31887,2,0,P|52:156|52:72,1,160,0|8,0:0|0:0,0:0:0:0:
204,44,32568,2,0,P|236:116|236:200,1,160
280,284,33250,2,0,L|360:280,1,80,8|0,0:0|0:0,0:0:0:0:
436,344,33705,6,0,P|460:276|424:196,1,160,0|8,0:0|0:0,0:0:0:0:
352,128,34387,1,0,0:0:0:0:
416,48,34614,2,0,P|456:48|500:72,2,80,0|0|8,0:0|0:0|0:0,0:0:0:0:
352,128,35296,1,0,0:0:0:0:
260,80,35523,2,0,P|200:128|112:128,1,160,0|8,0:0|0:0,0:0:0:0:
24,160,36205,2,0,P|8:232|32:316,1,160
112,352,36887,1,8,0:0:0:0:
188,300,37114,1,0,0:0:0:0:
272,344,37341,6,0,P|348:360|424:320,1,160,0|8,0:0|0:0,0:0:0:0:
472,240,38023,1,0,0:0:0:0:
412,156,38250,2,0,L|328:164,1,80
264,96,38705,2,0,L|184:103,1,80,8|0,0:0|0:0,0:0:0:0:
104,44,39159,2,0,P|88:112|136:196,1,160,0|8,0:0|0:0,0:0:0:0:
92,276,39841,2,0,P|168:276|216:204,1,160
280,144,40523,1,8,0:0:0:0:
372,112,40750,1,0,0:0:0:0:
452,168,40978,6,0,P|472:116|452:48,2,120,0|0|8,0:0|0:0|0:0,0:0:0:0:
372,232,41887,2,0,P|416:264|488:260,2,120,0|0|8,0:0|0:0|0:0,0:0:0:0:
304,136,42796,6,0,P|268:128|224:136,1,80
200,96,43137,2,0,P|168:120|84:120,1,120,0|8,0:0|0:0,0:0:0:0:
48,208,43705,2,0,L|4:200,2,40
156,260,44159,1,8,0:0:0:0:
272,332,44387,1,0,0:0:0:0:
284,200,44614,1,4,0:0:0:0:
88,312,51887,6,0,P|40:256|32:164,1,160,2|2,0:0|0:0,0:0:0:0:
80,92,52568,1,0,0:0:0:0:
168,44,52796,2,0,L|256:36,1,80,2|0,0:0|0:0,0:0:0:0:
288,120,53250,2,0,L|367:112,1,80,2|0,0:0|0:0,0:0:0:0:
460,148,53705,2,0,P|480:216|472:304,1,160,0|2,0:0|0:0,0:0:0:0:
372,320,54387,1,0,0:0:0:0:
276,280,54614,2,0,L|232:284,4,40,2|0|0|0|4,0:0|0:0|0:0|0:0|0:0,0:0:0:0:
52,320,55523,6,0,P|20:256|16:168,1,160,4|8,0:0|0:0,0:0:0:0:
92,108,56205,1,0,0:0:0:0:
196,112,56432,2,0,P|192:72|168:32,2,80,0|0|8,0:0|0:0|0:0,0:0:0:0:
152,200,57114,2,0,P|156:268|212:348,1,160
304,348,57796,2,0,L|392:340,1,80,8|0,0:0|0:0,0:0:0:0:
408,244,58250,2,0,L|496:236,2,80,0|0|8,0:0|0:0|0:0,0:0:0:0:
344,152,58932,1,0,0:0:0:0:
344,152,59046,1,0,0:0:0:0:
344,152,59159,6,0,P|292:200|200:192,1,160,0|8,0:0|0:0,0:0:0:0:
136,128,59841,1,0,0:0:0:0:
44,168,60068,2,0,P|32:132|36:88,2,80,0|0|8,0:0|0:0|0:0,0:0:0:0:
124,224,60750,2,0,P|132:304|88:372,1,160
52,284,61432,1,8,0:0:0:0:
52,284,61659,2,0,L|228:336,1,160
280,268,62341,1,8,0:0:0:0:
360,332,62568,1,0,0:0:0:0:
448,280,62796,6,0,P|480:220|472:128,1,160,4|8,0:0|0:0,0:0:0:0:
412,48,63478,1,0,0:0:0:0:
316,80,63705,2,0,L|228:84,1,80
132,188,64159,2,0,L|211:184,1,80,8|0,0:0|0:0,0:0:0:0:
328,220,64614,2,0,P|408:208|476:264,1,160,0|8,0:0|0:0,0:0:0:0:
384,300,65296,1,0,0:0:0:0:
280,312,65523,2,0,L|196:324,1,80
136,248,65978,1,8,0:0:0:0:
52,304,66205,1,0,0:0:0:0:
48,204,66432,6,0,P|12:144|16:48,1,160,0|8,0:0|0:0,0:0:0:0:
112,40,67114,1,0,0:0:0:0:
112,40,67341,2,0,L|200:32,1,80
252,108,67796,2,0,L|340:100,1,80,8|0,0:0|0:0,0:0:0:0:
428,140,68250,6,0,B|400:200|460:232|432:308,1,160,0|8,0:0|0:0,0:0:0:0:
360,348,68932,1,0,0:0:0:0:
264,324,69159,2,0,P|232:344|180:344,1,80
96,312,69614,1,8,0:0:0:0:
87,285,69728,1,0,0:0:0:0:
79,258,69841,1,0,0:0:0:0:
71,231,69955,1,0,0:0:0:0:
63,204,70068,1,4,0:0:0:0:
156,144,70296,5,0,0:0:0:0:
156,144,70409,1,0,0:0:0:0:
156,144,70523,2,0,B|184:136|192:108|192:108|216:160|276:180|336:152|344:112,1,240,4|0,0:0|0:0,0:0:0:0:
352,80,71318,1,0,0:0:0:0:
387,62,71432,1,8,0:0:0:0:
426,62,71546,1,0,0:0:0:0:
461,81,71659,1,0,0:0:0:0:
456,188,71887,6,0,P|464:224|456:272,1,80
424,296,72228,1,0,0:0:0:0:
392,312,72341,2,0,P|352:308|312:324,1,80,8|0,0:0|0:0,0:0:0:0:
216,276,72796,1,0,0:0:0:0:
124,328,73023,1,0,0:0:0:0:
52,248,73250,2,0,P|32:200|40:128,1,120,8|0,0:0|0:0,0:0:0:0:
20,96,73705,6,0,P|92:116|176:80,1,160,0|4,0:0|0:0,0:0:0:0:
256,40,74387,1,0,0:0:0:0:
352,72,74614,1,0,0:0:0:0:
364,97,74728,1,0,0:0:0:0:
371,123,74841,1,0,0:0:0:0:
374,151,74955,1,0,0:0:0:0:
371,179,75068,2,0,P|376:220|368:264,1,80,8|0,0:0|0:0,0:0:0:0:
324,344,75523,6,0,L|372:352,2,40
232,284,75978,2,0,L|184:276,2,40,8|0|0,0:0|0:0|0:0,0:0:0:0:
260,184,76432,1,0,0:0:0:0:
220,84,76659,1,0,0:0:0:0:
120,48,76887,2,0,L|40:52,1,80,8|0,0:0|0:0,0:0:0:0:
12,144,77341,6,0,P|4:220|36:300,1,160,0|4,0:0|0:0,0:0:0:0:
120,352,78023,1,0,0:0:0:0:
208,304,78250,2,0,L|296:296,1,80
312,204,78705,2,0,L|391:196,1,80,8|0,0:0|0:0,0:0:0:0:
480,248,79159,2,0,P|496:180|480:92,1,160,0|8,0:0|0:0,0:0:0:0:
400,36,79841,2,0,P|332:68|244:56,1,160
160,28,80523,2,0,P|120:24|80:36,1,80,8|0,0:0|0:0,0:0:0:0:
32,116,80978,6,0,P|20:192|48:272,1,160,0|8,0:0|0:0,0:0:0:0:
108,344,81659,1,0,0:0:0:0:
188,288,81887,2,0,L|276:280,1,80
364,260,82341,1,8,0:0:0:0:
452,312,82568,1,0,0:0:0:0:
452,216,82796,2,0,P|480:148|472:60,1,160,0|8,0:0|0:0,0:0:0:0:
312,36,83478,2,0,P|284:104|292:192,1,160
244,268,84159,2,0,L|160:276,1,80,8|0,0:0|0:0,0:0:0:0:
72,324,84614,6,0,P|28:260|24:176,1,160,0|8,0:0|0:0,0:0:0:0:
88,100,85296,1,0,0:0:0:0:
192,128,85523,2,0,P|196:84|180:40,2,80,0|0|8,0:0|0:0|0:0,0:0:0:0:
128,212,86205,1,0,0:0:0:0:
176,300,86432,2,0,P|232:344|320:344,1,160,0|8,0:0|0:0,0:0:0:0:
452,240,87114,2,0,P|396:196|308:196,1,160
216,204,87796,2,0,P|208:168|212:124,1,80,8|0,0:0|0:0,0:0:0:0:
180,32,88250,6,0,P|124:32|80:80,2,120,4|0|8,0:0|0:0|0:0,0:0:0:0:
332,32,89159,2,0,P|388:32|432:80,2,120,4|0|8,0:0|0:0|0:0,0:0:0:0:
256,168,90068,2,0,L|256:288,2,120,4|0|8,0:0|0:0|0:0,0:0:0:0:
188,88,90978,6,0,P|168:112|160:136,2,53.3333333333333
324,88,91432,2,0,P|344:112|352:136,2,53.3333333333333
256,16,91887,1,4,0:0:0:0:
60,332,99159,6,0,P|24:264|32:172,1,160,2|2,0:0|0:0,0:0:0:0:
112,132,99841,1,0,0:0:0:0:
216,144,100068,2,0,P|216:104|200:64,1,80,2|0,0:0|0:0,0:0:0:0:
156,224,100523,2,0,P|156:264|172:304,1,80,2|0,0:0|0:0,0:0:0:0:
256,336,100978,2,0,P|328:316|408:352,1,160,0|2,0:0|0:0,0:0:0:0:
403,347,101659,1,0,0:0:0:0:
472,272,101887,2,0,L|464:224,3,40
440,200,102341,2,0,L|444:156,3,40,2|0|0|0,0:0|0:0|0:0|0:0,0:0:0:0:
464,116,102796,6,0,P|400:144|316:112,1,160,4|8,0:0|0:0,0:0:0:0:
252,48,103478,1,0,0:0:0:0:
152,36,103705,2,0,P|152:76|172:116,1,80
244,180,104159,1,8,0:0:0:0:
212,276,104387,2,0,P|156:316|64:304,1,160
20,224,105068,2,0,L|16:144,1,80,8|0,0:0|0:0,0:0:0:0:
132,76,105523,2,0,L|135:155,2,80,0|0|8,0:0|0:0|0:0,0:0:0:0:
132,76,106205,1,0,0:0:0:0:
228,48,106432,6,0,P|304:32|380:68,1,160,0|8,0:0|0:0,0:0:0:0:
408,152,107114,1,0,0:0:0:0:
412,252,107341,2,0,P|452:244|484:212,2,80,0|0|8,0:0|0:0|0:0,0:0:0:0:
316,208,108023,2,0,P|240:196|172:240,1,160
100,308,108705,1,8,0:0:0:0:
20,240,108932,2,0,P|4:168|20:84,1,160
100,32,109614,1,8,0:0:0:0:
192,76,109841,1,0,0:0:0:0:
192,180,110068,6,0,P|192:264|236:328,2,160,0|8|0,0:0|0:0|0:0,0:0:0:0:
276,128,111205,2,0,L|356:120,1,80,0|8,0:0|0:0,0:0:0:0:
428,188,111659,1,0,0:0:0:0:
476,104,111887,2,0,P|488:68|488:20,2,80,0|0|8,0:0|0:0|0:0,0:0:0:0:
428,188,112568,1,0,0:0:0:0:
336,232,112796,2,0,P|260:216|196:268,1,160,0|8,0:0|0:0,0:0:0:0:
124,324,113478,1,0,0:0:0:0:
40,268,113705,6,0,P|12:196|16:108,1,160,0|8,0:0|0:0,0:0:0:0:
88,44,114387,1,0,0:0:0:0:
184,80,114614,2,0,P|222:91|261:89,1,80
360,60,115068,2,0,P|399:55|437:66,1,80,8|0,0:0|0:0,0:0:0:0:
488,156,115523,2,0,L|496:320,1,160,0|8,0:0|0:0,0:0:0:0:
396,356,116205,1,0,0:0:0:0:
328,272,116432,6,0,L|284:276,3,40
256,308,116887,2,0,L|216:304,3,40,8|0|0|0,0:0|0:0|0:0|0:0,0:0:0:0:
184,284,117341,2,0,P|136:248|40:252,1,160,4|8,0:0|0:0,0:0:0:0:
39,252,118023,1,0,0:0:0:0:
24,152,118250,6,0,P|16:112|20:64,1,80
36,32,118591,2,0,P|84:64|152:56,1,120,0|8,0:0|0:0,0:0:0:0:
228,115,119159,2,0,P|242:79|242:39,1,80
148,180,119614,2,0,P|147:219|162:256,1,80,8|0,0:0|0:0,0:0:0:0:
252,288,120068,6,0,P|220:336|160:352,2,120,0|0|8,0:0|0:0|0:0,0:0:0:0:
316,200,120978,2,0,L|396:196,1,80
500,288,121432,2,0,L|420:292,1,80,8|0,0:0|0:0,0:0:0:0:
484,160,121887,6,0,P|492:108|484:40,2,120,0|0|8,0:0|0:0|0:0,0:0:0:0:
384,112,122796,2,0,L|300:116,1,80,4|0,0:0|0:0,0:0:0:0:
224,56,123250,1,8,0:0:0:0:
144,112,123478,2,0,P|156:180|116:264,1,160
32,308,124159,1,8,0:0:0:0:
120,364,124387,1,0,0:0:0:0:
224,324,124614,6,0,B|284:316|284:316|336:348|380:316,1,160,4|8,0:0|0:0,0:0:0:0:
448,248,125296,1,0,0:0:0:0:
484,148,125523,2,0,P|448:144|400:164,1,80
376,120,125864,2,0,P|328:144|256:140,1,120,0|8,0:0|0:0,0:0:0:0:
192,76,126432,2,0,L|108:72,1,80
4,196,126887,2,0,L|88:200,1,80,8|0,0:0|0:0,0:0:0:0:
184,180,127341,6,0,P|196:224|184:304,2,120,0|0|8,0:0|0:0|0:0,0:0:0:0:
276,124,128250,2,0,L|368:120,1,80,4|0,0:0|0:0,0:0:0:0:
436,68,128705,1,8,0:0:0:0:
436,68,128932,1,0,0:0:0:0:
487,155,129159,6,0,P|495:194|493:234,1,80
379,319,129614,2,0,P|371:280|374:241,1,80,8|0,0:0|0:0,0:0:0:0:
288,352,130068,2,0,P|216:320|136:336,1,160,4|8,0:0|0:0,0:0:0:0:
52,288,130750,1,0,0:0:0:0:
52,288,130978,2,0,L|40:208,1,80
124,164,131432,2,0,L|112:84,1,80,8|0,0:0|0:0,0:0:0:0:
200,32,131887,6,0,P|264:84|412:64,1,240,4|0,0:0|0:0,0:0:0:0:
476,124,132796,2,0,P|488:164|484:208,1,80
424,264,133250,1,8,0:0:0:0:
328,268,133478,2,0,P|252:252|188:296,1,160
108,340,134159,1,8,0:0:0:0:
36,264,134387,1,0,0:0:0:0:
88,172,134614,6,0,L|35:160,2,53.3333333333333
184,128,135068,2,0,L|236:139,2,53.3333333333333
184,128,135523,1,4,0:0:0:0:
48,192,142796,6,0,P|112:196|172:176,1,120.000004577637,2|2,0:0|0:0,0:0:0:0:
224,108,143478,1,0,0:0:0:0:
304,44,143705,2,0,P|316:80|320:108,1,60.0000022888184
284,192,144159,1,2,0:0:0:0:
288,288,144387,1,0,0:0:0:0:
384,304,144614,2,0,L|473:292,2,90.0000034332277,0|0|2,0:0|0:0|0:0,0:0:0:0:
288,288,145523,2,0,P|256:280|220:280,1,60.0000022888184
140,328,145978,2,0,P|108:340|76:336,1,60.0000022888184,2|0,0:0|0:0,0:0:0:0:
28,252,146432,5,0,0:0:0:0:
128,168,146659,1,0,0:0:0:0:
20,144,146887,2,0,P|32:112|52:88,1,60.0000022888184,2|0,0:0|0:0,0:0:0:0:
136,48,147341,2,0,P|180:72|248:64,1,120.000004577637,0|2,0:0|0:0,0:0:0:0:
336,44,148023,1,0,0:0:0:0:
420,84,148250,2,0,P|460:116|480:188,1,120.000004577637,0|2,0:0|0:0,0:0:0:0:
480,179,148932,1,0,0:0:0:0:
400,240,149159,5,0,3:0:0:0:
379,242,149273,1,0,3:0:0:0:
358,245,149387,1,0,3:0:0:0:
337,248,149500,1,0,3:0:0:0:
316,251,149614,1,0,3:0:0:0:
295,253,149728,1,0,3:0:0:0:
275,256,149841,1,0,3:0:0:0:
254,259,149955,1,0,3:0:0:0:
233,262,150068,6,0,P|220:224|224:176,1,80,4|0,0:0|0:0,0:0:0:0:
296,36,150523,2,0,P|309:74|305:122,1,80,8|0,0:0|0:0,0:0:0:0:
208,84,150978,2,0,L|124:96,1,80
32,124,151432,1,8,0:0:0:0:
32,220,151659,2,0,P|40:296|104:344,1,160
132,252,152341,1,8,0:0:0:0:
228,284,152568,2,0,P|220:208|156:160,1,160
80,104,153250,2,0,P|100:64|136:36,1,80,8|0,0:0|0:0,0:0:0:0:
220,32,153705,6,0,P|288:68|376:56,1,160,0|8,0:0|0:0,0:0:0:0:
464,52,154387,1,0,0:0:0:0:
492,144,154614,2,0,P|496:184|488:232,1,80
420,280,155068,1,8,0:0:0:0:
324,252,155296,2,0,P|252:244|180:292,1,160
100,344,155978,1,8,0:0:0:0:
32,264,156205,2,0,P|20:220|24:176,1,80
144,128,156659,2,0,P|156:172|152:216,2,80,0|8|0,0:0|0:0|0:0,0:0:0:0:
60,64,157341,6,0,P|136:32|216:52,1,160,4|8,0:0|0:0,0:0:0:0:
280,116,158023,1,0,0:0:0:0:
380,140,158250,2,0,P|380:96|360:56,1,80
304,216,158705,2,0,P|304:260|324:300,1,80,8|0,0:0|0:0,0:0:0:0:
232,344,159159,2,0,P|156:368|80:336,1,160,0|8,0:0|0:0,0:0:0:0:
40,248,159841,1,0,0:0:0:0:
40,248,160068,2,0,L|32:156,1,80
152,92,160523,2,0,L|158:171,1,80,8|0,0:0|0:0,0:0:0:0:
240,240,160978,6,0,P|304:272|392:252,1,160,0|8,0:0|0:0,0:0:0:0:
420,164,161659,1,0,0:0:0:0:
492,232,161887,2,0,P|500:272|496:312,2,80,0|0|8,0:0|0:0|0:0,0:0:0:0:
420,164,162568,1,0,0:0:0:0:
348,88,162796,2,0,L|256:92,1,80
176,56,163250,2,0,L|84:60,1,80,8|0,0:0|0:0,0:0:0:0:
24,128,163705,2,0,P|16:172|24:212,1,80
80,292,164159,5,8,0:0:0:0:
184,352,164387,1,0,0:0:0:0:
184,236,164614,1,4,0:0:0:0:
256,192,170068,12,0,171432,0:0:0:0:
95,314,171887,6,0,P|116:240|80:164,1,160,4|8,0:0|0:0,0:0:0:0:
28,92,172568,1,0,0:0:0:0:
116,52,172796,2,0,P|152:36|200:40,1,80
264,104,173250,1,8,0:0:0:0:
352,152,173478,2,0,P|424:160|484:104,1,160
396,72,174159,1,8,0:0:0:0:
396,72,174387,2,0,L|456:220,1,160
504,304,175068,2,0,P|464:316|424:308,1,80,8|0,0:0|0:0,0:0:0:0:
348,256,175523,6,0,P|276:248|208:300,1,160,0|8,0:0|0:0,0:0:0:0:
128,348,176205,1,0,0:0:0:0:
48,288,176432,2,0,P|36:252|36:204,1,80
96,140,176887,1,8,0:0:0:0:
196,120,177114,2,0,P|272:132|344:88,1,160
436,56,177796,2,0,P|472:80|492:120,1,80,8|0,0:0|0:0,0:0:0:0:
435,241,178250,2,0,P|427:202|408:168,1,80
332,244,178705,2,0,P|336:276|328:328,1,80,8|0,0:0|0:0,0:0:0:0:
236,352,179159,6,0,P|156:352|92:304,1,160,4|8,0:0|0:0,0:0:0:0:
56,220,179841,1,0,0:0:0:0:
48,128,180068,2,0,P|88:132|124:160,1,80
184,224,180523,1,8,0:0:0:0:
272,272,180750,2,0,P|340:280|420:232,1,160
476,88,181432,1,8,0:0:0:0:
476,88,181659,2,0,P|408:80|328:128,1,160
248,176,182341,2,0,L|160:172,1,80,8|0,0:0|0:0,0:0:0:0:
76,128,182796,6,0,P|52:188|52:288,1,160,0|8,0:0|0:0,0:0:0:0:
128,332,183478,1,0,0:0:0:0:
128,332,183705,2,0,L|216:328,1,80
296,356,184159,1,8,0:0:0:0:
296,356,184387,2,0,P|352:312|448:320,1,160
488,236,185068,2,0,P|492:192|488:152,1,80,8|0,0:0|0:0,0:0:0:0:
376,76,185523,2,0,P|372:120|376:160,1,80,0|0,0:0|0:0,0:0:0:0:
320,236,185978,5,8,0:0:0:0:
320,236,186205,1,0,0:0:0:0:
