osu file format v5

[General]
AudioFilename: Katekyo_Hitman_Reborn_-_Drawing_Days.mp3
AudioLeadIn: 0
AudioHash: de119295b50f209e481c97ac446bfcf2
PreviewTime: -1
Countdown: 0
SampleSet: None
EditorBookmarks: 10313,52171,129494,137186,186437,219204,233090

[Metadata]
Title:Drawing days
Artist:SPLAY
Creator:With Q
Version:Normal

[Difficulty]
HPDrainRate:5
CircleSize:5
OverallDifficulty:5
SliderMultiplier: 0.4
SliderTickRate: 0.5

[Events]
//Background and Video events
0,-100000,"mafiaredhotiz5.jpg"
//Break Periods
2,33404,37224
2,64604,74244
2,119084,129324
2,163664,167664
//Storyboard Layer 0 (Background)
//Storyboard Layer 1 (Failing)
//Storyboard Layer 2 (Passing)
//Storyboard Layer 3 (Foreground)
//Storyboard Sound Samples
//Background Colour Transformations
3,100,163,162,255

[TimingPoints]
24,99.8999999999999,4,0,0,100

[HitObjects]
128,128,11424,1,0
352,64,11904,1,0
224,160,14184,1,0
128,96,14664,1,0
416,288,15204,1,0
224,128,16907,2,4,B|224:128|192:352,1,200
384,320,19584,1,4
384,96,20124,1,4
320,192,20603,6,4,B|320:192|224:192|190:288|256:320,1,200
256,192,22284,1,0
256,256,22824,1,0
160,256,25044,1,0
288,224,25584,1,0
192,128,26064,1,0
224,96,27796,6,4,B|224:96|122:188|128:288,1,200
128,96,30504,1,0
224,160,30984,1,0
320,256,31524,1,0
416,160,32064,1,0
160,128,33204,1,0
160,192,38664,5,0
224,224,39204,1,0
448,64,44184,1,0
352,128,44724,1,0
96,64,49644,1,0
192,128,50124,1,0
0,288,51984,1,0
64,224,52284,1,0
128,160,53670,2,4,B|128:160|304:169|416:256,1,280
64,96,55044,5,0
128,160,55344,1,0
192,224,55584,1,2
256,288,55884,1,0
352,352,56184,1,0
352,256,56724,1,0
288,192,56964,1,0
224,128,57264,1,0
160,64,57564,1,0
96,128,58104,1,0
96,224,58284,1,2
160,256,58524,1,2
224,256,58944,1,0
256,192,59244,1,2
320,192,60504,5,0
416,192,60804,2,0,B|416:192|416:192|416:96,1,80
352,64,61284,1,0
256,96,61824,1,0
256,160,62064,1,0
160,192,62304,1,0
160,288,62604,1,0
256,320,63144,1,0
320,288,63564,1,0
384,224,63744,1,0
352,192,64044,1,0
320,160,64404,1,4
128,96,76824,5,0
192,160,77184,1,0
288,160,77544,1,0
352,224,77904,1,0
288,256,78204,1,0
224,256,78564,1,0
192,320,78924,1,0
128,320,79224,1,0
64,256,79584,1,0
64,192,79944,1,0
128,160,80244,1,0
192,160,80544,1,0
160,96,80964,1,0
384,96,81642,5,0
288,128,81984,1,0
224,160,82284,1,0
128,224,83304,1,0
224,288,83664,1,0
320,256,84324,1,0
256,160,84684,1,0
192,224,85044,1,0
96,128,85704,1,0
128,224,87564,5,0
224,192,87744,1,0
320,160,88764,1,0
320,160,88944,1,0
96,128,90504,1,0
192,192,91464,1,0
256,288,91704,1,0
352,256,92184,1,0
352,160,92484,1,0
352,64,92844,1,0
256,96,93204,1,0
96,96,94224,1,0
96,160,94404,1,0
256,192,98664,12,0,106524
96,160,109884,1,0
128,224,110064,1,0
160,288,110424,1,0
192,288,110784,1,0
320,288,111264,1,0
352,224,111564,1,0
320,192,111744,1,0
192,224,112104,1,0
128,160,112284,1,0
192,128,112644,1,0
256,96,112824,1,0
320,96,113124,1,0
384,128,113484,1,0
384,192,113784,1,0
256,192,115344,5,0
320,160,115524,1,0
256,96,115884,1,0
128,64,116364,1,0
64,160,116724,1,0
96,256,116904,1,0
192,256,117204,1,0
320,320,117624,1,0
416,288,118044,1,0
352,224,118224,1,0
384,192,118584,1,0
352,96,118884,1,0
352,64,130693,6,0,B|352:64|352:128|256:160,1,120
192,160,131292,2,0,B|192:160|96:224|96:320,1,160
192,320,132024,1,0
288,288,132384,1,0
352,224,132791,1,0
416,192,133104,1,0
416,96,133404,1,0
320,64,133764,1,0
224,96,134089,1,0
256,160,134389,1,0
160,224,134844,1,0
64,160,135144,1,0
128,64,135488,1,0
224,64,136104,5,0
256,96,136404,1,0
224,192,136704,1,0
128,224,137844,1,0
192,288,138204,1,0
256,288,138884,1,0
256,224,139224,1,0
192,224,139584,1,0
224,160,140083,2,4,B|224:160|-68:78|342:-204|664:109|341:303|163:433|64:192,1,880
256,192,160224,12,0,163464
256,192,168984,12,0,173064
288,192,176664,1,0
384,256,176846,1,0
288,320,177146,1,0
192,320,177546,1,0
128,288,178045,1,0
64,224,178245,1,0
128,160,178545,1,0
192,128,179044,1,0
288,128,179444,1,0
288,128,179544,1,0
384,160,179943,1,0
352,256,180243,1,0
256,288,180643,1,0
384,64,182141,5,0
288,64,182341,1,0
224,128,182641,1,0
320,128,182940,1,0
384,224,183440,1,0
288,256,183640,1,0
224,288,183939,1,0
64,96,184539,1,0
192,96,184838,1,0
288,96,185038,1,0
256,160,185338,1,0
160,224,185638,1,0
64,96,187036,6,0,B|64:96|167:128|128:192,2,120
160,64,187935,1,0
256,96,188235,1,0
320,160,188635,1,0
352,224,188934,1,0
224,256,189334,1,0
320,320,189634,1,0
448,320,190033,1,0
448,224,190333,1,0
352,128,190633,1,0
224,96,191032,1,0
160,192,191332,1,0
96,96,192031,5,0
64,192,192331,1,0
128,288,192731,1,0
256,320,193730,1,0
384,256,194029,1,0
416,96,194729,1,0
256,128,195028,1,0
256,192,195428,1,0
128,96,196027,1,0
64,224,197426,5,0
128,320,197825,1,0
256,288,198125,1,0
192,224,198525,1,0
256,160,198824,1,0
320,64,199224,1,0
352,128,199524,1,0
352,192,199923,1,0
352,256,200223,1,0
288,192,200523,1,0
224,288,200922,1,0
160,192,201222,1,0
96,224,201522,1,0
64,320,201921,1,0
192,352,202221,1,0
256,320,202920,5,0
288,288,203220,1,0
352,192,203620,1,0
256,160,204619,1,0
256,160,204918,1,0
160,256,205618,1,0
288,256,206017,1,0
192,160,206317,1,0
224,64,206816,1,0
256,192,208914,12,0,217606
128,128,219903,1,0
160,224,221002,1,0
192,256,221102,1,0
288,128,222501,1,0
224,128,222701,1,0
160,160,223899,1,0
128,224,224399,1,0
192,288,224699,1,0
288,256,225098,1,0
352,224,225398,1,0
288,160,226397,5,0
192,160,226697,1,0
160,256,227696,1,0
224,288,227995,1,0
320,288,228794,1,0
160,224,230892,1,0
256,288,231392,1,0
384,224,233490,1,0
352,192,233690,1,0
288,160,234089,1,0
192,224,234589,1,0
256,320,236387,5,0
256,192,236886,1,0
256,64,239084,1,0
288,160,239584,1,0
320,256,240083,1,0
160,192,240583,1,0
224,96,241781,1,0
352,160,242281,1,0
128,64,244379,5,0
160,96,244479,1,0
256,128,245078,1,0
256,224,245578,1,0
128,96,247224,1,0
128,256,247764,1,0
256,128,249984,1,0
256,224,250524,1,0
352,320,250972,1,0
128,288,251472,1,0
256,192,252564,1,0
256,192,252684,1,4
