osu file format v12

[General]
AudioFilename: SOUTAISEIRIRON - Yon kaku Kakumei.mp3
AudioLeadIn: 0
PreviewTime: 192615
Countdown: 0
SampleSet: Soft
StackLeniency: 0.7
Mode: 0
LetterboxInBreaks: 0
WidescreenStoryboard: 0

[Editor]
DistanceSpacing: 1.1
BeatDivisor: 4
GridSize: 4

[Metadata]
Title:Shikaku Kakumei
TitleUnicode:Shikaku Kakumei
Artist:SOUTAISEIRIRON
ArtistUnicode:SOUTAISEIRIRON
Creator:EvilElvisV2
Version:Insane
Source:
Tags:Yakushimaru Etsuko Hi-Fi Anatomia
BeatmapID:338533
BeatmapSetID:135092

[Difficulty]
HPDrainRate:7
CircleSize:4
OverallDifficulty:7
ApproachRate:9
SliderMultiplier:1.6
SliderTickRate:1

[Events]
//Background and Video events
0,0,"bg.png",0,0
//Break Periods
2,169010,178947
//Storyboard Layer 0 (Background)
//Storyboard Layer 1 (Fail)
//Storyboard Layer 2 (Pass)
//Storyboard Layer 3 (Foreground)
//Storyboard Sound Samples
//Background Colour Transformations
3,100,192,192,192

[TimingPoints]
615,375,4,2,1,40,1,0
615,-200,4,2,1,40,0,0
48615,-100,4,2,1,40,0,0
60615,-76.9230769230769,4,2,1,40,0,0
61177,-100,4,2,1,40,0,0
63240,-200,4,2,1,40,0,0
63615,-76.9230769230769,4,2,1,40,0,0
63990,-100,4,2,1,40,0,0
65865,-200,4,2,1,40,0,0
66615,-76.9230769230769,4,2,1,40,0,0
66990,-100,4,2,1,40,0,0
69240,-200,4,2,1,40,0,0
69615,-76.9230769230769,4,2,1,40,0,0
69990,-100,4,2,1,40,0,0
84615,-83.3333333333333,4,2,1,40,0,0
85365,-83.3333333333333,4,2,1,50,0,1
108615,-100,4,2,1,40,0,0
120615,-76.9230769230769,4,2,1,40,0,0
121365,-100,4,2,1,40,0,0
122865,-200,4,2,1,40,0,0
123615,-76.9230769230769,4,2,1,40,0,0
123990,-100,4,2,1,40,0,0
126240,-200,4,2,1,40,0,0
126615,-76.9230769230769,4,2,1,40,0,0
127177,-100,4,2,1,40,0,0
129240,-200,4,2,1,40,0,0
129615,-76.9230769230769,4,2,1,40,0,0
130365,-100,4,2,1,40,0,0
144615,-83.3333333333333,4,2,1,40,0,1
144990,-83.3333333333333,4,2,1,50,0,1
168615,-83.3333333333333,4,2,1,50,0,0
180615,-100,4,2,1,40,0,0
192615,-76.9230769230769,4,2,1,50,0,1
196365,-76.9230769230769,4,2,1,30,0,1
196740,-76.9230769230769,4,2,1,35,0,1
197115,-76.9230769230769,4,2,1,40,0,1
197490,-76.9230769230769,4,2,1,50,0,1
202365,-76.9230769230769,4,2,1,35,0,1
202740,-76.9230769230769,4,2,1,40,0,1
203115,-76.9230769230769,4,2,1,45,0,1
204615,-76.9230769230769,4,2,1,50,0,1
216427,-76.9230769230769,4,2,1,60,0,0

[Colours]
Combo1 : 255,98,98
Combo2 : 62,158,255
Combo3 : 89,255,172
Combo4 : 255,124,62

[HitObjects]
335,124,48615,2,0,L|426:113,1,80,4|0,1:0|0:0,0:0:0:0:
464,36,48990,1,8,1:0:0:0:
472,42,49177,1,0,0:0:0:0:
495,217,49365,6,0,L|406:207,1,80
502,131,49740,1,8,1:0:0:0:
509,137,49927,5,0,0:0:0:0:
496,218,50115,1,0,0:0:0:0:
434,307,50302,1,0,0:0:0:0:
336,356,50490,1,8,1:0:0:0:
225,353,50677,6,0,B|119:341|173:370|43:350,1,160,0|0,1:0|1:0,0:0:0:0:
113,275,51240,2,0,P|121:254|97:188,1,80,8|0,1:0|0:0,0:0:0:0:
30,244,51615,5,4,3:0:0:0:
187,171,51802,2,0,P|170:135|132:108,1,80,0|8,0:0|1:0,0:0:0:0:
30,244,52177,1,0,0:0:0:0:
113,275,52365,2,0,P|121:254|97:188,1,80
30,244,52740,1,8,1:0:0:0:
53,321,52927,5,0,0:0:0:0:
113,275,53115,1,4,3:0:0:0:
109,200,53302,1,0,0:0:0:0:
46,160,53490,1,8,1:0:0:0:
30,244,53677,5,0,0:0:0:0:
185,314,53865,2,0,L|270:299,1,80
429,361,54240,2,0,L|333:355,1,80,8|0,1:0|0:0,0:0:0:0:
461,281,54615,5,4,3:0:0:0:
473,277,54802,1,0,0:0:0:0:
379,209,54990,1,8,1:0:0:0:
398,218,55177,1,0,0:0:0:0:
403,110,55365,1,0,0:0:0:0:
409,122,55552,1,0,0:0:0:0:
502,67,55740,1,8,1:0:0:0:
498,90,55927,1,0,0:0:0:0:
477,181,56115,6,0,P|448:199|328:184,1,160,0|8,0:0|1:0,0:0:0:0:
402,131,56677,1,0,1:0:0:0:
348,282,56865,2,0,P|359:313|348:385,1,80,0|0,0:0|1:0,0:0:0:0:
267,329,57240,2,0,B|197:317|225:347|134:328,1,120,8|0,1:0|0:0,0:0:0:0:
137,341,57615,6,0,L|61:313,1,80,0|0,1:0|0:0,0:0:0:0:
0,270,57990,1,8,1:0:0:0:
141,197,58177,6,0,L|49:243,1,80
0,270,58552,1,0,0:0:0:0:
9,108,58740,6,0,L|-1:207,1,80,8|0,1:0|0:0,0:0:0:0:
0,270,59115,1,0,0:0:0:0:
0,270,59490,5,8,1:0:0:0:
153,289,59677,1,0,0:0:0:0:
44,206,59865,5,0,0:0:0:0:
106,357,60052,1,0,0:0:0:0:
120,215,60240,5,8,1:0:0:0:
26,346,60427,1,0,0:0:0:0:
74,284,60615,6,0,B|201:261|135:303|285:276,1,207.999990478516,4|8,1:0|1:0,0:0:0:0:
363,322,61177,1,0,0:0:0:0:
374,317,61271,1,0,0:0:0:0:
384,311,61365,6,0,P|391:272|376:236,1,80,8|0,3:0|0:0,0:0:0:0:
219,125,61740,2,0,P|203:161|211:199,1,80,0|8,0:0|3:0,0:0:0:0:
416,133,62115,1,0,3:0:0:0:
416,133,62865,1,2,0:0:0:0:
416,133,62958,1,2,0:0:0:0:
416,133,63052,1,2,0:0:0:0:
416,133,63146,1,0,0:0:0:0:
416,133,63240,6,0,P|407:169|407:207,1,60,4|0,0:0|0:0,0:0:0:0:
441,211,63615,6,0,B|354:204|354:204|322:214|322:214|217:205,1,207.999990478516,4|8,1:0|1:0,0:0:0:0:
304,108,64177,1,0,0:0:0:0:
304,108,64271,1,0,0:0:0:0:
304,108,64365,6,0,P|307:68|301:22,1,80,8|0,3:0|0:0,0:0:0:0:
235,207,64740,2,0,P|231:246|238:293,1,80,0|8,0:0|3:0,0:0:0:0:
383,341,65115,1,0,3:0:0:0:
383,341,65865,5,2,0:0:0:0:
383,341,66052,1,2,0:0:0:0:
383,341,66240,2,0,L|312:357,1,60,4|0,0:0|0:0,0:0:0:0:
308,363,66615,6,0,B|404:339|396:393|514:350,1,207.999990478516,4|8,1:0|1:0,0:0:0:0:
440,282,67177,1,0,0:0:0:0:
440,282,67271,1,0,0:0:0:0:
440,282,67365,6,0,L|426:185,1,80,8|0,3:0|0:0,0:0:0:0:
494,70,67740,2,0,L|505:167,1,80,0|8,0:0|3:0,0:0:0:0:
385,14,68115,1,0,3:0:0:0:
385,14,68865,5,2,0:0:0:0:
385,14,68958,1,2,0:0:0:0:
385,14,69052,1,2,0:0:0:0:
385,14,69146,1,0,0:0:0:0:
385,14,69240,2,0,P|349:27|321:31,1,60,4|0,0:0|0:0,0:0:0:0:
310,25,69615,6,0,B|358:17|358:17|445:33|445:33|517:24,1,207.999990478516,4|8,1:0|1:0,0:0:0:0:
358,102,70177,1,0,0:0:0:0:
358,102,70271,1,0,0:0:0:0:
358,102,70365,6,0,P|372:140|365:193,1,80,8|0,3:0|0:0,0:0:0:0:
194,191,70740,2,0,P|185:168|193:106,1,80,0|8,0:0|3:0,0:0:0:0:
275,144,71115,2,0,L|296:306,2,160,12|4|0,3:0|0:0|0:0,0:0:0:0:
176,318,72052,1,0,1:0:0:0:
176,318,72146,1,0,1:0:0:0:
176,318,72240,6,0,P|134:317|79:302,1,80,0|2,1:0|0:0,0:0:0:0:
356,228,72615,2,0,L|519:194,1,160,4|8,1:0|1:0,0:0:0:0:
436,291,73177,1,0,0:0:0:0:
405,136,73365,6,0,P|393:98|397:40,1,80
311,298,73740,2,0,P|322:331|317:381,1,80,8|0,1:0|0:0,0:0:0:0:
229,342,74115,2,0,B|134:316|155:360|63:332,1,160,0|8,0:0|1:0,0:0:0:0:
10,202,74677,1,0,0:0:0:0:
65,68,74865,5,0,0:0:0:0:
23,278,75052,1,0,0:0:0:0:
18,12,75240,5,8,1:0:0:0:
47,138,75427,1,0,0:0:0:0:
18,12,75615,6,0,L|4:177,1,160,0|8,0:0|1:0,0:0:0:0:
118,57,76177,1,0,0:0:0:0:
201,28,76365,2,0,P|236:16|291:18,1,80
415,154,76740,2,0,L|325:164,1,80,8|0,1:0|0:0,0:0:0:0:
266,88,77115,5,0,0:0:0:0:
309,78,77302,1,0,0:0:0:0:
364,72,77490,1,8,1:0:0:0:
436,74,77677,1,0,0:0:0:0:
512,104,77865,1,0,0:0:0:0:
488,13,78052,5,0,0:0:0:0:
468,171,78240,1,8,1:0:0:0:
452,297,78427,1,0,0:0:0:0:
503,371,78615,2,0,P|523:343|529:288,1,80
382,347,78990,2,0,B|284:325|324:368|210:347,1,160,8|0,1:0|0:0,0:0:0:0:
139,356,79552,1,0,0:0:0:0:
57,338,79740,2,0,P|46:302|50:249,1,80,8|0,1:0|0:0,0:0:0:0:
110,182,80115,6,0,L|288:196,1,160,0|8,0:0|1:0,0:0:0:0:
207,272,80677,1,0,0:0:0:0:
214,102,80865,2,0,P|219:57|200:14,1,80
70,19,81240,2,0,P|57:56|63:96,1,80,8|0,1:0|0:0,0:0:0:0:
136,62,81615,1,0,0:0:0:0:
294,107,81802,1,0,0:0:0:0:
429,145,81990,1,8,1:0:0:0:
503,82,82177,5,0,0:0:0:0:
481,63,82271,1,0,0:0:0:0:
454,55,82365,1,4,0:0:0:0:
429,145,82552,1,0,0:0:0:0:
463,240,82740,2,0,P|492:219|516:165,1,80,8|4,1:0|0:0,0:0:0:0:
429,145,83115,2,0,B|374:138|374:138|258:170,1,160,0|8,0:0|1:0,0:0:0:0:
219,251,83677,1,2,0:0:0:0:
221,270,83771,1,8,3:0:0:0:
223,289,83865,1,8,3:0:0:0:
301,363,84052,1,8,3:0:0:0:
303,344,84146,1,8,3:0:0:0:
305,325,84240,1,8,1:0:0:0:
318,239,84427,5,0,0:0:0:0:
146,327,84615,2,0,P|111:325|39:323,1,95.9999970703126,4|0,0:0|0:0,0:0:0:0:
269,163,84990,5,0,1:0:0:0:
237,363,85177,1,0,0:0:0:0:
197,213,85365,5,0,0:0:0:0:
313,327,85552,1,0,0:0:0:0:
172,297,85740,5,0,1:0:0:0:
316,236,85927,1,0,0:0:0:0:
113,211,86115,5,0,0:0:0:0:
394,286,86302,1,0,0:0:0:0:
58,282,86490,5,0,1:0:0:0:
247,257,86677,1,0,0:0:0:0:
436,223,86865,1,0,0:0:0:0:
251,248,87052,1,0,0:0:0:0:
64,274,87240,1,0,1:0:0:0:
251,248,87427,1,0,0:0:0:0:
141,231,87615,5,0,0:0:0:0:
341,188,87802,1,0,0:0:0:0:
202,190,87990,5,0,1:0:0:0:
285,230,88177,1,0,0:0:0:0:
279,130,88365,5,0,0:0:0:0:
206,290,88552,1,0,0:0:0:0:
230,87,88740,5,0,1:0:0:0:
269,331,88927,1,0,0:0:0:0:
268,7,89115,5,0,0:0:0:0:
248,197,89302,1,0,0:0:0:0:
175,45,89490,1,0,1:0:0:0:
340,161,89677,1,0,0:0:0:0:
168,143,89865,1,0,0:0:0:0:
353,63,90052,1,0,0:0:0:0:
92,100,90240,5,0,1:0:0:0:
441,79,90427,1,4,0:0:0:0:
258,105,90615,5,0,0:0:0:0:
159,224,90802,1,0,0:0:0:0:
318,252,90990,1,0,1:0:0:0:
250,197,91177,1,0,0:0:0:0:
380,319,91365,6,0,P|408:277|399:230,1,95.9999970703126
250,197,91740,2,0,P|222:239|231:286,1,95.9999970703126,0|0,1:0|0:0,0:0:0:0:
322,262,92115,2,0,B|433:237|398:277|517:248,2,191.999994140625,0|0|0,0:0|1:0|0:0,0:0:0:0:
249,286,93052,1,0,0:0:0:0:
186,338,93240,2,0,P|161:348|93:354,1,95.9999970703126,0|0,1:0|0:0,0:0:0:0:
249,286,93615,6,0,L|234:81,1,191.999994140625,0|0,0:0|1:0,0:0:0:0:
297,41,94177,5,0,0:0:0:0:
159,158,94365,2,0,P|142:197|139:255,1,95.9999970703126
331,311,94740,2,0,P|344:265|332:210,1,95.9999970703126,0|0,1:0|0:0,0:0:0:0:
242,232,95115,1,0,0:0:0:0:
239,246,95302,1,0,0:0:0:0:
247,112,95490,1,0,1:0:0:0:
250,128,95677,1,0,0:0:0:0:
206,34,95865,5,8,3:0:0:0:
306,38,96052,1,8,3:0:0:0:
345,124,96240,1,0,1:0:0:0:
304,208,96427,1,4,0:0:0:0:
200,203,96615,1,0,0:0:0:0:
163,115,96802,1,0,0:0:0:0:
187,8,96990,5,0,1:0:0:0:
257,126,97177,1,0,0:0:0:0:
307,37,97365,5,0,0:0:0:0:
247,120,97552,1,0,0:0:0:0:
334,164,97740,5,0,1:0:0:0:
248,107,97927,1,0,0:0:0:0:
224,209,98115,5,0,0:0:0:0:
260,113,98302,1,0,0:0:0:0:
190,34,98490,5,0,1:0:0:0:
254,122,98677,1,0,0:0:0:0:
357,124,98865,5,0,0:0:0:0:
254,122,99052,1,0,0:0:0:0:
185,211,99240,5,0,1:0:0:0:
254,122,99427,1,0,0:0:0:0:
241,306,99615,6,0,B|110:280|187:334|47:308,1,191.999994140625,0|0,0:0|1:0,0:0:0:0:
98,236,100177,1,0,0:0:0:0:
300,372,100365,2,0,P|254:384|197:375,1,95.9999970703126,0|0,0:0|0:0,0:0:0:0:
186,230,100740,2,0,P|232:218|289:227,1,95.9999970703126,0|0,1:0|0:0,0:0:0:0:
242,306,101115,1,0,0:0:0:0:
165,304,101302,1,0,0:0:0:0:
89,317,101490,1,0,1:0:0:0:
12,312,101677,5,0,0:0:0:0:
49,248,101865,1,0,0:0:0:0:
125,241,102052,1,0,0:0:0:0:
165,304,102240,1,0,1:0:0:0:
138,376,102427,1,4,0:0:0:0:
53,380,102615,1,0,0:0:0:0:
89,315,102802,1,0,0:0:0:0:
221,240,102990,5,0,1:0:0:0:
228,246,103177,1,0,0:0:0:0:
287,157,103365,1,0,0:0:0:0:
286,166,103552,1,0,0:0:0:0:
384,119,103740,1,0,1:0:0:0:
377,125,103927,1,0,0:0:0:0:
482,160,104115,1,0,0:0:0:0:
472,162,104302,1,0,0:0:0:0:
503,246,104490,6,0,P|464:254|409:225,1,95.9999970703126,0|0,1:0|0:0,0:0:0:0:
247,53,104865,2,0,L|450:28,1,191.999994140625,0|0,0:0|1:0,0:0:0:0:
376,142,105427,1,0,0:0:0:0:
166,106,105615,6,0,P|151:66|176:-2,1,95.9999970703126
323,238,105990,2,0,P|338:278|313:346,1,95.9999970703126,0|0,1:0|0:0,0:0:0:0:
255,286,106365,1,0,0:0:0:0:
253,280,106552,1,0,0:0:0:0:
413,243,106740,1,0,1:0:0:0:
415,237,106927,1,0,0:0:0:0:
129,204,107115,1,0,0:0:0:0:
127,198,107302,1,0,0:0:0:0:
348,101,107490,1,0,1:0:0:0:
213,67,107677,1,0,1:0:0:0:
210,47,107771,1,0,1:0:0:0:
208,27,107865,1,8,3:0:0:0:
126,57,108052,5,0,3:0:0:0:
294,19,108240,1,8,3:0:0:0:
131,46,108427,5,4,3:0:0:0:
300,29,108615,2,0,L|387:33,1,80,4|0,1:0|0:0,0:0:0:0:
508,118,108990,1,8,1:0:0:0:
505,111,109177,1,0,0:0:0:0:
478,26,109365,5,0,0:0:0:0:
487,195,109552,1,0,0:0:0:0:
485,207,109740,1,8,1:0:0:0:
512,305,109927,5,0,0:0:0:0:
429,132,110115,2,0,L|416:41,1,80,0|0,0:0|0:0,0:0:0:0:
384,273,110490,2,0,P|373:313|376:383,1,80,8|0,1:0|1:0,0:0:0:0:
372,351,110865,5,0,0:0:0:0:
345,96,111052,1,0,1:0:0:0:
382,179,111240,2,0,L|242:188,1,120,8|0,1:0|0:0,0:0:0:0:
252,194,111615,6,0,P|236:167|247:114,1,80,4|0,3:0|0:0,0:0:0:0:
439,47,111990,2,0,P|457:80|444:127,1,80,8|0,1:0|0:0,0:0:0:0:
345,96,112365,1,4,3:0:0:0:
160,169,112552,2,0,B|53:144|101:191|-24:155,1,160,0|4,0:0|3:0,0:0:0:0:
132,246,113115,2,0,P|139:275|121:342,1,80,4|0,3:0|0:0,0:0:0:0:
41,88,113490,2,0,P|23:52|13:6,1,80,8|2,1:0|0:0,0:0:0:0:
151,14,113865,5,2,0:0:0:0:
166,101,114052,1,2,0:0:0:0:
39,309,114240,2,0,P|29:273|30:222,1,80,8|0,1:0|0:0,0:0:0:0:
134,344,114615,2,0,L|303:348,1,160,4|8,0:0|1:0,0:0:0:0:
381,335,115177,1,0,0:0:0:0:
474,323,115365,2,0,P|480:291|468:241,1,80
312,171,115740,2,0,P|303:210|310:251,1,80,8|0,1:0|0:0,0:0:0:0:
457,133,116115,2,0,P|466:94|452:56,1,80
362,20,116490,5,8,1:0:0:0:
278,71,116677,2,0,L|106:93,1,160,0|0,1:0|1:0,0:0:0:0:
65,157,117240,2,0,P|89:168|155:164,1,80,8|0,1:0|0:0,0:0:0:0:
136,14,117615,2,0,P|96:11|60:33,1,80,4|0,3:0|0:0,0:0:0:0:
316,156,117990,2,0,L|478:141,1,160,8|0,1:0|0:0,0:0:0:0:
503,60,118552,5,0,0:0:0:0:
463,228,118740,2,0,P|456:275|466:319,1,80,8|0,1:0|0:0,0:0:0:0:
512,373,119115,1,0,0:0:0:0:
512,363,119302,1,0,0:0:0:0:
383,270,119490,1,8,1:0:0:0:
379,256,119677,1,4,0:0:0:0:
326,124,119865,1,8,3:0:0:0:
333,106,120052,1,0,1:0:0:0:
389,45,120240,2,0,P|412:79|408:140,1,80,8|8,1:0|3:0,0:0:0:0:
326,124,120615,6,0,B|260:109|260:109|190:131|190:131|116:114,1,207.999990478516,4|8,1:0|1:0,0:0:0:0:
35,154,121177,1,0,1:0:0:0:
35,154,121271,1,0,1:0:0:0:
35,154,121365,6,0,L|25:249,1,80,8|0,3:0|0:0,0:0:0:0:
256,371,121740,2,0,L|246:276,1,80,0|8,0:0|3:0,0:0:0:0:
140,350,122115,1,0,3:0:0:0:
140,350,122865,5,2,0:0:0:0:
140,350,122958,1,2,0:0:0:0:
140,350,123052,1,2,0:0:0:0:
140,350,123146,1,0,0:0:0:0:
140,350,123240,2,0,P|126:323|97:306,1,60,4|0,0:0|0:0,0:0:0:0:
109,342,123615,6,0,B|172:323|172:323|328:343,1,207.999990478516,4|8,1:0|1:0,0:0:0:0:
475,253,124177,1,0,1:0:0:0:
475,253,124271,1,0,1:0:0:0:
475,253,124365,6,0,P|441:264|387:258,1,80,8|0,3:0|0:0,0:0:0:0:
330,109,124740,2,0,P|364:98|418:104,1,80,0|8,0:0|3:0,0:0:0:0:
392,180,125115,1,0,3:0:0:0:
392,180,125865,5,2,0:0:0:0:
392,180,126052,1,2,0:0:0:0:
392,180,126240,2,0,P|359:184|330:200,1,60,4|0,0:0|0:0,0:0:0:0:
373,226,126615,6,0,B|297:197|246:251|165:218,1,207.999990478516,4|8,1:0|1:0,0:0:0:0:
319,121,127177,1,0,1:0:0:0:
319,121,127271,1,0,1:0:0:0:
319,121,127365,6,0,L|305:36,1,80,8|0,3:0|0:0,0:0:0:0:
177,156,127740,1,0,0:0:0:0:
186,228,127927,1,8,3:0:0:0:
196,298,128115,1,0,3:0:0:0:
196,298,128865,5,2,0:0:0:0:
196,298,128958,1,2,0:0:0:0:
196,298,129052,1,2,0:0:0:0:
196,298,129146,1,0,0:0:0:0:
196,298,129240,2,0,P|184:333|179:368,1,60,4|0,0:0|0:0,0:0:0:0:
173,379,129615,6,0,P|186:289|157:176,1,207.999990478516,4|8,1:0|1:0,0:0:0:0:
25,221,130177,1,0,1:0:0:0:
25,221,130271,1,0,1:0:0:0:
25,221,130365,6,0,P|14:263|28:321,1,80,8|0,3:0|0:0,0:0:0:0:
19,298,130927,5,4,3:0:0:0:
104,317,131115,2,0,L|192:308,1,80,4|0,2:0|0:0,0:0:0:0:
422,274,131490,2,0,L|243:262,1,160,4|8,2:0|3:0,0:0:0:0:
494,334,132052,1,0,1:0:0:0:
494,334,132146,1,0,1:0:0:0:
494,334,132240,2,0,P|506:302|493:243,1,80,8|0,3:0|1:0,0:0:0:0:
456,184,132615,5,4,0:0:0:0:
377,162,132802,1,0,0:0:0:0:
297,190,132990,2,0,B|193:167|253:198|132:173,1,160,8|0,1:0|0:0,0:0:0:0:
68,216,133552,1,0,0:0:0:0:
14,147,133740,2,0,P|14:126|-3:48,1,80,8|0,1:0|0:0,0:0:0:0:
4,68,134115,6,0,L|181:44,1,160,0|8,0:0|1:0,0:0:0:0:
325,164,134677,1,0,1:0:0:0:
325,163,134865,2,0,P|328:120|316:81,1,80,0|0,0:0|1:0,0:0:0:0:
186,289,135240,2,0,P|183:332|195:371,1,80,8|0,1:0|0:0,0:0:0:0:
252,257,135615,6,0,L|244:76,1,160,0|8,1:0|1:0,0:0:0:0:
129,43,136177,1,0,0:0:0:0:
129,43,136365,2,0,L|138:127,1,80
348,83,136740,2,0,L|356:3,1,80,8|0,1:0|0:0,0:0:0:0:
246,23,137115,1,0,0:0:0:0:
228,109,137302,1,0,0:0:0:0:
262,189,137490,1,8,1:0:0:0:
273,275,137677,1,8,3:0:0:0:
234,350,137865,2,0,P|194:354|133:340,1,80,8|2,3:0|0:0,0:0:0:0:
351,224,138240,2,0,P|379:218|435:229,1,80,8|0,1:0|0:0,0:0:0:0:
273,275,138615,6,0,L|265:105,1,160,4|8,3:0|1:0,0:0:0:0:
361,307,139177,1,0,0:0:0:0:
361,307,139365,2,0,P|332:344|290:355,1,80
192,225,139740,1,8,1:0:0:0:
301,135,139927,1,0,0:0:0:0:
268,269,140115,1,0,0:0:0:0:
214,141,140302,1,0,0:0:0:0:
334,215,140490,1,8,1:0:0:0:
263,197,140677,5,0,1:0:0:0:
257,204,140865,2,0,L|166:212,1,80,0|0,0:0|1:0,0:0:0:0:
35,280,141240,2,0,L|126:288,1,80,8|0,1:0|0:0,0:0:0:0:
333,344,141615,2,0,B|216:330|287:362|149:353,1,160,4|8,3:0|1:0,0:0:0:0:
174,354,142177,5,0,0:0:0:0:
415,363,142365,2,0,P|454:370|521:364,1,80
102,307,142740,2,0,P|69:299|13:301,1,80,8|4,1:0|0:0,0:0:0:0:
170,247,143115,1,0,0:0:0:0:
310,265,143302,1,0,0:0:0:0:
236,303,143490,1,8,1:0:0:0:
302,179,143677,1,2,0:0:0:0:
276,374,143865,5,8,3:0:0:0:
213,163,144052,1,0,1:0:0:0:
215,147,144146,1,0,1:0:0:0:
216,131,144240,1,8,3:0:0:0:
262,42,144427,5,8,3:0:0:0:
241,238,144615,2,0,L|232:335,1,95.9999970703126,4|0,1:0|0:0,0:0:0:0:
133,157,144990,5,0,1:0:0:0:
349,295,145177,1,0,0:0:0:0:
159,245,145365,5,0,0:0:0:0:
320,209,145552,1,0,0:0:0:0:
174,336,145740,5,0,1:0:0:0:
299,122,145927,1,0,0:0:0:0:
259,310,146115,5,0,0:0:0:0:
220,159,146302,1,0,0:0:0:0:
213,285,146490,5,0,1:0:0:0:
296,261,146677,1,0,0:0:0:0:
276,177,146865,1,0,0:0:0:0:
182,205,147052,1,0,0:0:0:0:
239,234,147240,1,0,1:0:0:0:
243,237,147427,5,0,0:0:0:0:
366,212,147615,1,0,0:0:0:0:
416,104,147802,1,0,0:0:0:0:
205,27,147990,1,0,1:0:0:0:
210,33,148177,5,0,0:0:0:0:
179,133,148365,1,0,0:0:0:0:
186,130,148552,1,0,0:0:0:0:
284,166,148740,1,0,1:0:0:0:
279,158,148927,1,0,0:0:0:0:
317,62,149115,1,0,0:0:0:0:
311,65,149302,1,0,0:0:0:0:
251,96,149490,5,0,1:0:0:0:
235,215,149677,1,0,0:0:0:0:
151,71,149865,5,0,0:0:0:0:
331,241,150052,1,0,0:0:0:0:
93,170,150240,5,0,1:0:0:0:
386,130,150427,1,4,0:0:0:0:
250,284,150615,6,0,L|230:76,1,191.999994140625,0|0,0:0|1:0,0:0:0:0:
296,44,151177,1,0,0:0:0:0:
171,270,151365,2,0,P|159:315|175:361,1,95.9999970703126
323,185,151740,1,0,1:0:0:0:
180,125,151927,1,0,0:0:0:0:
405,125,152115,5,0,0:0:0:0:
248,164,152302,1,0,0:0:0:0:
107,202,152490,1,0,1:0:0:0:
241,249,152677,1,0,0:0:0:0:
157,127,152865,1,0,0:0:0:0:
158,273,153052,1,0,0:0:0:0:
181,201,153240,5,0,1:0:0:0:
343,246,153427,1,0,0:0:0:0:
456,176,153615,2,0,P|369:163|263:185,1,191.999994140625,0|0,0:0|1:0,0:0:0:0:
344,246,154177,1,0,0:0:0:0:
439,95,154365,2,0,P|445:56|444:-6,1,95.9999970703126
468,260,154740,2,0,P|469:297|480:358,1,95.9999970703126,0|0,1:0|0:0,0:0:0:0:
268,142,155115,2,0,L|246:37,1,95.9999970703126
217,246,155490,2,0,P|219:286|205:344,1,95.9999970703126,0|0,1:0|0:0,0:0:0:0:
13,190,155865,1,8,3:0:0:0:
152,168,156052,1,8,3:0:0:0:
32,179,156240,5,0,1:0:0:0:
254,195,156427,1,4,0:0:0:0:
417,202,156615,2,0,L|543:188,1,95.9999970703126
331,134,156990,5,0,1:0:0:0:
335,144,157177,1,0,0:0:0:0:
190,279,157365,1,0,0:0:0:0:
186,269,157552,1,0,0:0:0:0:
295,307,157740,5,0,1:0:0:0:
291,317,157927,1,0,0:0:0:0:
217,77,158115,1,0,0:0:0:0:
221,67,158302,1,0,0:0:0:0:
248,200,158490,2,0,B|110:180|175:214|48:198,1,191.999994140625,0|0,1:0|0:0,0:0:0:0:
5,121,159052,1,0,0:0:0:0:
96,125,159240,1,0,1:0:0:0:
284,278,159427,1,0,0:0:0:0:
193,274,159615,1,0,0:0:0:0:
292,284,159802,5,0,0:0:0:0:
186,268,159990,1,0,1:0:0:0:
367,266,160177,5,0,0:0:0:0:
125,310,160365,1,0,0:0:0:0:
320,182,160552,1,0,0:0:0:0:
189,355,160740,1,0,1:0:0:0:
238,195,160927,1,0,0:0:0:0:
264,335,161115,1,0,0:0:0:0:
210,272,161302,5,0,0:0:0:0:
225,86,161490,1,0,1:0:0:0:
295,262,161677,1,0,0:0:0:0:
162,138,161865,1,0,0:0:0:0:
325,181,162052,1,0,0:0:0:0:
155,213,162240,1,0,1:0:0:0:
299,111,162427,1,4,0:0:0:0:
238,179,162615,1,0,0:0:0:0:
245,186,162802,5,0,0:0:0:0:
97,164,162990,2,0,L|-9:177,1,95.9999970703126,0|0,1:0|0:0,0:0:0:0:
176,353,163365,2,0,L|271:341,1,95.9999970703126
117,183,163740,2,0,L|11:196,1,95.9999970703126,0|0,1:0|0:0,0:0:0:0:
158,332,164115,2,0,L|264:319,1,95.9999970703126
205,252,164490,2,0,B|83:247|121:285|5:271,1,191.999994140625,0|0,1:0|0:0,0:0:0:0:
81,355,165052,5,0,0:0:0:0:
254,156,165240,2,0,P|247:131|253:55,1,95.9999970703126,0|0,1:0|0:0,0:0:0:0:
326,58,165615,1,0,0:0:0:0:
171,126,165802,1,0,0:0:0:0:
404,97,165990,1,0,1:0:0:0:
90,90,166177,1,0,0:0:0:0:
221,9,166365,5,0,0:0:0:0:
229,25,166552,1,0,0:0:0:0:
116,215,166740,1,0,1:0:0:0:
108,199,166927,1,0,0:0:0:0:
221,50,167115,5,0,0:0:0:0:
229,66,167302,1,0,0:0:0:0:
123,178,167490,1,0,1:0:0:0:
164,110,167677,1,0,1:0:0:0:
164,110,167771,1,0,1:0:0:0:
164,110,167865,1,8,3:0:0:0:
209,178,168052,5,0,1:0:0:0:
134,34,168240,1,8,3:0:0:0:
285,132,168427,5,2,0:0:0:0:
61,79,168615,1,4,0:0:0:0:
22,187,180615,6,0,L|112:175,1,80,2|2,0:0|0:0,0:0:0:0:
187,194,180990,1,0,1:0:0:0:
272,233,181177,2,0,L|362:221,1,80,0|2,0:0|0:0,0:0:0:0:
442,236,181552,1,2,0:0:0:0:
437,240,181740,1,0,1:0:0:0:
388,299,181927,5,4,0:0:0:0:
366,370,182115,1,2,0:0:0:0:
437,354,182302,1,2,0:0:0:0:
274,329,182490,2,0,P|233:324|186:330,1,80,0|2,1:0|0:0,0:0:0:0:
26,281,182865,2,0,P|67:286|114:280,1,80,2|2,0:0|0:0,0:0:0:0:
185,251,183240,1,0,1:0:0:0:
253,207,183427,1,4,0:0:0:0:
294,129,183615,5,2,0:0:0:0:
257,37,183802,2,0,P|228:54|206:106,1,80,2|0,0:0|1:0,0:0:0:0:
294,129,184177,1,2,0:0:0:0:
366,192,184365,2,0,L|461:179,1,80,2|0,0:0|0:0,0:0:0:0:
291,220,184740,5,0,1:0:0:0:
223,261,184927,1,2,0:0:0:0:
147,266,185115,5,2,0:0:0:0:
76,244,185302,1,2,0:0:0:0:
212,174,185490,5,0,1:0:0:0:
301,317,185677,1,2,0:0:0:0:
224,261,185865,5,2,0:0:0:0:
446,317,186052,1,2,0:0:0:0:
446,317,186427,1,0,0:0:0:0:
446,317,186615,1,4,0:0:0:0:
345,269,186802,1,2,0:0:0:0:
397,169,186990,1,0,1:0:0:0:
496,220,187177,1,2,0:0:0:0:
420,246,187365,1,0,0:0:0:0:
422,240,187552,5,2,0:0:0:0:
321,358,187740,1,0,1:0:0:0:
233,361,187927,1,2,0:0:0:0:
145,373,188115,1,2,0:0:0:0:
8,252,188302,5,2,0:0:0:0:
96,249,188490,1,0,1:0:0:0:
232,216,188677,1,2,0:0:0:0:
101,161,188865,1,2,0:0:0:0:
177,290,189052,1,0,0:0:0:0:
182,139,189240,1,0,1:0:0:0:
158,213,189427,5,2,0:0:0:0:
384,230,189615,1,4,0:0:0:0:
384,230,191115,1,4,3:0:0:0:
329,161,191302,1,8,3:0:0:0:
326,141,191396,1,0,1:0:0:0:
324,121,191490,1,8,1:0:0:0:
371,47,191677,1,4,3:0:0:0:
336,320,191865,1,8,3:0:0:0:
335,343,191958,1,0,1:0:0:0:
335,367,192052,1,8,1:0:0:0:
179,182,192240,1,8,1:0:0:0:
177,150,192333,1,0,1:0:0:0:
175,117,192427,1,4,0:0:0:0:
257,35,192615,6,0,B|232:157|282:119|262:241,1,207.999990478516,4|0,1:0|1:0,0:0:0:0:
181,267,193177,1,2,0:0:0:0:
347,183,193365,2,0,P|363:173|450:165,1,103.999995239258,2|0,0:0|0:0,0:0:0:0:
153,161,193740,2,0,P|106:181|55:180,1,103.999995239258,0|2,1:0|0:0,0:0:0:0:
331,275,194115,6,0,P|317:320|328:385,1,103.999995239258,2|2,0:0|0:0,0:0:0:0:
426,326,194490,2,0,L|458:120,2,207.999990478516,0|4|0,1:0|0:0|1:0,0:0:0:0:
373,173,195427,5,2,0:0:0:0:
508,334,195615,1,2,0:0:0:0:
510,343,195802,1,2,0:0:0:0:
355,267,195990,5,0,1:0:0:0:
512,246,196177,1,0,0:0:0:0:
416,338,196365,5,4,0:0:0:0:
463,171,196552,1,0,0:0:0:0:
367,264,196740,5,4,0:0:0:0:
493,250,196927,1,0,0:0:0:0:
423,320,197115,5,4,0:0:0:0:
448,189,197302,1,0,0:0:0:0:
214,324,197490,5,0,1:0:0:0:
299,309,197677,1,2,0:0:0:0:
201,197,197865,5,8,3:0:0:0:
116,212,198052,1,8,3:0:0:0:
11,357,198240,5,4,0:0:0:0:
95,340,198427,1,2,0:0:0:0:
150,280,198615,6,0,P|166:213|118:80,1,207.999990478516,4|0,1:0|1:0,0:0:0:0:
79,296,199177,5,2,0:0:0:0:
145,353,199365,1,2,0:0:0:0:
217,314,199552,1,0,0:0:0:0:
208,231,199740,1,0,1:0:0:0:
117,208,199927,1,2,0:0:0:0:
148,278,200115,5,2,0:0:0:0:
318,295,200302,1,0,0:0:0:0:
465,314,200490,2,0,P|488:257|450:109,2,207.999990478516,0|4|0,1:0|0:0|1:0,0:0:0:0:
386,361,201427,5,2,0:0:0:0:
250,312,201615,2,0,B|125:280|178:325|35:304,1,207.999990478516,2|0,0:0|1:0,0:0:0:0:
285,235,202177,1,2,0:0:0:0:
331,299,202365,1,4,0:0:0:0:
331,299,202552,1,0,0:0:0:0:
295,372,202740,1,4,0:0:0:0:
295,372,202927,1,0,0:0:0:0:
218,374,203115,1,4,0:0:0:0:
218,374,203302,1,0,0:0:0:0:
177,304,203490,1,8,3:0:0:0:
213,240,203677,1,8,3:0:0:0:
213,240,203771,1,0,1:0:0:0:
213,239,203865,1,0,1:0:0:0:
255,306,204052,5,8,3:0:0:0:
106,354,204240,1,4,2:0:0:0:
131,243,204427,1,0,3:0:0:0:
255,306,204615,2,0,P|302:293|377:300,1,103.999995239258,4|2,1:0|0:0,0:0:0:0:
298,209,204990,5,0,1:0:0:0:
183,358,205177,1,2,0:0:0:0:
191,152,205365,5,2,0:0:0:0:
343,373,205552,1,2,0:0:0:0:
411,261,205740,5,0,1:0:0:0:
109,269,205927,1,2,0:0:0:0:
180,185,206115,5,2,0:0:0:0:
336,307,206302,1,0,0:0:0:0:
260,267,206490,6,0,B|269:200|269:200|246:131|246:131|256:52,2,207.999990478516,0|4|0,1:0|0:0|1:0,0:0:0:0:
208,332,207427,1,2,0:0:0:0:
305,0,207615,2,0,P|332:45|328:114,1,103.999995239258,0|2,0:0|0:0,0:0:0:0:
209,332,207990,2,0,P|182:287|186:218,1,103.999995239258,0|2,1:0|0:0,0:0:0:0:
334,96,208365,2,0,L|441:114,1,103.999995239258,2|0,0:0|0:0,0:0:0:0:
357,188,208740,5,0,1:0:0:0:
419,25,208927,1,0,0:0:0:0:
453,226,209115,1,2,0:0:0:0:
461,236,209302,1,2,0:0:0:0:
422,348,209490,1,0,1:0:0:0:
414,338,209677,1,0,0:0:0:0:
497,308,209865,5,2,0:0:0:0:
325,369,210052,1,4,0:0:0:0:
218,355,210240,1,0,1:0:0:0:
143,310,210427,1,2,0:0:0:0:
143,310,210615,6,0,L|133:174,1,103.999995239258,4|0,0:0|0:0,0:0:0:0:
219,275,210990,1,0,1:0:0:0:
60,310,211177,1,2,0:0:0:0:
226,372,211365,5,2,0:0:0:0:
56,213,211552,1,0,0:0:0:0:
130,368,211740,5,0,1:0:0:0:
152,181,211927,1,2,0:0:0:0:
297,241,212115,5,2,0:0:0:0:
0,268,212302,1,0,0:0:0:0:
130,350,212490,6,0,L|169:132,2,207.999990478516,0|4|0,1:0|0:0|1:0,0:0:0:0:
32,358,213427,1,0,0:0:0:0:
237,287,213615,5,0,0:0:0:0:
245,276,213802,1,0,0:0:0:0:
73,140,213990,1,0,1:0:0:0:
81,151,214177,1,2,0:0:0:0:
248,45,214365,5,2,0:0:0:0:
128,55,214552,1,0,0:0:0:0:
360,74,214740,5,0,1:0:0:0:
239,50,214927,1,0,0:0:0:0:
487,43,215115,5,0,0:0:0:0:
366,67,215302,1,2,0:0:0:0:
412,291,215490,5,0,1:0:0:0:
486,259,215677,1,0,0:0:0:0:
330,148,215865,1,2,0:0:0:0:
339,244,216052,1,2,0:0:0:0:
496,174,216240,1,4,0:0:0:0:
423,110,216427,1,4,3:0:0:0:
