osu file format v13

[General]
AudioFilename: SOUND HOLIC feat. Nana Takahashi - Ha lle lu jah[EXH].mp3
AudioLeadIn: 0
PreviewTime: 60315
Countdown: 0
SampleSet: Normal
StackLeniency: 0.7
Mode: 0
LetterboxInBreaks: 0
WidescreenStoryboard: 1

[Editor]
DistanceSpacing: 0.9
BeatDivisor: 8
GridSize: 4
TimelineZoom: 1.9

[Metadata]
Title:Ha lle lu jah
TitleUnicode:Ha lle lu jah
Artist:SOUND HOLIC feat. Nana Takahashi
ArtistUnicode:SOUND HOLIC feat. Nana Takahashi
Creator:Guu
Version:Booooom
Source:SOUND VOLTEX BOOTH
Tags:SDVX KONAMI BEMANI BEAT
BeatmapID:576575
BeatmapSetID:250979

[Difficulty]
HPDrainRate:6
CircleSize:4
OverallDifficulty:7
ApproachRate:9.4
SliderMultiplier:2.6
SliderTickRate:1

[Events]
//Background and Video events
0,0,"Ha lle lu jah.jpg",0,0
//Break Periods
//Storyboard Layer 0 (Background)
//Storyboard Layer 1 (Fail)
//Storyboard Layer 2 (Pass)
//Storyboard Layer 3 (Foreground)
//Storyboard Sound Samples

[TimingPoints]
-1085,400,4,2,0,50,1,0
415,-133.333333333333,4,2,0,35,0,0
6115,-200,4,1,1,80,0,0
6515,-200,4,1,1,20,0,0
7315,-200,4,1,1,30,0,0
7715,-200,4,1,1,40,0,0
8115,-200,4,1,1,50,0,0
8515,-100,4,1,1,80,0,0
8615,-100,4,1,1,40,0,0
8915,-100,4,1,1,80,0,0
9015,-100,4,1,1,40,0,0
9315,-100,4,1,1,80,0,0
9415,-100,4,1,1,40,0,0
9615,-100,4,1,1,80,0,0
9815,-100,4,1,1,40,0,0
10115,-100,4,1,1,80,0,0
10215,-100,4,1,1,40,0,0
10515,-100,4,1,1,80,0,0
10615,-100,4,1,1,40,0,0
10915,-76.9230769230769,4,1,1,80,0,0
11015,-76.9230769230769,4,1,1,5,0,0
11115,-76.9230769230769,4,1,1,80,0,0
11215,-76.9230769230769,4,1,1,5,0,0
11315,-66.6666666666667,4,1,1,30,0,0
11365,-66.6666666666667,4,1,1,5,0,0
11415,-66.6666666666667,4,1,1,30,0,0
11465,-66.6666666666667,4,1,1,5,0,0
11515,-66.6666666666667,4,1,1,30,0,0
11565,-66.6666666666667,4,1,1,5,0,0
11615,-66.6666666666667,4,1,1,30,0,0
11665,-66.6666666666667,4,1,1,5,0,0
11715,-100,4,1,1,80,0,0
11765,-100,4,1,1,70,0,0
11865,-100,4,1,1,80,0,0
12165,-100,4,1,1,70,0,0
12265,-100,4,1,1,80,0,0
12365,-100,4,1,1,70,0,0
12465,-100,4,1,1,80,0,0
12565,-100,4,1,1,70,0,0
12665,-100,4,1,1,80,0,0
12965,-100,4,1,1,70,0,0
13115,-133.333333333333,4,1,1,80,0,0
13515,-100,4,1,1,80,0,0
14115,-50,4,2,1,80,0,0
14315,-50,4,2,1,5,0,0
14465,-50,4,2,1,80,0,0
14715,-50,4,2,1,5,0,0
14915,-50,4,1,1,80,0,0
15315,-50,4,2,1,80,0,0
15415,-50,4,2,1,40,0,0
15565,-50,4,1,1,80,0,0
16115,-50,4,2,1,80,0,0
16215,-50,4,2,1,40,0,0
16365,-50,4,1,1,80,0,0
16915,-50,4,2,1,80,0,0
17015,-50,4,2,1,40,0,0
17315,-50,4,2,1,80,0,0
17415,-50,4,2,1,40,0,0
17715,-50,4,2,1,80,0,0
17815,-50,4,2,1,40,0,0
18115,-50,4,1,1,80,0,0
18215,-50,4,1,1,70,0,0
18515,-50,4,2,1,80,0,0
18665,-50,4,2,1,40,0,0
18765,-50,4,1,1,80,0,0
19015,-50,4,1,1,70,0,0
19315,-50,4,2,1,80,0,0
19415,-50,4,2,1,40,0,0
19565,-50,4,1,1,80,0,0
19815,-50,4,1,1,70,0,0
20115,-50,4,2,1,80,0,0
20165,-50,4,2,1,70,0,0
20515,-50,4,2,1,80,0,0
20715,-50,4,1,1,80,0,0
21315,-100,4,1,1,80,0,0
23665,-100,4,1,1,30,0,0
23765,-100,4,1,1,5,0,0
23865,-100,4,1,1,30,0,0
23965,-100,4,1,1,5,0,0
24065,-100,4,1,1,30,0,0
24165,-100,4,1,1,5,0,0
24265,-100,4,1,1,30,0,0
24365,-100,4,1,1,5,0,0
24515,-133.333333333333,4,1,1,60,0,0
25365,-133.333333333333,4,1,1,5,0,0
25465,-133.333333333333,4,1,1,80,0,0
25565,-133.333333333333,4,1,1,5,0,0
25665,-133.333333333333,4,1,1,80,0,0
26015,-133.333333333333,4,1,1,80,0,0
28515,-66.6666666666667,4,1,1,30,0,0
28565,-66.6666666666667,4,1,1,5,0,0
28615,-66.6666666666667,4,1,1,30,0,0
28665,-66.6666666666667,4,1,1,5,0,0
28715,-66.6666666666667,4,1,1,30,0,0
28765,-66.6666666666667,4,1,1,5,0,0
28815,-66.6666666666667,4,1,1,30,0,0
28865,-66.6666666666667,4,1,1,5,0,0
28915,-100,4,1,1,80,0,0
30115,-66.6666666666667,4,1,1,30,0,0
30165,-66.6666666666667,4,1,1,5,0,0
30215,-66.6666666666667,4,1,1,30,0,0
30265,-66.6666666666667,4,1,1,5,0,0
30315,-66.6666666666667,4,1,1,30,0,0
30365,-66.6666666666667,4,1,1,5,0,0
30415,-66.6666666666667,4,1,1,30,0,0
30465,-66.6666666666667,4,1,1,5,0,0
30515,-100,4,1,1,80,0,0
32665,-100,4,1,1,80,0,0
32765,-100,4,1,1,5,0,0
32865,-100,4,1,1,80,0,0
32965,-100,4,1,1,5,0,0
33065,-100,4,1,1,80,0,0
33315,-100,4,1,1,80,0,0
33365,-100,4,1,1,5,0,0
33515,-100,4,1,1,80,0,0
33565,-100,4,1,1,5,0,0
33715,-100,4,1,1,80,0,0
35365,-100,4,1,1,30,0,0
35465,-100,4,1,1,80,0,0
36515,-100,4,1,1,40,0,0
36565,-100,4,1,1,5,0,0
36715,-100,4,1,1,40,0,0
36765,-100,4,1,1,5,0,0
36915,-100,4,1,1,40,0,0
36965,-100,4,1,1,5,0,0
37115,-100,4,1,1,40,0,0
37165,-100,4,1,1,5,0,0
37315,-100,4,1,1,80,0,0
42915,-100,4,1,1,30,0,0
42965,-100,4,1,1,5,0,0
43115,-100,4,1,1,30,0,0
43165,-100,4,1,1,5,0,0
43315,-100,4,1,1,30,0,0
43365,-100,4,1,1,5,0,0
43515,-100,4,1,1,30,0,0
43565,-100,4,1,1,5,0,0
43715,-100,4,1,1,80,0,0
46915,-133.333333333333,4,2,1,70,0,0
53315,-133.333333333333,4,1,1,70,0,0
56515,-166.666666666667,4,1,1,80,0,0
58065,-166.666666666667,4,1,1,80,0,0
58215,-166.666666666667,4,1,1,5,0,0
58365,-166.666666666667,4,1,1,80,0,0
58515,-166.666666666667,4,1,1,5,0,0
58665,-166.666666666667,4,1,1,80,0,0
59715,-100,4,1,1,20,0,0
59915,-100,4,1,1,30,0,0
60115,-100,4,1,1,50,0,0
60315,-100,4,1,1,70,0,0
60515,400,4,1,1,80,1,1
60515,-66.6666666666667,4,1,1,80,0,1
62915,-100,4,1,1,80,0,1
64515,-100,4,1,1,30,0,1
64565,-100,4,1,1,5,0,1
64615,-100,4,1,1,30,0,1
64665,-100,4,1,1,5,0,1
64715,-100,4,1,1,30,0,1
64765,-100,4,1,1,5,0,1
64815,-100,4,1,1,30,0,1
64865,-100,4,1,1,5,0,1
64915,-100,4,1,1,30,0,1
64965,-100,4,1,1,5,0,1
65015,-100,4,1,1,30,0,1
65065,-100,4,1,1,5,0,1
65115,-100,4,1,1,30,0,1
65165,-100,4,1,1,5,0,1
65215,-100,4,1,1,30,0,1
65265,-100,4,1,1,5,0,1
65315,-66.6666666666667,4,1,1,100,0,1
65365,-66.6666666666667,4,1,1,5,0,1
65465,-66.6666666666667,4,1,1,100,0,1
65765,-66.6666666666667,4,1,1,5,0,1
65865,-66.6666666666667,4,1,1,100,0,1
69915,-100,4,1,1,100,0,1
71515,-66.6666666666667,4,1,1,100,0,1
72515,-200,4,1,1,100,0,1
73315,-133.333333333333,4,1,1,40,0,0
79715,-100,4,1,1,80,0,0
81315,-100,4,1,1,25,0,0
81365,-100,4,1,1,5,0,0
81415,-100,4,1,1,25,0,0
81465,-100,4,1,1,5,0,0
81515,-100,4,1,1,25,0,0
81565,-100,4,1,1,5,0,0
81615,-100,4,1,1,25,0,0
81665,-100,4,1,1,5,0,0
81715,-100,4,1,1,25,0,0
81765,-100,4,1,1,5,0,0
81815,-100,4,1,1,25,0,0
81865,-100,4,1,1,5,0,0
81915,-100,4,1,1,25,0,0
81965,-100,4,1,1,5,0,0
82015,-100,4,1,1,25,0,0
82065,-100,4,1,1,5,0,0
82115,-100,4,1,1,35,0,0
82165,-100,4,1,1,5,0,0
82315,-100,4,1,1,35,0,0
82365,-100,4,1,1,5,0,0
82515,-100,4,1,1,35,0,0
82565,-100,4,1,1,5,0,0
82715,-100,4,1,1,35,0,0
82765,-100,4,1,1,5,0,0
82915,-100,4,1,1,80,0,0
85315,-50,4,1,1,80,0,0
86115,-50,4,1,1,100,0,1
87115,-50,4,1,1,80,0,0
87315,-50,4,1,1,100,0,1
87415,-50,4,1,1,5,0,1
87615,-50,4,1,1,100,0,1
88115,-66.6666666666667,4,1,1,100,0,1
88315,-66.6666666666667,4,1,1,5,0,1
88465,-66.6666666666667,4,1,1,100,0,1
88715,-50,4,1,1,100,0,0
88915,-50,4,1,1,100,0,1
88965,-50,4,1,1,5,0,1
89065,-66.6666666666667,4,1,1,100,0,1
89765,-66.6666666666667,4,1,1,5,0,1
89915,-66.6666666666667,4,1,1,100,0,1
89965,-66.6666666666667,4,1,1,5,0,1
90115,-66.6666666666667,4,1,1,100,0,1
90165,-66.6666666666667,4,1,1,5,0,1
90315,-66.6666666666667,4,1,1,100,0,1
90365,-66.6666666666667,4,1,1,5,0,1
90515,-66.6666666666667,4,1,1,100,0,1
90565,-66.6666666666667,4,1,1,5,0,1
90715,-50,4,1,1,100,0,1
92165,-50,4,1,1,5,0,1
92265,-50,4,1,1,100,0,1
92365,-50,4,1,1,5,0,1
92465,-50,4,1,1,100,0,1
93515,-50,4,1,1,100,0,0
93715,-50,4,1,1,100,0,1
93815,-50,4,1,1,5,0,1
94115,-50,4,1,1,100,0,1
94515,-66.6666666666667,4,1,1,100,0,1
94665,-66.6666666666667,4,1,1,5,0,1
94815,-66.6666666666667,4,1,1,100,0,1
95115,-50,4,1,1,100,0,0
95315,-50,4,1,1,100,0,1
95365,-50,4,1,1,5,0,1
95465,-66.6666666666667,4,1,1,100,0,1
96165,-50,4,1,1,5,0,1
96265,-50,4,1,1,100,0,1
96365,-50,4,1,1,5,0,1
96465,-50,4,1,1,100,0,1
96565,-50,4,1,1,5,0,1
96665,-50,4,1,1,100,0,1
96765,-50,4,1,1,5,0,1
96865,-50,4,1,1,100,0,1
96965,-50,4,1,1,5,0,1
97065,-66.6666666666667,4,1,1,100,0,1
97715,-50,4,1,1,100,0,1
98515,-66.6666666666667,4,1,1,100,0,0
98915,-66.6666666666667,4,1,1,50,0,1
99315,-66.6666666666667,4,1,1,50,0,0

[Colours]
Combo1 : 0,255,255
Combo2 : 255,0,128
Combo3 : 255,128,255

[HitObjects]
92,28,415,6,0,L|104:4,2,24.3750009298325,0|0|0,0:0|0:0|0:0,0:0:0:0:
169,76,715,1,0,0:0:0:0:
256,96,915,1,0,0:0:0:0:
344,76,1115,1,0,0:0:0:0:
420,112,1315,2,0,L|435:208,1,97.50000371933,0|0,0:0|0:0,0:0:0:0:
440,252,1615,1,0,0:0:0:0:
396,268,1715,2,0,P|353:288|317:331,1,97.50000371933,2|0,0:0|0:0,0:0:0:0:
216,336,2115,6,0,B|176:248,1,97.50000371933
248,164,2515,2,0,B|208:76,1,97.50000371933,0|0,0:0|0:0,0:0:0:0:
80,192,2915,1,2,0:0:0:0:
80,192,3515,1,0,0:0:0:0:
248,164,3715,6,0,P|316:120|336:28,1,170.625006508827,2|0,0:0|0:0,0:0:0:0:
338,37,4315,1,0,0:0:0:0:
196,32,4515,2,0,P|152:52|124:96,1,97.50000371933
100,144,4815,1,0,0:0:0:0:
96,204,4915,1,2,0:0:0:0:
164,356,5115,1,0,0:0:0:0:
184,132,5315,1,0,0:0:0:0:
32,296,5515,5,2,0:0:0:0:
256,248,5715,1,2,0:0:0:0:
48,164,5915,1,2,0:0:0:0:
305,127,6115,2,0,P|188:80|79:143,1,260,0|0,0:0|0:0,0:0:0:0:
124,100,7015,5,0,0:0:0:0:
184,80,7115,1,0,0:0:0:0:
248,88,7215,1,0,0:0:0:0:
300,124,7315,1,0,0:0:0:0:
332,180,7415,1,0,0:0:0:0:
320,244,7515,1,0,0:0:0:0:
276,292,7615,1,0,0:0:0:0:
212,300,7715,1,0,0:0:0:0:
152,276,7815,1,0,0:0:0:0:
132,216,7915,1,0,0:0:0:0:
172,164,8015,1,0,0:0:0:0:
236,160,8115,1,0,0:0:0:0:
280,208,8215,1,0,0:0:0:0:
284,272,8315,1,0,0:0:0:0:
248,328,8415,1,0,0:0:0:0:
188,356,8515,6,0,P|124:356|64:308,1,130,8|0,0:0|0:0,0:0:0:0:
324,28,8915,2,0,P|388:28|448:76,1,130,8|0,0:0|0:0,0:0:0:0:
92,124,9315,2,0,P|92:60|140:0,2,130,8|0|0,0:0|0:0|0:0,0:0:0:0:
124,200,9815,1,0,0:0:0:0:
192,252,9915,1,0,0:0:0:0:
276,256,10015,1,0,0:0:0:0:
344,208,10115,6,0,L|328:64,1,126.749994197846,8|0,0:0|0:0,0:0:0:0:
124,200,10515,2,0,L|132:264,1,65,8|0,0:0|0:0,0:0:0:0:
192,328,10715,1,0,0:0:0:0:
276,352,10815,1,0,0:0:0:0:
364,332,10915,6,0,B|405:323|405:323|379:289,1,84.4999961318971,12|0,0:0|0:0,0:0:0:0:
456,156,11115,2,0,B|497:147|497:147|471:113,1,84.4999961318971,12|0,0:0|0:0,0:0:0:0:
264,56,11315,6,0,B|270:82|270:82|244:70,1,48.750001859665,8|0,0:0|0:0,0:0:0:0:
192,124,11415,2,0,B|198:150|198:150|172:138,1,48.750001859665,8|0,0:0|0:0,0:0:0:0:
124,200,11515,2,0,B|130:226|130:226|104:214,1,48.750001859665,8|0,0:0|0:0,0:0:0:0:
52,268,11615,2,0,B|58:294|58:294|32:282,1,48.750001859665,8|0,0:0|0:0,0:0:0:0:
148,328,11715,6,0,L|214:320,1,65,8|0,0:0|0:0,0:0:0:0:
284,312,11915,1,0,0:0:0:0:
212,264,12115,2,0,L|265:224,1,65,8|0,0:0|0:0,0:0:0:0:
376,141,12315,2,0,L|320:182,1,65
240,176,12515,2,0,L|266:114,1,65,8|0,0:0|0:0,0:0:0:0:
296,46,12715,1,0,0:0:0:0:
444,28,12915,2,0,L|378:36,1,65,8|0,0:0|0:0,0:0:0:0:
296,46,13115,6,0,B|272:38|252:46|252:46|224:66|192:66,1,97.50000371933
124,80,13415,5,0,0:0:0:0:
72,144,13515,2,0,P|52:205|68:267,1,130
148,312,13815,1,0,0:0:0:0:
236,300,13915,1,0,0:0:0:0:
308,252,14015,1,0,0:0:0:0:
352,176,14115,6,0,B|347:168|347:168|341:170|341:170|342:161|342:161|334:166|334:166|333:160|333:160|327:162|327:162|328:153|328:153|320:158|320:158|319:152|319:152|313:154|313:154|314:145|314:145|306:150|306:150|305:144|305:144|300:146|300:146|300:137|300:137|293:142|293:142|291:136|291:136|286:138|286:138|286:129|286:129|279:134|279:134|277:128|277:128|272:130|272:130|272:121|272:121|265:126|265:126|263:120|263:120|258:122|258:122|259:113|259:113|251:118|251:118|250:112|250:112|244:114|244:114|245:105|245:105|237:110|237:110|236:104|236:104|230:106|230:106|231:97|231:97|223:102|223:102|222:96|222:96|216:98|216:98|217:89|217:89|209:94|209:94|208:88|208:88|203:89|203:89|203:81|203:81|196:86|196:86|194:80|194:80|189:82|189:82|189:73|189:73|182:78|182:78|180:72|180:72|175:74|175:74|175:65|175:65|168:70|168:70|166:64|166:64|161:66|161:66,1,390,2|0,0:0|0:0,0:0:0:0:
160,208,14515,2,0,B|165:216|165:216|171:214|171:214|170:223|170:223|178:218|178:218|179:224|179:224|185:222|185:222|184:231|184:231|192:226|192:226|193:232|193:232|199:230|199:230|198:239|198:239|206:234|206:234|207:240|207:240|212:238|212:238|212:247|212:247|219:242|219:242|221:248|221:248|226:246|226:246|226:255|226:255|233:250|233:250|235:256|235:256|240:254|240:254|240:263|240:263|247:258|247:258|249:264|249:264|254:262|254:262|253:271|253:271|261:266|261:266|262:272|262:272|268:270|268:270|267:279|267:279|275:274|275:274|276:280|276:280|282:278|282:278|281:287|281:287|289:282|289:282|290:288|290:288|296:286|296:286|295:295|295:295|303:290|303:290|304:296|304:296|309:295|309:295|309:303|309:303|316:298|316:298|318:304|318:304|323:302|323:302|323:311|323:311|330:306|330:306|332:312|332:312|337:310|337:310|337:319|337:319|344:314|344:314|346:320|346:320|351:318|351:318,1,390,2|0,0:0|0:0,0:0:0:0:
512,220,14915,5,12,0:0:0:0:
388,40,15115,1,0,0:0:0:0:
224,40,15315,2,0,B|207:35|207:35|203:52|203:52|188:44|188:44|184:60|184:60|168:56|168:56|164:72|164:72|148:68|148:68|144:84|144:84|128:80|128:80|124:96|124:96|108:92|108:92|104:108|104:108|88:104|88:104|84:120|84:120|68:116|68:116|60:128|60:128,1,260,2|0,0:0|0:0,0:0:0:0:
0,164,15615,1,0,0:0:0:0:
0,164,15715,1,8,0:0:0:0:
124,344,15915,1,0,0:0:0:0:
288,344,16115,2,0,B|305:349|305:349|309:332|309:332|324:340|324:340|328:324|328:324|344:328|344:328|348:312|348:312|364:316|364:316|368:300|368:300|384:304|384:304|388:288|388:288|404:292|404:292|408:276|408:276|424:280|424:280|428:264|428:264|444:268|444:268|452:256|452:256,1,260,2|0,0:0|0:0,0:0:0:0:
512,220,16415,1,0,0:0:0:0:
512,220,16515,5,8,0:0:0:0:
300,44,16715,1,0,0:0:0:0:
44,112,16915,6,0,B|100:119|45:184|45:184|115:187|115:187|103:235|161:262,1,260,2|0,0:0|0:0,0:0:0:0:
456,104,17315,2,0,B|468:158|388:129|388:129|410:197|410:197|361:201|355:265,1,260,2|0,0:0|0:0,0:0:0:0:
246,14,17715,2,0,B|287:52|205:73|205:73|262:117|262:117|224:148|256:204,1,260,2|0,0:0|0:0,0:0:0:0:
256,288,18115,5,8,0:0:0:0:
204,384,18315,1,0,0:0:0:0:
136,300,18515,2,0,P|160:208|296:128,1,260,2|0,0:0|0:0,0:0:0:0:
368,120,18815,1,0,0:0:0:0:
368,120,18915,1,8,0:0:0:0:
412,232,19115,1,0,0:0:0:0:
295,255,19315,2,0,P|180:202|136:84,1,260,2|0,0:0|0:0,0:0:0:0:
132,8,19615,1,0,0:0:0:0:
132,8,19715,5,8,0:0:0:0:
8,156,19915,1,0,0:0:0:0:
140,300,20115,1,10,0:0:0:0:
184,240,20215,1,0,0:0:0:0:
140,179,20315,1,0,0:0:0:0:
69,202,20415,1,0,0:0:0:0:
69,276,20515,6,0,B|69:362|140:368|140:368|174:367|197:340|197:340|219:367|254:368|254:368|261:353|261:353|268:368|268:368|274:353|274:353|279:367|279:367|283:353|283:353|288:367|288:367|293:353|293:353|297:367|297:367|302:353|302:353|306:367|306:367|311:353|311:353|315:367|315:367|320:353|320:353|325:367|325:367|329:353|329:353|334:367|334:367|337:355|337:355|345:364,1,520,4|8,0:0|0:0,0:0:0:0:
340,358,21115,1,8,0:0:0:0:
340,358,21315,5,12,0:0:0:0:
462,161,21515,1,0,0:0:0:0:
248,248,21715,1,8,0:0:0:0:
472,304,21915,1,0,0:0:0:0:
323,127,22115,1,8,0:0:0:0:
323,127,22415,1,0,0:0:0:0:
323,127,22515,1,8,0:0:0:0:
108,217,22715,1,0,0:0:0:0:
228,18,22915,1,8,0:0:0:0:
248,248,23115,1,0,0:0:0:0:
95,74,23315,1,8,0:0:0:0:
95,74,23715,6,0,L|135:74,1,32.5,0|0,0:0|0:0,0:0:0:0:
436,104,23915,2,0,L|396:104,1,32.5,0|0,0:0|0:0,0:0:0:0:
436,280,24115,2,0,L|396:280,1,32.5,0|0,0:0|0:0,0:0:0:0:
96,310,24315,2,0,L|136:310,1,32.5,0|0,0:0|0:0,0:0:0:0:
436,336,24515,6,0,P|368:316|304:256,1,146.250005578995,8|0,0:0|0:0,0:0:0:0:
264,208,24915,1,8,0:0:0:0:
252,44,25115,1,0,0:0:0:0:
252,44,25315,2,0,L|216:60,1,24.3750009298325,8|0,0:0|0:0,0:0:0:0:
100,228,25515,2,0,L|128:212,1,24.3750009298325
264,208,25715,1,8,0:0:0:0:
444,152,25915,2,0,P|460:248|404:336,1,195.00000743866
256,356,26515,1,8,0:0:0:0:
296,148,26715,1,0,0:0:0:0:
296,148,26815,1,0,0:0:0:0:
296,148,26915,2,0,P|332:184|348:236,1,97.50000371933,8|0,0:0|0:0,0:0:0:0:
352,320,27215,1,0,0:0:0:0:
352,320,27315,1,8,0:0:0:0:
144,248,27515,1,8,0:0:0:0:
77,54,27715,5,8,0:0:0:0:
356,76,27915,1,0,0:0:0:0:
336,356,28115,1,8,0:0:0:0:
57,334,28315,1,0,0:0:0:0:
57,334,28515,6,0,B|32:342|32:342|44:321,1,48.750001859665,0|0,0:0|0:0,0:0:0:0:
13,254,28615,2,0,B|-12:247|-12:247|8:236,1,48.750001859665,0|0,0:0|0:0,0:0:0:0:
7,166,28715,2,0,B|-12:148|-12:148|11:148,1,48.750001859665,0|0,0:0|0:0,0:0:0:0:
44,86,28815,2,0,B|34:61|34:61|56:73,1,48.750001859665,0|0,0:0|0:0,0:0:0:0:
116,40,28915,2,8,L|231:101,1,130
362,10,29315,1,0,0:0:0:0:
116,40,29515,1,0,0:0:0:0:
146,285,29715,1,0,0:0:0:0:
392,255,29915,1,0,0:0:0:0:
362,10,30115,6,0,B|382:-6|382:-6|378:18,1,48.750001859665,0|0,0:0|0:0,0:0:0:0:
430,70,30215,2,0,B|455:66|455:66|439:84,1,48.750001859665,0|0,0:0|0:0,0:0:0:0:
466,150,30315,2,0,B|489:159|489:159|467:167,1,48.750001859665,0|0,0:0|0:0,0:0:0:0:
458,238,30415,2,0,B|474:258|474:258|450:254,1,48.750001859665,0|0,0:0|0:0,0:0:0:0:
418,314,30515,2,8,B|439:342|439:342|374:312|374:312|351:277,1,130
208,215,30915,6,8,P|258:135|352:128,1,195
396,256,31315,1,8,0:0:0:0:
472,144,31515,2,0,P|404:115|350:129,1,130,0|8,0:0|0:0,0:0:0:0:
344,22,31915,2,0,P|275:49|247:97,1,130,0|8,0:0|0:0,0:0:0:0:
256,300,32315,1,0,0:0:0:0:
256,192,32515,5,8,0:0:0:0:
364,192,32715,2,0,L|340:156,1,32.5,8|0,0:0|0:0,0:0:0:0:
148,192,32915,2,0,L|167:218,1,32.5,8|0,0:0|0:0,0:0:0:0:
256,300,33115,1,0,0:0:0:0:
256,300,33215,1,0,0:0:0:0:
256,300,33315,2,0,L|292:276,1,32.5,8|0,0:0|0:0,0:0:0:0:
256,84,33515,2,0,L|230:103,1,32.5,8|0,0:0|0:0,0:0:0:0:
188,192,33715,1,8,0:0:0:0:
188,192,33815,1,0,0:0:0:0:
324,192,33915,1,8,0:0:0:0:
324,192,34015,1,8,0:0:0:0:
188,192,34115,6,0,P|168:256|184:328,1,130,8|0,0:0|0:0,0:0:0:0:
324,192,34515,2,0,P|344:128|328:56,1,130,8|0,0:0|0:0,0:0:0:0:
179,67,34915,1,8,0:0:0:0:
36,152,35115,1,0,0:0:0:0:
36,152,35215,1,0,0:0:0:0:
36,152,35315,2,0,L|64:216,1,65,8|0,0:0|0:0,0:0:0:0:
104,298,35515,1,0,0:0:0:0:
256,260,35715,6,0,P|320:280|392:264,1,130,8|0,0:0|0:0,0:0:0:0:
256,124,36115,2,0,P|192:104|120:120,1,130,8|0,0:0|0:0,0:0:0:0:
131,269,36515,2,0,L|136:312,1,32.5
380,116,36715,2,0,L|375:73,1,32.5
98,154,36915,2,0,L|56:140,1,32.5
416,228,37115,2,0,L|456:240,1,32.5
256,124,37315,6,0,P|280:60|348:40,1,130,8|0,0:0|0:0,0:0:0:0:
256,260,37715,2,0,P|232:324|164:344,1,130,8|0,0:0|0:0,0:0:0:0:
128,264,38115,2,0,P|82:307|84:370,1,130,8|0,0:0|0:0,0:0:0:0:
196,208,38415,2,0,L|196:64,1,130,8|0,0:0|0:0,0:0:0:0:
316,78,38715,1,8,0:0:0:0:
324,192,38915,6,0,P|388:216|408:284,1,130,8|0,0:0|0:0,0:0:0:0:
188,192,39315,2,0,P|124:168|104:100,1,130,8|0,0:0|0:0,0:0:0:0:
184,64,39715,2,0,P|140:18|77:20,1,130,8|0,0:0|0:0,0:0:0:0:
240,132,40015,2,0,L|384:132,1,130,8|0,0:0|0:0,0:0:0:0:
512,136,40315,1,8,0:0:0:0:
340,364,40515,5,8,0:0:0:0:
340,364,40615,1,0,0:0:0:0:
340,364,40715,1,0,0:0:0:0:
116,232,40915,1,8,0:0:0:0:
116,232,41015,1,0,0:0:0:0:
116,232,41115,1,0,0:0:0:0:
370,132,41315,2,0,L|256:64,1,130,8|0,0:0|0:0,0:0:0:0:
200,32,41615,1,0,0:0:0:0:
200,32,41715,1,0,0:0:0:0:
176,184,41915,1,0,0:0:0:0:
40,244,42115,5,8,0:0:0:0:
196,310,42315,1,0,0:0:0:0:
260,153,42515,1,8,0:0:0:0:
106,94,42715,1,0,0:0:0:0:
142,252,42915,2,0,L|184:276,1,32.5
370,252,43115,2,0,L|328:276,1,32.5
472,116,43315,2,0,L|430:140,1,32.5
40,116,43515,2,0,L|82:140,1,32.5
444,32,43715,5,12,0:0:0:0:
256,104,43915,1,0,0:0:0:0:
68,352,44115,1,12,0:0:0:0:
256,280,44315,1,0,0:0:0:0:
68,32,44515,1,12,0:0:0:0:
256,104,44715,1,0,0:0:0:0:
444,352,44915,1,12,0:0:0:0:
256,280,45115,1,0,0:0:0:0:
396,152,45315,5,8,0:0:0:0:
420,192,45415,1,0,0:0:0:0:
396,232,45515,1,0,0:0:0:0:
116,232,45715,1,8,0:0:0:0:
92,192,45815,1,0,0:0:0:0:
116,152,45915,1,0,0:0:0:0:
256,48,46115,1,8,0:0:0:0:
328,136,46315,1,0,0:0:0:0:
328,136,46415,2,8,B|368:192|368:192|328:240,1,130
300,272,46715,1,8,0:0:0:0:
228,348,46915,6,0,P|360:368|456:204,1,341.250013017655,4|0,0:0|0:0,0:0:0:0:
412,188,47715,2,0,P|307:271|142:177,1,341.250013017655,2|0,0:0|0:0,0:0:0:0:
120,140,48515,2,0,P|208:120|280:192,1,195.00000743866
331,326,49115,1,0,0:0:0:0:
166,314,49315,1,2,0:0:0:0:
56,184,49515,1,0,0:0:0:0:
166,314,49715,1,2,0:0:0:0:
331,326,49915,1,0,0:0:0:0:
456,216,50115,6,0,P|331:326|165:314,1,341.250013017655
121,289,50915,2,0,L|413:93,1,341.250013017655,2|0,0:0|0:0,0:0:0:0:
441,65,51715,2,0,P|347:43|255:72,1,195.00000743866,0|0,0:0|0:0,0:0:0:0:
151,122,52315,1,0,0:0:0:0:
126,237,52515,1,2,0:0:0:0:
199,327,52715,1,0,0:0:0:0:
317,327,52915,1,2,0:0:0:0:
389,234,53115,1,0,0:0:0:0:
361,120,53315,5,12,0:0:0:0:
317,327,53515,1,8,0:0:0:0:
317,327,53915,1,8,0:0:0:0:
317,327,54315,1,8,0:0:0:0:
317,327,54715,1,8,0:0:0:0:
200,327,54915,1,12,0:0:0:0:
389,233,55115,1,8,0:0:0:0:
389,233,55515,1,8,0:0:0:0:
389,233,55915,1,8,0:0:0:0:
389,233,56315,1,8,0:0:0:0:
361,120,56515,5,12,0:0:0:0:
126,237,56715,1,8,0:0:0:0:
126,237,57115,1,8,0:0:0:0:
199,327,57315,1,12,0:0:0:0:
256,72,57515,1,8,0:0:0:0:
256,72,57915,1,8,0:0:0:0:
17,107,58115,6,0,L|101:119,1,77.999997619629,12|0,0:0|0:0,0:0:0:0:
215,218,58415,2,0,L|138:211,1,77.999997619629,12|0,0:0|0:0,0:0:0:0:
263,308,58715,1,12,0:0:0:0:
408,332,58915,2,0,P|468:208|352:104,1,311.999990478516,12|0,0:0|0:0,0:0:0:0:
296,96,59815,1,0,0:0:0:0:
240,108,59915,1,0,0:0:0:0:
196,144,60015,1,0,0:0:0:0:
176,200,60115,1,0,0:0:0:0:
144,248,60215,1,0,0:0:0:0:
88,260,60315,1,0,0:0:0:0:
48,220,60415,1,0,0:0:0:0:
52,160,60515,5,12,0:0:0:0:
240,300,60715,1,0,0:0:0:0:
184,76,60915,1,8,0:0:0:0:
144,224,61115,1,0,0:0:0:0:
336,196,61315,2,0,L|144:225,1,195.00000743866,8|0,0:0|0:0,0:0:0:0:
452,32,61715,1,12,0:0:0:0:
336,196,61915,1,0,0:0:0:0:
176,196,62115,2,8,L|369:225,1,195.00000743866,8|0,0:0|0:0,0:0:0:0:
60,32,62515,1,8,0:0:0:0:
176,196,62715,1,0,0:0:0:0:
60,352,62915,1,8,0:0:0:0:
256,52,63115,1,0,0:0:0:0:
256,260,63315,1,12,0:0:0:0:
256,124,63515,6,0,B|256:264|256:264|184:200,1,227.5
191,206,64115,1,8,0:0:0:0:
432,136,64315,1,0,0:0:0:0:
336,280,64515,2,0,L|336:323,1,32.5
289,312,64615,2,0,L|274:352,1,32.5
235,327,64715,2,0,L|207:360,1,32.5
178,322,64815,2,0,L|140:343,1,32.5
127,298,64915,2,0,L|84:305,1,32.5,0|0,0:0|0:0,0:0:0:0:
87,258,65015,2,0,L|44:250,1,32.5
63,207,65115,2,0,L|25:185,1,32.5
58,150,65215,2,0,L|30:116,1,32.5
76,96,65315,6,0,B|68:73|77:52|77:52|136:88,1,97.50000371933,8|0,0:0|0:0,0:0:0:0:
168,107,65515,1,0,0:0:0:0:
436,96,65715,2,0,B|444:73|435:52|435:52|388:80,1,97.50000371933,8|0,0:0|0:0,0:0:0:0:
343,107,65915,1,0,0:0:0:0:
108,272,66115,2,0,P|208:308|312:272,1,195.00000743866,8|8,0:0|0:0,0:0:0:0:
256,220,66415,1,8,0:0:0:0:
221,286,66515,2,0,P|314:307|404:272,1,195.00000743866,8|8,0:0|0:0,0:0:0:0:
256,42,66915,5,8,0:0:0:0:
169,312,67115,1,0,0:0:0:0:
398,145,67315,1,8,0:0:0:0:
115,145,67515,1,0,0:0:0:0:
344,312,67715,2,0,L|176:195,1,195.00000743866,8|0,0:0|0:0,0:0:0:0:
500,80,68115,1,12,0:0:0:0:
328,200,68315,1,0,0:0:0:0:
169,312,68515,2,0,L|336:195,1,195.00000743866,8|0,0:0|0:0,0:0:0:0:
12,80,68915,1,8,0:0:0:0:
184,200,69115,1,0,0:0:0:0:
500,80,69315,1,8,0:0:0:0:
256,276,69515,1,0,0:0:0:0:
256,44,69715,1,12,0:0:0:0:
256,192,69915,1,12,0:0:0:0:
256,192,70015,1,0,0:0:0:0:
256,192,70115,6,0,P|196:164|124:168,1,130,0|0,0:0|0:0,0:0:0:0:
168,312,70515,1,8,0:0:0:0:
256,96,70715,1,0,0:0:0:0:
344,312,70915,1,8,0:0:0:0:
168,144,71115,1,0,0:0:0:0:
256,340,71315,1,8,0:0:0:0:
344,144,71515,2,0,P|348:240|264:292,1,195.00000743866,0|8,0:0|0:0,0:0:0:0:
204,288,71815,1,0,0:0:0:0:
144,252,71915,1,0,0:0:0:0:
120,188,72015,1,0,0:0:0:0:
128,116,72115,1,8,0:0:0:0:
172,60,72215,1,8,0:0:0:0:
244,40,72315,1,8,0:0:0:0:
320,52,72415,1,0,0:0:0:0:
380,100,72515,6,0,P|384:196|336:280,1,195,12|0,0:0|0:0,0:0:0:0:
256,336,73315,5,0,0:0:0:0:
256,238,73515,1,0,0:0:0:0:
256,141,73715,1,0,0:0:0:0:
256,44,73915,1,0,0:0:0:0:
152,96,74115,1,0,0:0:0:0:
60,152,74315,1,0,0:0:0:0:
60,152,74415,1,0,0:0:0:0:
60,152,74515,1,0,0:0:0:0:
256,239,74715,1,0,0:0:0:0:
256,340,74915,5,0,0:0:0:0:
256,140,75115,1,0,0:0:0:0:
256,238,75315,1,0,0:0:0:0:
256,44,75515,1,0,0:0:0:0:
360,96,75715,1,0,0:0:0:0:
452,152,75915,1,0,0:0:0:0:
256,44,76115,1,0,0:0:0:0:
256,239,76315,1,0,0:0:0:0:
332,336,76515,21,0,0:0:0:0:
180,336,76715,1,0,0:0:0:0:
368,344,76915,1,0,0:0:0:0:
144,344,77115,1,0,0:0:0:0:
100,180,77315,2,0,P|152:172|208:180,1,97.50000371933
412,184,77615,1,0,0:0:0:0:
412,184,77915,1,0,0:0:0:0:
100,180,78115,2,0,P|152:172|208:180,1,97.50000371933
412,184,78515,1,0,0:0:0:0:
440,52,78715,2,0,P|404:48|364:60,1,73.1250027894975
340,36,78915,2,0,P|288:40|252:68,1,97.50000371933
192,20,79215,2,0,P|124:52|92:116,1,146.250005578995
324,356,79715,6,0,P|384:332|416:276,1,130,12|0,0:0|0:0,0:0:0:0:
96,277,80115,2,0,P|128:332|188:356,1,130,8|0,0:0|0:0,0:0:0:0:
48,124,80515,1,8,0:0:0:0:
320,220,80715,1,0,0:0:0:0:
256,276,80815,1,0,0:0:0:0:
196,220,80915,1,8,0:0:0:0:
464,124,81115,1,0,0:0:0:0:
256,8,81315,6,0,L|256:40,1,32.5
180,56,81415,2,0,L|193:93,1,32.5
128,132,81515,2,0,L|148:156,1,32.5
104,220,81615,2,0,L|138:239,1,32.5
192,184,81715,6,0,L|208:211,1,32.5
281,187,81815,2,0,L|287:226,1,32.5
364,227,81915,2,0,L|358:258,1,32.5
429,291,82015,2,0,L|409:325,1,32.5
336,332,82115,6,0,L|330:364,1,32.5
244,96,82315,2,0,L|238:63,1,32.5,0|0,0:0|0:0,0:0:0:0:
160,332,82515,2,0,L|180:356,1,32.5,8|0,0:0|0:0,0:0:0:0:
64,96,82715,2,0,L|36:80,1,32.5,8|0,0:0|0:0,0:0:0:0:
72,196,82915,2,0,P|256:344|448:192,2,520,8|8|8,0:0|0:0|0:0,0:0:0:0:
128,72,84715,1,0,0:0:0:0:
384,72,84915,1,8,0:0:0:0:
256,32,85115,1,0,0:0:0:0:
316,192,85315,6,0,P|272:332|196:192,1,390,12|0,0:0|0:0,0:0:0:0:
136,234,85715,2,0,P|249:360|376:232,1,390,8|0,0:0|0:0,0:0:0:0:
256,56,86115,5,8,0:0:0:0:
256,328,86315,1,0,0:0:0:0:
100,260,86515,1,8,0:0:0:0:
412,124,86715,1,0,0:0:0:0:
412,260,86915,1,8,0:0:0:0:
100,124,87115,1,0,0:0:0:0:
448,76,87315,2,0,B|408:72|416:28|452:28|452:28|488:28|500:64|488:104|448:120|448:120|448:176,1,260,12|0,0:0|0:0,0:0:0:0:
448,167,87715,1,8,0:0:0:0:
100,124,87915,1,0,0:0:0:0:
316,366,88115,2,0,P|388:352|320:320,1,195.00000743866
348,344,88515,1,8,0:0:0:0:
312,26,88715,1,0,0:0:0:0:
76,228,88915,2,0,P|43:198|23:261,1,130,12|0,0:0|0:0,0:0:0:0:
128,304,89115,6,8,B|160:368|260:360|264:292|264:248|264:248|264:56,1,390.00001487732,8|0,0:0|0:0,0:0:0:0:
152,44,89715,2,0,L|152:96,1,48.750001859665,8|0,0:0|0:0,0:0:0:0:
12,92,89915,2,0,L|12:144,1,48.750001859665
272,148,90115,2,0,L|272:200,1,48.750001859665,8|0,0:0|0:0,0:0:0:0:
8,236,90315,2,0,L|8:288,1,48.750001859665
392,248,90515,2,0,L|392:300,1,48.750001859665,8|0,0:0|0:0,0:0:0:0:
4,376,90715,6,0,P|24:240|128:168,1,260,0|8,0:0|0:0,0:0:0:0:
186,136,91015,1,0,0:0:0:0:
272,148,91115,1,0,0:0:0:0:
348,180,91215,1,0,0:0:0:0:
401,238,91315,2,0,L|471:365,1,130,8|0,0:0|0:0,0:0:0:0:
349,346,91515,2,0,L|277:220,1,130
186,234,91715,2,0,B|256:364|256:364|352:264|304:116,1,390,8|0,0:0|0:0,0:0:0:0:
292,56,92115,2,0,P|229:35|168:60,1,130,8|0,0:0|0:0,0:0:0:0:
108,120,92315,2,0,P|171:99|232:124,1,130,8|0,0:0|0:0,0:0:0:0:
256,356,92515,5,12,0:0:0:0:
256,27,92715,1,0,0:0:0:0:
398,109,92915,1,8,0:0:0:0:
113,274,93115,1,0,0:0:0:0:
113,109,93315,1,8,0:0:0:0:
398,274,93515,1,0,0:0:0:0:
64,308,93715,2,0,B|104:312|96:356|60:356|60:356|24:356|12:320|24:280|64:264|64:264|64:208,1,260,12|0,0:0|0:0,0:0:0:0:
64,217,94115,5,8,0:0:0:0:
336,312,94315,1,0,0:0:0:0:
140,72,94515,2,0,P|70:48|113:109,1,195.00000743866
100,72,94915,1,8,0:0:0:0:
440,12,95115,1,0,0:0:0:0:
196,196,95315,2,0,P|172:140|188:64,1,130,12|0,0:0|0:0,0:0:0:0:
256,16,95515,6,0,P|396:148|272:244,1,390.00001487732,8|0,0:0|0:0,0:0:0:0:
148,212,96115,2,0,L|199:172,1,65,8|0,0:0|0:0,0:0:0:0:
320,212,96314,2,0,L|372:173,1,65
180,288,96515,2,0,L|170:224,1,65,8|0,0:0|0:0,0:0:0:0:
343,161,96715,2,0,L|334:97,1,65
264,296,96915,2,0,L|190:267,1,65,8|0,0:0|0:0,0:0:0:0:
307,87,97115,2,0,B|250:62|200:68|185:109|185:109|245:133,1,195.00000743866,0|8,0:0|0:0,0:0:0:0:
320,160,97415,1,0,0:0:0:0:
396,200,97515,1,0,0:0:0:0:
440,276,97615,1,0,0:0:0:0:
424,360,97715,2,0,L|300:308,1,130,8|8,0:0|0:0,0:0:0:0:
188,336,97915,2,0,L|64:284,1,130,8|8,0:0|0:0,0:0:0:0:
4,188,98115,2,0,P|168:16|440:140,1,520,12|8,0:0|0:0,0:0:0:0:
223,292,98915,5,0,0:0:0:0:
223,292,99015,1,0,0:0:0:0:
223,292,99115,1,0,0:0:0:0:
88,160,99315,1,0,0:0:0:0:
88,160,99415,1,0,0:0:0:0:
88,160,99515,1,0,0:0:0:0:
88,160,99615,1,0,0:0:0:0:
64,100,99715,1,0,0:0:0:0:
84,40,99815,1,0,0:0:0:0:
140,8,99915,1,0,0:0:0:0:
356,196,100115,2,0,P|378:238|374:296,1,97.50000371933
302,295,100315,2,0,P|250:319|195:313,1,97.50000371933
152,276,100515,5,0,0:0:0:0:
80,276,100615,1,0,0:0:0:0:
20,316,100715,1,0,0:0:0:0:
324,220,100915,1,0,0:0:0:0:
340,148,101015,1,0,0:0:0:0:
316,76,101115,1,0,0:0:0:0:
260,32,101215,1,0,0:0:0:0:
188,24,101315,1,0,0:0:0:0:
176,108,101415,1,0,0:0:0:0:
164,192,101515,1,0,0:0:0:0:
160,216,101715,6,0,L|224:136,1,97.50000371933,12|0,0:0|0:0,0:0:0:0:
352,240,101915,2,0,L|436:316,1,97.50000371933,12|0,0:0|0:0,0:0:0:0:
