osu file format v12

[General]
AudioFilename: SOUND HOLIC feat. Nana Takahashi - Ha lle lu jah[EXH].mp3
AudioLeadIn: 0
PreviewTime: 60500
Countdown: 0
SampleSet: Soft
StackLeniency: 0.7
Mode: 0
LetterboxInBreaks: 0
WidescreenStoryboard: 1

[Editor]
DistanceSpacing: 1
BeatDivisor: 2
GridSize: 4
TimelineZoom: 1

[Metadata]
Title:Ha lle lu jah
TitleUnicode:Ha lle lu jah
Artist:SOUND HOLIC feat. Nana Takahashi
ArtistUnicode:SOUND HOLIC feat. Nana Takahashi
Creator:44BLACK
Version:Normal
Source:SOUND VOLTEX BOOTH
Tags:SDVX KONAMI BEMANI BEAT
BeatmapID:370675
BeatmapSetID:148741

[Difficulty]
HPDrainRate:3
CircleSize:3
OverallDifficulty:3
ApproachRate:3
SliderMultiplier:1
SliderTickRate:1

[Events]
//Background and Video events
0,0,"Ha lle lu jah.jpg",0,0
//Break Periods
2,47100,51860
2,73699,78260
//Storyboard Layer 0 (Background)
//Storyboard Layer 1 (Fail)
//Storyboard Layer 2 (Pass)
//Storyboard Layer 3 (Foreground)
//Storyboard Sound Samples
//Background Colour Transformations
3,100,163,162,255

[TimingPoints]
500,400,4,2,0,60,1,0
8500,-100,4,1,0,55,0,0
21300,-100,4,1,0,55,0,0
32500,-100,4,2,0,5,0,0
34100,-100,4,1,0,55,0,0
53300,-100,4,2,0,55,0,0
60500,400,4,1,0,55,1,1
73300,-100,4,1,0,55,0,0
86100,-100,4,1,0,55,0,1
98900,-100,4,1,0,55,0,0
101900,-100,4,2,0,5,0,0

[Colours]
Combo1 : 0,255,255
Combo2 : 255,0,255
Combo3 : 255,128,255

[HitObjects]
80,312,500,5,2,0:0:0:0:
180,304,900,1,2,0:0:0:0:
268,256,1300,1,2,0:0:0:0:
316,168,1700,1,2,0:0:0:0:
308,68,2100,2,2,P|264:48|212:52,2,100
400,188,3500,5,0,0:0:0:0:
400,188,3700,2,2,P|413:238|400:288,1,100
304,260,4500,1,2,0:0:0:0:
304,260,4900,1,2,0:0:0:0:
224,196,5300,6,0,L|180:224,1,50,4|0,0:0|0:0,0:0:0:0:
168,176,5700,2,0,L|120:192,1,50,4|0,0:0|0:0,0:0:0:0:
256,192,6100,12,0,8100,0:0:0:0:
392,72,8500,5,8,0:0:0:0:
368,168,8900,1,8,0:0:0:0:
328,260,9300,2,8,P|280:272|232:256,1,100
264,160,10100,2,8,P|216:148|168:164,1,100
100,232,10900,1,8,0:0:0:0:
100,232,11100,2,0,L|60:200,2,50,0|8|0,0:0|0:0|0:0,0:0:0:0:
136,268,11700,6,8,L|240:268,1,100
332,288,12500,1,8,0:0:0:0:
332,288,12900,1,8,0:0:0:0:
428,260,13300,2,8,B|432:208|392:168,1,100
312,112,14100,2,0,L|312:164,1,50,0|0,0:0|0:0,0:0:0:0:
272,192,14500,2,0,L|272:132,1,50,0|0,0:0|0:0,0:0:0:0:
240,104,14900,6,10,P|196:76|148:72,2,100
168,176,16100,1,8,0:0:0:0:
168,176,16500,2,10,P|132:212|124:260,1,100,10|10,0:0|0:0,0:0:0:0:
192,332,17300,1,10,0:0:0:0:
240,332,17700,1,10,0:0:0:0:
288,332,18100,6,10,P|340:328|384:300,1,100
460,244,18900,2,10,P|420:212|372:212,1,100
276,232,19700,2,10,P|228:244|180:232,2,100
340,156,20900,1,4,0:0:0:0:
392,72,21300,6,8,P|340:64|288:72,1,100
208,124,22100,1,8,0:0:0:0:
192,224,22500,2,8,P|232:256|280:264,1,100
380,264,23300,1,8,0:0:0:0:
336,172,23700,2,8,L|284:172,2,50
384,168,24300,1,0,0:0:0:0:
424,136,24500,6,8,P|396:104|340:80,1,100
244,84,25300,1,8,0:0:0:0:
164,144,25700,1,8,0:0:0:0:
132,240,26100,2,10,P|180:248|230:241,2,100
64,168,27300,1,8,0:0:0:0:
116,84,27700,6,8,P|164:76|216:84,1,100
312,108,28500,2,2,L|352:144,1,50,8|0,0:0|0:0,0:0:0:0:
380,180,28900,2,8,P|338:207|289:212,1,100
188,208,29700,1,8,0:0:0:0:
244,292,30100,6,2,L|292:316,1,50,8|0,0:0|0:0,0:0:0:0:
336,328,30500,2,8,P|340:276|324:228,1,100
264,152,31300,1,8,0:0:0:0:
172,112,31700,1,8,0:0:0:0:
96,176,32100,1,8,0:0:0:0:
108,276,32500,6,8,P|148:308|200:316,1,100
236,312,33100,2,0,L|276:280,1,50
304,256,33500,2,10,L|356:256,2,50
272,232,34100,6,8,P|304:192|352:168,1,100
432,116,34900,2,8,L|432:64,2,50
336,92,35700,2,8,P|284:96|248:124,1,100
184,204,36500,2,10,L|128:204,1,50,8|0,0:0|0:0,0:0:0:0:
148,156,36900,2,10,L|92:156,1,50,8|0,0:0|0:0,0:0:0:0:
60,172,37300,6,10,B|60:228|100:264,1,100
176,324,38100,2,10,P|224:272|304:264,1,150
348,280,38900,2,10,P|396:292|448:280,2,100
280,208,40100,1,8,0:0:0:0:
184,184,40500,6,8,P|204:136|252:108,1,100
332,64,41300,2,0,P|364:100|364:152,1,100
348,188,41900,2,10,P|304:244|224:260,1,150
124,268,42900,2,2,L|72:252,1,50,8|0,0:0|0:0,0:0:0:0:
112,224,43300,2,2,L|60:208,1,50,8|0,0:0|0:0,0:0:0:0:
104,180,43700,5,12,0:0:0:0:
164,100,44100,1,12,0:0:0:0:
264,80,44500,1,12,0:0:0:0:
360,108,44900,1,12,0:0:0:0:
256,192,45300,12,4,46900,0:0:0:0:
112,96,53300,6,2,P|136:192|200:272,1,200
248,184,54500,1,2,0:0:0:0:
152,200,54900,2,2,P|112:232|96:280,2,100,6|2|2,0:0|0:0|0:0,0:0:0:0:
240,144,56100,1,2,0:0:0:0:
336,104,56500,6,0,L|432:64,1,100,4|0,0:0|0:0,0:0:0:0:
432,168,57300,2,0,L|336:208,1,100,4|0,0:0|0:0,0:0:0:0:
256,260,58100,2,4,B|248:300|248:300|256:340,2,75
256,224,58900,2,4,B|264:184|264:184|256:120,1,100
176,68,59700,5,8,0:0:0:0:
100,124,60100,1,8,0:0:0:0:
64,216,60500,6,0,P|71:265|104:304,1,100,8|8,0:0|0:0,0:0:0:0:
180,240,61300,2,8,P|228:224|276:240,1,100
368,268,62100,2,8,L|368:324,2,50
404,176,62900,2,8,L|436:136,2,50
364,204,63500,6,2,B|332:220|332:220|268:208|264:140,1,150
184,84,64500,2,0,L|144:52,1,50,8|0,0:0|0:0,0:0:0:0:
140,104,64899,2,0,L|100:72,1,50,8|0,0:0|0:0,0:0:0:0:
96,124,65300,2,8,B|36:220|92:312,1,200
188,288,66500,1,4,0:0:0:0:
228,196,66900,6,8,P|240:144|220:104,2,100
188,288,68100,1,8,0:0:0:0:
276,336,68500,2,8,P|312:304|360:284,1,100
460,272,69300,2,0,L|460:328,2,50,8|0|8,0:0|0:0|0:0,0:0:0:0:
460,232,69900,6,2,P|424:172|352:140,1,150
312,232,70900,2,8,P|268:208|248:164,1,100
240,124,71500,6,10,P|196:148|164:188,1,100
144,220,72100,1,8,0:0:0:0:
160,320,72500,2,2,B|204:332|204:332|248:252|348:272,1,200,2|6,0:0|0:0,0:0:0:0:
96,104,79700,5,8,0:0:0:0:
168,172,80100,1,8,0:0:0:0:
236,100,80500,2,8,P|288:92|336:100,1,100
412,164,81300,5,10,0:0:0:0:
412,192,81700,1,10,0:0:0:0:
412,220,82100,2,2,L|364:240,1,50,8|0,0:0|0:0,0:0:0:0:
412,260,82500,2,2,L|364:280,1,50,8|0,0:0|0:0,0:0:0:0:
320,304,82900,6,8,P|268:316|220:308,1,100
124,324,83700,1,8,0:0:0:0:
124,324,83900,2,2,P|72:268|84:188,1,150,0|0,0:0|0:0,0:0:0:0:
132,116,84900,1,8,0:0:0:0:
220,152,85300,2,4,B|260:120|260:120|248:116|248:116|280:92,1,100
364,48,86100,5,8,0:0:0:0:
440,112,86500,2,8,P|452:160|444:212,1,100
404,300,87300,1,12,0:0:0:0:
304,280,87700,2,8,P|264:316|220:328,2,100
352,192,88900,1,12,0:0:0:0:
352,192,89100,6,2,P|276:188|220:232,1,150,2|10,0:0|0:0,0:0:0:0:
160,312,90100,2,8,P|112:300|76:264,1,100
68,228,90700,2,10,P|96:188|104:136,1,100
96,100,91300,1,10,0:0:0:0:
96,100,91700,2,8,L|180:164,1,100,8|12,0:0|0:0,0:0:0:0:
176,260,92500,5,8,0:0:0:0:
260,312,92900,2,0,B|308:324|308:324|360:312,1,100,8|0,0:0|0:0,0:0:0:0:
428,244,93700,1,12,0:0:0:0:
336,208,94100,2,8,L|236:208,2,100,8|0|8,0:0|0:0|0:0,0:0:0:0:
384,120,95300,1,12,0:0:0:0:
384,120,95500,6,2,B|336:120|336:120|288:96|236:120,1,150,0|8,0:0|0:0,0:0:0:0:
136,120,96500,2,0,B|144:152|144:152|184:180|184:212,1,100
188,244,97100,2,2,P|240:300|308:292,1,150,0|8,0:0|0:0,0:0:0:0:
292,192,98100,2,4,B|336:192|336:192|364:152|364:152|416:188|476:172,1,200
428,268,99300,5,8,0:0:0:0:
332,300,99700,1,8,0:0:0:0:
236,272,100100,1,8,0:0:0:0:
136,272,100500,2,8,P|93:244|68:204,1,100
164,180,101300,2,8,L|276:180,1,100
256,192,101900,12,0,103700,0:0:0:0:
