osu file format v14

[General]
AudioFilename: HALOS.mp3
AudioLeadIn: 0
PreviewTime: 46845
Countdown: 0
SampleSet: Soft
StackLeniency: 0.7
Mode: 3
LetterboxInBreaks: 0
SpecialStyle: 1
WidescreenStoryboard: 0

[Editor]
DistanceSpacing: 0.8
BeatDivisor: 4
GridSize: 4
TimelineZoom: 2.899999

[Metadata]
Title:HALOS
TitleUnicode:HALOS
Artist:SOUND HOLIC feat. Nana Takahashi
ArtistUnicode:SOUND HOLIC feat. Nana Takahashi
Creator:ignorethis
Version:Hard
Source:REFLEC BEAT groovin'!!
Tags:eurobeat
BeatmapID:646638
BeatmapSetID:286431

[Difficulty]
HPDrainRate:9
CircleSize:7
OverallDifficulty:8
ApproachRate:5
SliderMultiplier:1.65
SliderTickRate:1

[Events]
//Background and Video events
0,0,"bg.jpg",0,0
//Break Periods
//Storyboard Layer 0 (Background)
//Storyboard Layer 1 (Fail)
//Storyboard Layer 2 (Pass)
//Storyboard Layer 3 (Foreground)
//Storyboard Sound Samples

[TimingPoints]
1209,363.636363636364,4,2,0,50,1,0

[HitObjects]
256,192,1209,128,4,4027:0:0:0:0:
402,192,1209,1,0,0:0:0:0:
36,192,1572,1,0,0:0:0:0:
475,192,1936,1,0,0:0:0:0:
182,192,2299,1,0,0:0:0:0:
402,192,2663,1,0,0:0:0:0:
109,192,3027,1,0,0:0:0:0:
36,192,3390,1,0,0:0:0:0:
329,192,3754,1,0,0:0:0:0:
256,192,4118,1,2,0:0:0:0:
109,192,4118,1,0,0:0:0:0:
36,192,4209,1,0,0:0:0:0:
109,192,4299,1,0,0:0:0:0:
182,192,4390,1,0,0:0:0:0:
329,192,4481,1,0,0:0:0:0:
402,192,4572,1,0,0:0:0:0:
329,192,4663,1,0,0:0:0:0:
182,192,4754,1,0,0:0:0:0:
329,192,4845,1,0,0:0:0:0:
182,192,4936,1,0,0:0:0:0:
329,192,5027,1,0,0:0:0:0:
402,192,5118,1,0,0:0:0:0:
475,192,5209,1,0,0:0:0:0:
402,192,5299,1,0,0:0:0:0:
329,192,5390,1,0,0:0:0:0:
182,192,5481,1,0,0:0:0:0:
256,192,5572,1,2,0:0:0:0:
109,192,5572,1,0,0:0:0:0:
36,192,5663,1,0,0:0:0:0:
109,192,5754,1,0,0:0:0:0:
182,192,5845,1,0,0:0:0:0:
329,192,5936,1,0,0:0:0:0:
402,192,6027,1,0,0:0:0:0:
329,192,6118,1,0,0:0:0:0:
182,192,6209,1,0,0:0:0:0:
329,192,6299,1,0,0:0:0:0:
182,192,6390,1,0,0:0:0:0:
329,192,6481,1,0,0:0:0:0:
402,192,6572,1,0,0:0:0:0:
475,192,6663,1,0,0:0:0:0:
402,192,6754,1,0,0:0:0:0:
329,192,6845,1,0,0:0:0:0:
36,192,6845,1,0,0:0:0:0:
182,192,6936,1,0,0:0:0:0:
256,192,7027,1,4,0:0:0:0:
36,192,7027,1,0,0:0:0:0:
475,192,7027,1,0,0:0:0:0:
109,192,7027,1,0,0:0:0:0:
402,192,7209,1,0,0:0:0:0:
109,192,7390,1,0,0:0:0:0:
402,192,7572,1,0,0:0:0:0:
36,192,7572,1,0,0:0:0:0:
475,192,7572,1,0,0:0:0:0:
256,192,7572,1,4,0:0:0:0:
109,192,7754,1,0,0:0:0:0:
402,192,7936,1,0,0:0:0:0:
109,192,8118,1,0,0:0:0:0:
402,192,8299,1,0,0:0:0:0:
109,192,8481,1,0,0:0:0:0:
402,192,8663,1,0,0:0:0:0:
109,192,8845,128,0,9027:0:0:0:0:
402,192,9027,1,0,0:0:0:0:
109,192,9209,1,0,0:0:0:0:
402,192,9390,128,0,9572:0:0:0:0:
109,192,9572,1,0,0:0:0:0:
402,192,9754,1,0,0:0:0:0:
256,192,9754,1,4,0:0:0:0:
256,192,9936,1,4,0:0:0:0:
109,192,9936,1,0,0:0:0:0:
402,192,9936,1,0,0:0:0:0:
36,192,9936,1,0,0:0:0:0:
475,192,10118,1,0,0:0:0:0:
36,192,10299,1,0,0:0:0:0:
475,192,10481,1,0,0:0:0:0:
109,192,10481,1,0,0:0:0:0:
256,192,10481,1,4,0:0:0:0:
402,192,10481,1,0,0:0:0:0:
36,192,10663,1,0,0:0:0:0:
475,192,10845,1,0,0:0:0:0:
36,192,11027,1,0,0:0:0:0:
475,192,11209,1,0,0:0:0:0:
475,192,11390,1,0,0:0:0:0:
256,192,11390,1,4,0:0:0:0:
109,192,11390,1,0,0:0:0:0:
402,192,11481,1,0,0:0:0:0:
329,192,11572,1,0,0:0:0:0:
182,192,11663,1,0,0:0:0:0:
402,192,11754,1,0,0:0:0:0:
256,192,11754,1,4,0:0:0:0:
36,192,11754,1,0,0:0:0:0:
329,192,11845,1,0,0:0:0:0:
182,192,11936,1,0,0:0:0:0:
109,192,12027,1,0,0:0:0:0:
36,192,12118,1,0,0:0:0:0:
256,192,12118,1,4,0:0:0:0:
402,192,12118,1,0,0:0:0:0:
256,192,12481,1,0,0:0:0:0:
36,192,12845,1,0,0:0:0:0:
182,192,12845,1,0,0:0:0:0:
329,192,12845,1,0,0:0:0:0:
402,192,13027,1,0,0:0:0:0:
182,192,13118,1,0,0:0:0:0:
36,192,13209,1,0,0:0:0:0:
402,192,13209,1,0,0:0:0:0:
182,192,13299,1,0,0:0:0:0:
402,192,13390,1,0,0:0:0:0:
182,192,13481,1,0,0:0:0:0:
36,192,13572,1,0,0:0:0:0:
329,192,13572,1,0,0:0:0:0:
475,192,13663,1,0,0:0:0:0:
329,192,13754,1,0,0:0:0:0:
475,192,13845,1,0,0:0:0:0:
36,192,13936,1,0,0:0:0:0:
182,192,14027,1,0,0:0:0:0:
329,192,14118,1,0,0:0:0:0:
36,192,14299,1,0,0:0:0:0:
329,192,14299,1,0,0:0:0:0:
182,192,14390,1,0,0:0:0:0:
329,192,14481,1,0,0:0:0:0:
402,192,14572,1,0,0:0:0:0:
36,192,14663,1,0,0:0:0:0:
475,192,14663,1,0,0:0:0:0:
329,192,14845,1,0,0:0:0:0:
182,192,14936,1,0,0:0:0:0:
36,192,15027,1,0,0:0:0:0:
329,192,15027,1,0,0:0:0:0:
402,192,15118,1,0,0:0:0:0:
475,192,15209,1,0,0:0:0:0:
36,192,15390,1,0,0:0:0:0:
402,192,15390,1,0,0:0:0:0:
329,192,15481,1,0,0:0:0:0:
182,192,15572,1,0,0:0:0:0:
36,192,15572,1,0,0:0:0:0:
329,192,15663,1,0,0:0:0:0:
36,192,15754,1,0,0:0:0:0:
256,192,15754,1,4,0:0:0:0:
402,192,15754,1,0,0:0:0:0:
109,192,15754,1,0,0:0:0:0:
182,192,15936,1,0,0:0:0:0:
402,192,16027,1,0,0:0:0:0:
36,192,16118,1,0,0:0:0:0:
109,192,16118,1,0,0:0:0:0:
329,192,16209,1,0,0:0:0:0:
109,192,16299,1,0,0:0:0:0:
329,192,16390,1,0,0:0:0:0:
36,192,16481,1,0,0:0:0:0:
402,192,16481,1,0,0:0:0:0:
182,192,16572,1,0,0:0:0:0:
402,192,16663,1,0,0:0:0:0:
182,192,16754,1,0,0:0:0:0:
36,192,16845,1,0,0:0:0:0:
329,192,16936,1,0,0:0:0:0:
475,192,17027,1,0,0:0:0:0:
36,192,17209,1,0,0:0:0:0:
402,192,17209,1,0,0:0:0:0:
329,192,17299,1,0,0:0:0:0:
182,192,17390,1,0,0:0:0:0:
109,192,17481,1,0,0:0:0:0:
36,192,17572,1,0,0:0:0:0:
475,192,17572,1,0,0:0:0:0:
402,192,17663,1,0,0:0:0:0:
329,192,17754,1,0,0:0:0:0:
182,192,17845,1,0,0:0:0:0:
36,192,17936,1,0,0:0:0:0:
109,192,17936,1,0,0:0:0:0:
329,192,18027,1,0,0:0:0:0:
402,192,18118,1,0,0:0:0:0:
109,192,18209,1,0,0:0:0:0:
475,192,18209,1,0,0:0:0:0:
36,192,18299,1,0,0:0:0:0:
402,192,18299,1,0,0:0:0:0:
109,192,18390,1,0,0:0:0:0:
329,192,18390,1,0,0:0:0:0:
36,192,18481,1,0,0:0:0:0:
182,192,18481,1,0,0:0:0:0:
329,192,18663,1,0,0:0:0:0:
36,192,18663,1,0,0:0:0:0:
475,192,18663,1,0,0:0:0:0:
256,192,18663,1,4,0:0:0:0:
402,192,18845,1,0,0:0:0:0:
182,192,18936,1,0,0:0:0:0:
402,192,19027,1,0,0:0:0:0:
36,192,19027,1,0,0:0:0:0:
182,192,19118,1,0,0:0:0:0:
402,192,19209,1,0,0:0:0:0:
182,192,19299,1,0,0:0:0:0:
36,192,19390,1,0,0:0:0:0:
329,192,19390,1,0,0:0:0:0:
475,192,19481,1,0,0:0:0:0:
329,192,19572,1,0,0:0:0:0:
475,192,19663,1,0,0:0:0:0:
36,192,19754,1,0,0:0:0:0:
182,192,19845,1,0,0:0:0:0:
329,192,19936,1,0,0:0:0:0:
329,192,20118,1,0,0:0:0:0:
36,192,20118,1,0,0:0:0:0:
182,192,20209,1,0,0:0:0:0:
329,192,20299,1,0,0:0:0:0:
402,192,20390,1,0,0:0:0:0:
36,192,20481,1,0,0:0:0:0:
475,192,20481,1,0,0:0:0:0:
329,192,20663,1,0,0:0:0:0:
182,192,20754,1,0,0:0:0:0:
36,192,20845,1,0,0:0:0:0:
329,192,20845,1,0,0:0:0:0:
402,192,20936,1,0,0:0:0:0:
475,192,21027,1,0,0:0:0:0:
402,192,21118,1,0,0:0:0:0:
36,192,21209,1,0,0:0:0:0:
329,192,21209,1,0,0:0:0:0:
182,192,21299,1,0,0:0:0:0:
36,192,21390,1,0,0:0:0:0:
109,192,21390,1,0,0:0:0:0:
182,192,21481,1,0,0:0:0:0:
36,192,21572,1,0,0:0:0:0:
329,192,21572,1,0,0:0:0:0:
475,192,21572,1,0,0:0:0:0:
256,192,21572,1,4,0:0:0:0:
402,192,21754,1,0,0:0:0:0:
109,192,21845,1,0,0:0:0:0:
36,192,21936,1,0,0:0:0:0:
475,192,21936,1,0,0:0:0:0:
182,192,22027,1,0,0:0:0:0:
475,192,22209,1,0,0:0:0:0:
36,192,22299,1,0,0:0:0:0:
182,192,22299,1,0,0:0:0:0:
329,192,22390,1,0,0:0:0:0:
182,192,22481,1,0,0:0:0:0:
329,192,22572,1,0,0:0:0:0:
36,192,22663,1,0,0:0:0:0:
329,192,22754,1,0,0:0:0:0:
36,192,22845,1,0,0:0:0:0:
475,192,22845,1,0,0:0:0:0:
36,192,23027,1,0,0:0:0:0:
256,192,23027,1,4,0:0:0:0:
402,192,23027,1,0,0:0:0:0:
182,192,23118,1,0,0:0:0:0:
329,192,23209,1,0,0:0:0:0:
402,192,23299,1,0,0:0:0:0:
109,192,23299,1,0,0:0:0:0:
36,192,23390,1,0,0:0:0:0:
475,192,23390,1,0,0:0:0:0:
109,192,23481,1,0,0:0:0:0:
402,192,23481,1,0,0:0:0:0:
36,192,23572,1,0,0:0:0:0:
182,192,23572,1,0,0:0:0:0:
109,192,23663,1,0,0:0:0:0:
329,192,23663,1,0,0:0:0:0:
36,192,23754,1,0,0:0:0:0:
402,192,23754,1,0,0:0:0:0:
329,192,23845,1,0,0:0:0:0:
36,192,23936,1,0,0:0:0:0:
256,192,23936,1,4,0:0:0:0:
475,192,23936,1,0,0:0:0:0:
182,192,24027,1,0,0:0:0:0:
256,192,24118,128,4,24481:0:0:0:0:
36,192,24118,1,0,0:0:0:0:
475,192,24118,1,0,0:0:0:0:
36,192,24481,1,0,0:0:0:0:
402,192,24663,1,0,0:0:0:0:
36,192,24845,1,0,0:0:0:0:
402,192,25027,1,0,0:0:0:0:
36,192,25209,1,0,0:0:0:0:
402,192,25390,1,0,0:0:0:0:
36,192,25572,1,0,0:0:0:0:
402,192,25754,1,0,0:0:0:0:
36,192,25936,1,0,0:0:0:0:
182,192,26118,1,0,0:0:0:0:
36,192,26299,1,0,0:0:0:0:
329,192,26299,1,0,0:0:0:0:
402,192,26481,1,0,0:0:0:0:
475,192,26663,1,0,0:0:0:0:
36,192,26663,1,0,0:0:0:0:
402,192,26845,1,0,0:0:0:0:
329,192,27027,1,0,0:0:0:0:
36,192,27027,1,0,0:0:0:0:
182,192,27209,1,0,0:0:0:0:
36,192,27390,1,0,0:0:0:0:
329,192,27572,1,0,0:0:0:0:
36,192,27754,1,0,0:0:0:0:
329,192,27936,1,0,0:0:0:0:
36,192,28118,1,0,0:0:0:0:
329,192,28299,1,0,0:0:0:0:
36,192,28481,1,0,0:0:0:0:
329,192,28663,1,0,0:0:0:0:
36,192,28845,1,0,0:0:0:0:
182,192,29027,1,0,0:0:0:0:
329,192,29209,1,0,0:0:0:0:
36,192,29209,1,0,0:0:0:0:
402,192,29390,1,0,0:0:0:0:
475,192,29572,1,0,0:0:0:0:
36,192,29572,1,0,0:0:0:0:
329,192,29754,1,0,0:0:0:0:
36,192,29845,1,0,0:0:0:0:
182,192,29936,1,0,0:0:0:0:
36,192,29936,1,0,0:0:0:0:
109,192,30118,1,0,0:0:0:0:
36,192,30118,1,0,0:0:0:0:
36,192,30299,1,0,0:0:0:0:
256,192,30299,1,4,0:0:0:0:
329,192,30299,128,0,30481:0:0:0:0:
475,192,30481,1,0,0:0:0:0:
109,192,30481,1,0,0:0:0:0:
36,192,30663,1,0,0:0:0:0:
329,192,30663,1,0,0:0:0:0:
109,192,30845,1,0,0:0:0:0:
475,192,30845,128,0,31027:0:0:0:0:
36,192,31027,1,0,0:0:0:0:
329,192,31027,1,0,0:0:0:0:
109,192,31209,1,0,0:0:0:0:
475,192,31209,128,0,31390:0:0:0:0:
36,192,31390,1,0,0:0:0:0:
329,192,31390,1,0,0:0:0:0:
109,192,31572,1,0,0:0:0:0:
475,192,31572,128,0,31754:0:0:0:0:
36,192,31754,1,0,0:0:0:0:
329,192,31754,128,0,31936:0:0:0:0:
109,192,31936,1,0,0:0:0:0:
475,192,31936,1,0,0:0:0:0:
36,192,32118,1,0,0:0:0:0:
329,192,32118,1,0,0:0:0:0:
109,192,32299,1,0,0:0:0:0:
475,192,32299,128,0,32481:0:0:0:0:
36,192,32481,1,0,0:0:0:0:
329,192,32481,1,0,0:0:0:0:
109,192,32663,1,0,0:0:0:0:
475,192,32663,128,0,32845:0:0:0:0:
36,192,32845,1,0,0:0:0:0:
329,192,32845,1,0,0:0:0:0:
109,192,33027,1,0,0:0:0:0:
475,192,33027,128,0,33209:0:0:0:0:
36,192,33209,1,0,0:0:0:0:
182,192,33209,1,0,0:0:0:0:
109,192,33390,1,0,0:0:0:0:
329,192,33390,1,0,0:0:0:0:
36,192,33572,1,0,0:0:0:0:
402,192,33572,1,0,0:0:0:0:
109,192,33754,1,0,0:0:0:0:
475,192,33754,1,0,0:0:0:0:
36,192,33936,1,0,0:0:0:0:
402,192,33936,1,0,0:0:0:0:
109,192,34118,1,0,0:0:0:0:
329,192,34118,1,0,0:0:0:0:
36,192,34299,1,0,0:0:0:0:
475,192,34299,1,0,0:0:0:0:
109,192,34481,1,0,0:0:0:0:
475,192,34663,1,0,0:0:0:0:
36,192,34663,1,0,0:0:0:0:
256,192,34663,1,4,0:0:0:0:
256,192,34845,1,4,0:0:0:0:
109,192,34845,1,0,0:0:0:0:
402,192,34845,1,0,0:0:0:0:
256,192,35027,1,4,0:0:0:0:
475,192,35027,1,0,0:0:0:0:
36,192,35027,1,0,0:0:0:0:
256,192,35209,1,4,0:0:0:0:
109,192,35209,1,0,0:0:0:0:
402,192,35209,1,0,0:0:0:0:
256,192,35572,1,4,0:0:0:0:
109,192,35572,1,0,0:0:0:0:
402,192,35572,1,0,0:0:0:0:
256,192,35754,1,4,0:0:0:0:
402,192,35754,1,0,0:0:0:0:
109,192,35754,1,0,0:0:0:0:
256,192,35936,1,4,0:0:0:0:
109,192,35936,1,0,0:0:0:0:
402,192,35936,1,0,0:0:0:0:
329,192,36299,1,0,0:0:0:0:
329,192,36481,1,0,0:0:0:0:
329,192,36663,1,0,0:0:0:0:
329,192,36845,1,0,0:0:0:0:
329,192,37027,1,0,0:0:0:0:
329,192,37209,1,0,0:0:0:0:
256,192,37209,1,4,0:0:0:0:
109,192,37209,1,0,0:0:0:0:
256,192,37390,1,4,0:0:0:0:
329,192,37390,1,0,0:0:0:0:
109,192,37390,1,0,0:0:0:0:
182,192,37754,1,0,0:0:0:0:
182,192,37936,1,0,0:0:0:0:
182,192,38118,128,0,38299:0:0:0:0:
182,192,38481,128,0,38663:0:0:0:0:
256,192,38481,1,4,0:0:0:0:
402,192,38481,1,0,0:0:0:0:
256,192,38663,1,4,0:0:0:0:
402,192,38663,1,0,0:0:0:0:
402,192,38845,1,0,0:0:0:0:
182,192,38845,1,0,0:0:0:0:
256,192,38845,128,4,39209:0:0:0:0:
109,192,39209,1,0,0:0:0:0:
329,192,39209,1,0,0:0:0:0:
109,192,39390,1,0,0:0:0:0:
329,192,39390,1,0,0:0:0:0:
109,192,39572,1,0,0:0:0:0:
329,192,39572,1,0,0:0:0:0:
109,192,39754,1,0,0:0:0:0:
329,192,39754,1,0,0:0:0:0:
329,192,39936,1,0,0:0:0:0:
109,192,39936,1,0,0:0:0:0:
109,192,40118,1,0,0:0:0:0:
329,192,40118,1,0,0:0:0:0:
256,192,40118,1,4,0:0:0:0:
402,192,40299,1,0,0:0:0:0:
182,192,40299,1,0,0:0:0:0:
256,192,40299,1,4,0:0:0:0:
182,192,40663,1,0,0:0:0:0:
402,192,40663,1,0,0:0:0:0:
402,192,40845,1,0,0:0:0:0:
182,192,40845,1,0,0:0:0:0:
109,192,41027,1,0,0:0:0:0:
475,192,41027,1,0,0:0:0:0:
256,192,41027,1,4,0:0:0:0:
329,192,41118,1,0,0:0:0:0:
475,192,41209,1,0,0:0:0:0:
329,192,41299,1,0,0:0:0:0:
36,192,41390,1,0,0:0:0:0:
256,192,41390,1,4,0:0:0:0:
402,192,41481,1,0,0:0:0:0:
109,192,41572,1,0,0:0:0:0:
329,192,41663,1,0,0:0:0:0:
109,192,41754,1,0,0:0:0:0:
256,192,41754,1,4,0:0:0:0:
402,192,41845,1,0,0:0:0:0:
182,192,41936,1,0,0:0:0:0:
36,192,41936,1,0,0:0:0:0:
256,192,41936,1,4,0:0:0:0:
329,192,41936,128,0,42118:0:0:0:0:
109,192,42118,1,0,0:0:0:0:
475,192,42118,1,0,0:0:0:0:
36,192,42299,1,0,0:0:0:0:
329,192,42299,1,0,0:0:0:0:
109,192,42481,1,0,0:0:0:0:
475,192,42481,128,0,42663:0:0:0:0:
36,192,42663,1,0,0:0:0:0:
329,192,42663,1,0,0:0:0:0:
109,192,42845,1,0,0:0:0:0:
475,192,42845,128,0,43027:0:0:0:0:
36,192,43027,1,0,0:0:0:0:
329,192,43027,1,0,0:0:0:0:
109,192,43209,1,0,0:0:0:0:
475,192,43209,128,0,43390:0:0:0:0:
329,192,43390,128,0,43754:0:0:0:0:
36,192,43390,1,0,0:0:0:0:
256,192,43390,1,4,0:0:0:0:
109,192,43572,1,0,0:0:0:0:
256,192,43754,1,4,0:0:0:0:
36,192,43754,1,0,0:0:0:0:
402,192,43754,128,0,44118:0:0:0:0:
109,192,43936,1,0,0:0:0:0:
256,192,44118,1,4,0:0:0:0:
36,192,44118,1,0,0:0:0:0:
475,192,44118,128,0,44845:0:0:0:0:
109,192,44299,1,0,0:0:0:0:
256,192,44481,1,4,0:0:0:0:
36,192,44481,1,0,0:0:0:0:
109,192,44663,1,0,0:0:0:0:
256,192,44845,1,4,0:0:0:0:
36,192,44845,1,0,0:0:0:0:
402,192,44845,128,0,45209:0:0:0:0:
109,192,45027,1,0,0:0:0:0:
36,192,45209,1,0,0:0:0:0:
109,192,45390,1,0,0:0:0:0:
475,192,45390,1,0,0:0:0:0:
256,192,45390,1,4,0:0:0:0:
182,192,45481,1,0,0:0:0:0:
329,192,45572,1,0,0:0:0:0:
182,192,45663,1,0,0:0:0:0:
402,192,45754,1,0,0:0:0:0:
256,192,45754,1,2,0:0:0:0:
36,192,45754,1,0,0:0:0:0:
109,192,45845,1,0,0:0:0:0:
475,192,45936,1,0,0:0:0:0:
329,192,46027,1,0,0:0:0:0:
256,192,46118,1,2,0:0:0:0:
182,192,46118,1,0,0:0:0:0:
402,192,46118,1,0,0:0:0:0:
36,192,46209,1,0,0:0:0:0:
329,192,46299,1,0,0:0:0:0:
475,192,46299,1,0,0:0:0:0:
109,192,46299,1,0,0:0:0:0:
256,192,46299,128,4,47299:0:0:0:0:
256,192,47390,1,4,0:0:0:0:
36,192,47754,1,0,0:0:0:0:
182,192,47754,1,0,0:0:0:0:
329,192,47754,1,0,0:0:0:0:
402,192,47845,1,0,0:0:0:0:
109,192,47936,1,0,0:0:0:0:
329,192,47936,1,0,0:0:0:0:
475,192,48027,1,0,0:0:0:0:
36,192,48118,1,0,0:0:0:0:
182,192,48118,1,0,0:0:0:0:
329,192,48209,1,0,0:0:0:0:
109,192,48299,1,0,0:0:0:0:
402,192,48390,1,0,0:0:0:0:
36,192,48481,1,0,0:0:0:0:
182,192,48481,1,0,0:0:0:0:
475,192,48572,1,0,0:0:0:0:
402,192,48602,1,0,0:0:0:0:
329,192,48633,1,0,0:0:0:0:
109,192,48663,1,0,0:0:0:0:
182,192,48663,128,0,49027:0:0:0:0:
36,192,48845,1,0,0:0:0:0:
109,192,49027,1,0,0:0:0:0:
329,192,49027,1,0,0:0:0:0:
475,192,49118,1,0,0:0:0:0:
36,192,49209,1,0,0:0:0:0:
329,192,49209,1,0,0:0:0:0:
402,192,49299,1,0,0:0:0:0:
109,192,49390,1,0,0:0:0:0:
182,192,49390,1,0,0:0:0:0:
475,192,49481,1,0,0:0:0:0:
36,192,49572,1,0,0:0:0:0:
329,192,49572,1,0,0:0:0:0:
475,192,49663,1,0,0:0:0:0:
109,192,49754,1,0,0:0:0:0:
402,192,49754,1,0,0:0:0:0:
182,192,49845,1,0,0:0:0:0:
36,192,49936,1,0,0:0:0:0:
475,192,49936,1,0,0:0:0:0:
182,192,50027,1,0,0:0:0:0:
329,192,50057,1,0,0:0:0:0:
402,192,50087,1,0,0:0:0:0:
109,192,50118,1,0,0:0:0:0:
475,192,50118,128,0,50481:0:0:0:0:
36,192,50299,1,0,0:0:0:0:
109,192,50481,1,0,0:0:0:0:
329,192,50481,1,0,0:0:0:0:
402,192,50572,1,0,0:0:0:0:
36,192,50663,1,0,0:0:0:0:
182,192,50663,1,0,0:0:0:0:
475,192,50754,1,0,0:0:0:0:
109,192,50845,1,0,0:0:0:0:
329,192,50845,1,0,0:0:0:0:
402,192,50936,1,0,0:0:0:0:
36,192,51027,1,0,0:0:0:0:
182,192,51027,1,0,0:0:0:0:
329,192,51118,1,0,0:0:0:0:
109,192,51209,1,0,0:0:0:0:
475,192,51209,1,0,0:0:0:0:
182,192,51299,1,0,0:0:0:0:
36,192,51390,1,0,0:0:0:0:
402,192,51390,1,0,0:0:0:0:
182,192,51481,1,0,0:0:0:0:
109,192,51572,1,0,0:0:0:0:
475,192,51572,1,0,0:0:0:0:
329,192,51663,1,0,0:0:0:0:
36,192,51754,1,0,0:0:0:0:
402,192,51754,1,0,0:0:0:0:
182,192,51845,1,0,0:0:0:0:
109,192,51936,1,0,0:0:0:0:
402,192,51936,1,0,0:0:0:0:
329,192,52027,1,0,0:0:0:0:
36,192,52118,1,0,0:0:0:0:
475,192,52118,1,0,0:0:0:0:
182,192,52209,1,0,0:0:0:0:
402,192,52299,1,0,0:0:0:0:
109,192,52299,1,0,0:0:0:0:
182,192,52390,1,0,0:0:0:0:
329,192,52481,1,0,0:0:0:0:
36,192,52481,1,0,0:0:0:0:
182,192,52572,1,0,0:0:0:0:
402,192,52663,1,0,0:0:0:0:
36,192,52663,1,0,0:0:0:0:
109,192,52663,1,0,0:0:0:0:
36,192,53027,1,0,0:0:0:0:
256,192,53027,1,2,0:0:0:0:
402,192,53027,1,0,0:0:0:0:
36,192,53118,1,0,0:0:0:0:
256,192,53118,1,2,0:0:0:0:
402,192,53118,1,0,0:0:0:0:
36,192,53209,1,0,0:0:0:0:
256,192,53209,1,4,0:0:0:0:
475,192,53209,128,0,53390:0:0:0:0:
109,192,53390,1,0,0:0:0:0:
329,192,53390,1,0,0:0:0:0:
182,192,53481,1,0,0:0:0:0:
36,192,53572,1,0,0:0:0:0:
475,192,53572,1,0,0:0:0:0:
329,192,53663,1,0,0:0:0:0:
109,192,53754,1,0,0:0:0:0:
475,192,53754,1,0,0:0:0:0:
182,192,53845,1,0,0:0:0:0:
36,192,53936,1,0,0:0:0:0:
402,192,53936,1,0,0:0:0:0:
475,192,54027,1,0,0:0:0:0:
109,192,54118,1,0,0:0:0:0:
329,192,54118,1,0,0:0:0:0:
475,192,54209,1,0,0:0:0:0:
36,192,54299,1,0,0:0:0:0:
182,192,54299,1,0,0:0:0:0:
475,192,54390,1,0,0:0:0:0:
109,192,54481,1,0,0:0:0:0:
329,192,54481,1,0,0:0:0:0:
402,192,54572,1,0,0:0:0:0:
36,192,54663,1,0,0:0:0:0:
329,192,54663,1,0,0:0:0:0:
475,192,54754,1,0,0:0:0:0:
109,192,54845,1,0,0:0:0:0:
182,192,54845,1,0,0:0:0:0:
402,192,54936,1,0,0:0:0:0:
36,192,55027,1,0,0:0:0:0:
182,192,55027,1,0,0:0:0:0:
475,192,55118,1,0,0:0:0:0:
109,192,55209,1,0,0:0:0:0:
329,192,55209,1,0,0:0:0:0:
402,192,55299,1,0,0:0:0:0:
36,192,55390,1,0,0:0:0:0:
182,192,55390,1,0,0:0:0:0:
329,192,55481,1,0,0:0:0:0:
109,192,55572,1,0,0:0:0:0:
475,192,55572,1,0,0:0:0:0:
182,192,55663,1,0,0:0:0:0:
402,192,55754,1,0,0:0:0:0:
36,192,55754,1,0,0:0:0:0:
182,192,55845,1,0,0:0:0:0:
109,192,55936,1,0,0:0:0:0:
475,192,55936,1,0,0:0:0:0:
329,192,56027,1,0,0:0:0:0:
36,192,56118,1,0,0:0:0:0:
475,192,56118,1,0,0:0:0:0:
182,192,56209,1,0,0:0:0:0:
109,192,56299,1,0,0:0:0:0:
402,192,56299,1,0,0:0:0:0:
182,192,56390,1,0,0:0:0:0:
36,192,56481,1,0,0:0:0:0:
475,192,56481,1,0,0:0:0:0:
256,192,56481,1,4,0:0:0:0:
256,192,56845,1,4,0:0:0:0:
256,192,57027,1,4,0:0:0:0:
36,192,57027,1,0,0:0:0:0:
475,192,57027,1,0,0:0:0:0:
475,192,57390,1,0,0:0:0:0:
36,192,57390,1,0,0:0:0:0:
256,192,57390,1,4,0:0:0:0:
36,192,57572,1,0,0:0:0:0:
256,192,57572,1,4,0:0:0:0:
475,192,57572,1,0,0:0:0:0:
109,192,58118,1,0,0:0:0:0:
256,192,58118,1,4,0:0:0:0:
402,192,58118,1,0,0:0:0:0:
109,192,58299,1,0,0:0:0:0:
256,192,58299,1,4,0:0:0:0:
402,192,58299,1,0,0:0:0:0:
109,192,58481,1,0,0:0:0:0:
402,192,58481,1,0,0:0:0:0:
256,192,58481,128,4,58754:0:0:0:0:
256,192,58845,1,4,0:0:0:0:
402,192,58845,1,0,0:0:0:0:
109,192,58936,1,0,0:0:0:0:
256,192,59027,128,4,59390:0:0:0:0:
475,192,59027,1,0,0:0:0:0:
329,192,59118,1,0,0:0:0:0:
182,192,59209,1,0,0:0:0:0:
109,192,59299,1,0,0:0:0:0:
182,192,59390,1,0,0:0:0:0:
36,192,59390,1,0,0:0:0:0:
329,192,59390,1,0,0:0:0:0:
402,192,59481,1,0,0:0:0:0:
329,192,59572,1,0,0:0:0:0:
109,192,59572,1,0,0:0:0:0:
475,192,59663,1,0,0:0:0:0:
182,192,59754,1,0,0:0:0:0:
36,192,59754,1,0,0:0:0:0:
329,192,59845,1,0,0:0:0:0:
109,192,59936,1,0,0:0:0:0:
402,192,60027,1,0,0:0:0:0:
36,192,60118,1,0,0:0:0:0:
182,192,60118,1,0,0:0:0:0:
475,192,60209,1,0,0:0:0:0:
402,192,60239,1,0,0:0:0:0:
329,192,60269,1,0,0:0:0:0:
109,192,60299,1,0,0:0:0:0:
182,192,60299,128,0,60663:0:0:0:0:
36,192,60481,1,0,0:0:0:0:
329,192,60663,1,0,0:0:0:0:
109,192,60663,1,0,0:0:0:0:
475,192,60754,1,0,0:0:0:0:
329,192,60845,1,0,0:0:0:0:
36,192,60845,1,0,0:0:0:0:
402,192,60936,1,0,0:0:0:0:
109,192,61027,1,0,0:0:0:0:
182,192,61027,1,0,0:0:0:0:
475,192,61118,1,0,0:0:0:0:
36,192,61209,1,0,0:0:0:0:
329,192,61209,1,0,0:0:0:0:
475,192,61299,1,0,0:0:0:0:
402,192,61390,1,0,0:0:0:0:
109,192,61390,1,0,0:0:0:0:
182,192,61481,1,0,0:0:0:0:
36,192,61572,1,0,0:0:0:0:
475,192,61572,1,0,0:0:0:0:
182,192,61663,1,0,0:0:0:0:
329,192,61693,1,0,0:0:0:0:
402,192,61724,1,0,0:0:0:0:
475,192,61754,128,0,62118:0:0:0:0:
109,192,61754,1,0,0:0:0:0:
36,192,61936,1,0,0:0:0:0:
109,192,62118,1,0,0:0:0:0:
329,192,62118,1,0,0:0:0:0:
402,192,62209,1,0,0:0:0:0:
36,192,62299,1,0,0:0:0:0:
182,192,62299,1,0,0:0:0:0:
475,192,62390,1,0,0:0:0:0:
109,192,62481,1,0,0:0:0:0:
329,192,62481,1,0,0:0:0:0:
402,192,62572,1,0,0:0:0:0:
36,192,62663,1,0,0:0:0:0:
182,192,62663,1,0,0:0:0:0:
475,192,62754,1,0,0:0:0:0:
109,192,62845,1,0,0:0:0:0:
329,192,62845,1,0,0:0:0:0:
182,192,62936,1,0,0:0:0:0:
36,192,63027,1,0,0:0:0:0:
402,192,63027,1,0,0:0:0:0:
182,192,63118,1,0,0:0:0:0:
109,192,63209,1,0,0:0:0:0:
475,192,63209,1,0,0:0:0:0:
329,192,63299,1,0,0:0:0:0:
36,192,63390,1,0,0:0:0:0:
475,192,63390,1,0,0:0:0:0:
182,192,63481,1,0,0:0:0:0:
109,192,63572,1,0,0:0:0:0:
402,192,63572,1,0,0:0:0:0:
329,192,63663,1,0,0:0:0:0:
36,192,63754,1,0,0:0:0:0:
182,192,63754,1,0,0:0:0:0:
329,192,63845,1,0,0:0:0:0:
109,192,63936,1,0,0:0:0:0:
402,192,63936,1,0,0:0:0:0:
475,192,64027,1,0,0:0:0:0:
36,192,64118,1,0,0:0:0:0:
402,192,64118,1,0,0:0:0:0:
329,192,64209,1,0,0:0:0:0:
109,192,64299,1,0,0:0:0:0:
182,192,64299,1,0,0:0:0:0:
329,192,64390,1,0,0:0:0:0:
36,192,64481,1,0,0:0:0:0:
402,192,64481,1,0,0:0:0:0:
329,192,64572,1,0,0:0:0:0:
182,192,64663,1,0,0:0:0:0:
36,192,64754,1,0,0:0:0:0:
329,192,64754,1,0,0:0:0:0:
36,192,64845,1,0,0:0:0:0:
402,192,64845,128,0,65209:0:0:0:0:
36,192,65027,1,0,0:0:0:0:
256,192,65209,1,4,0:0:0:0:
36,192,65209,1,0,0:0:0:0:
109,192,65390,1,0,0:0:0:0:
402,192,65390,1,0,0:0:0:0:
36,192,65572,1,0,0:0:0:0:
329,192,65572,1,0,0:0:0:0:
256,192,65754,1,4,0:0:0:0:
109,192,65754,1,0,0:0:0:0:
475,192,65754,1,0,0:0:0:0:
36,192,65936,1,0,0:0:0:0:
329,192,65936,1,0,0:0:0:0:
256,192,66118,1,4,0:0:0:0:
109,192,66118,1,0,0:0:0:0:
475,192,66118,1,0,0:0:0:0:
329,192,66209,1,0,0:0:0:0:
182,192,66299,1,0,0:0:0:0:
36,192,66299,1,0,0:0:0:0:
402,192,66390,1,0,0:0:0:0:
182,192,66481,1,0,0:0:0:0:
402,192,66572,1,0,0:0:0:0:
109,192,66572,1,0,0:0:0:0:
256,192,66572,128,4,68118:0:0:0:0:
36,192,66663,1,0,0:0:0:0:
36,192,66845,1,0,0:0:0:0:
475,192,67027,1,0,0:0:0:0:
109,192,67209,1,0,0:0:0:0:
402,192,67299,1,0,0:0:0:0:
109,192,67390,1,0,0:0:0:0:
402,192,67481,1,0,0:0:0:0:
109,192,67572,1,0,0:0:0:0:
475,192,67754,1,0,0:0:0:0:
329,192,67845,1,0,0:0:0:0:
182,192,67936,1,0,0:0:0:0:
109,192,68027,1,0,0:0:0:0:
329,192,68118,1,0,0:0:0:0:
182,192,68118,1,0,0:0:0:0:
36,192,68118,1,0,0:0:0:0:
402,192,68299,1,0,0:0:0:0:
182,192,68390,1,0,0:0:0:0:
402,192,68481,1,0,0:0:0:0:
182,192,68572,1,0,0:0:0:0:
402,192,68663,1,0,0:0:0:0:
182,192,68754,1,0,0:0:0:0:
329,192,68845,1,0,0:0:0:0:
475,192,68936,1,0,0:0:0:0:
329,192,69027,1,0,0:0:0:0:
36,192,69027,1,0,0:0:0:0:
475,192,69118,1,0,0:0:0:0:
182,192,69299,1,0,0:0:0:0:
329,192,69390,1,0,0:0:0:0:
329,192,69572,1,0,0:0:0:0:
36,192,69572,1,0,0:0:0:0:
182,192,69663,1,0,0:0:0:0:
329,192,69754,1,0,0:0:0:0:
36,192,69754,1,0,0:0:0:0:
402,192,69845,1,0,0:0:0:0:
475,192,69936,1,0,0:0:0:0:
329,192,70118,1,0,0:0:0:0:
36,192,70118,1,0,0:0:0:0:
182,192,70209,1,0,0:0:0:0:
329,192,70299,1,0,0:0:0:0:
402,192,70390,1,0,0:0:0:0:
36,192,70390,1,0,0:0:0:0:
475,192,70481,1,0,0:0:0:0:
36,192,70481,1,0,0:0:0:0:
402,192,70663,1,0,0:0:0:0:
329,192,70754,1,0,0:0:0:0:
182,192,70845,1,0,0:0:0:0:
329,192,70936,1,0,0:0:0:0:
402,192,71027,1,0,0:0:0:0:
109,192,71027,1,0,0:0:0:0:
256,192,71027,1,4,0:0:0:0:
36,192,71027,1,0,0:0:0:0:
182,192,71209,1,0,0:0:0:0:
402,192,71299,1,0,0:0:0:0:
109,192,71390,1,0,0:0:0:0:
329,192,71481,1,0,0:0:0:0:
109,192,71572,1,0,0:0:0:0:
329,192,71663,1,0,0:0:0:0:
402,192,71754,1,0,0:0:0:0:
182,192,71845,1,0,0:0:0:0:
36,192,71936,1,0,0:0:0:0:
402,192,71936,1,0,0:0:0:0:
182,192,72027,1,0,0:0:0:0:
329,192,72209,1,0,0:0:0:0:
475,192,72299,1,0,0:0:0:0:
36,192,72481,1,0,0:0:0:0:
402,192,72481,1,0,0:0:0:0:
256,192,72481,128,2,73572:0:0:0:0:
329,192,72572,1,0,0:0:0:0:
182,192,72663,1,0,0:0:0:0:
36,192,72663,1,0,0:0:0:0:
109,192,72754,1,0,0:0:0:0:
475,192,72845,1,0,0:0:0:0:
402,192,72936,1,0,0:0:0:0:
36,192,73027,1,0,0:0:0:0:
329,192,73027,1,0,0:0:0:0:
182,192,73118,1,0,0:0:0:0:
109,192,73209,1,0,0:0:0:0:
182,192,73299,1,0,0:0:0:0:
36,192,73390,1,0,0:0:0:0:
329,192,73390,1,0,0:0:0:0:
36,192,73481,1,0,0:0:0:0:
475,192,73481,1,0,0:0:0:0:
109,192,73572,1,0,0:0:0:0:
402,192,73618,1,0,0:0:0:0:
109,192,73663,1,0,0:0:0:0:
402,192,73709,1,0,0:0:0:0:
109,192,73754,1,0,0:0:0:0:
402,192,73799,1,0,0:0:0:0:
109,192,73845,1,0,0:0:0:0:
402,192,73890,1,0,0:0:0:0:
109,192,73936,1,0,0:0:0:0:
36,192,73936,1,0,0:0:0:0:
329,192,73936,1,0,0:0:0:0:
402,192,74027,1,0,0:0:0:0:
109,192,74118,1,0,0:0:0:0:
475,192,74118,1,0,0:0:0:0:
402,192,74209,1,0,0:0:0:0:
36,192,74299,1,0,0:0:0:0:
329,192,74299,1,0,0:0:0:0:
182,192,74390,1,0,0:0:0:0:
109,192,74481,1,0,0:0:0:0:
402,192,74481,1,0,0:0:0:0:
329,192,74572,1,0,0:0:0:0:
36,192,74663,1,0,0:0:0:0:
475,192,74663,1,0,0:0:0:0:
402,192,74754,1,0,0:0:0:0:
109,192,74845,1,0,0:0:0:0:
329,192,74845,1,0,0:0:0:0:
182,192,74936,1,0,0:0:0:0:
36,192,75027,1,0,0:0:0:0:
402,192,75027,1,0,0:0:0:0:
329,192,75118,1,0,0:0:0:0:
109,192,75209,1,0,0:0:0:0:
182,192,75209,1,0,0:0:0:0:
329,192,75299,1,0,0:0:0:0:
36,192,75390,1,0,0:0:0:0:
402,192,75390,1,0,0:0:0:0:
182,192,75481,1,0,0:0:0:0:
109,192,75572,1,0,0:0:0:0:
329,192,75572,1,0,0:0:0:0:
402,192,75663,1,0,0:0:0:0:
36,192,75754,1,0,0:0:0:0:
329,192,75754,1,0,0:0:0:0:
402,192,75845,1,0,0:0:0:0:
109,192,75936,1,0,0:0:0:0:
182,192,75936,1,0,0:0:0:0:
402,192,76027,1,0,0:0:0:0:
36,192,76118,1,0,0:0:0:0:
329,192,76118,1,0,0:0:0:0:
475,192,76118,1,0,0:0:0:0:
329,192,76209,1,0,0:0:0:0:
475,192,76209,1,0,0:0:0:0:
109,192,76299,1,0,0:0:0:0:
402,192,76299,1,0,0:0:0:0:
182,192,76299,1,0,0:0:0:0:
182,192,76390,1,0,0:0:0:0:
402,192,76390,1,0,0:0:0:0:
36,192,76481,1,0,0:0:0:0:
182,192,76572,1,0,0:0:0:0:
402,192,76572,1,0,0:0:0:0:
109,192,76663,1,0,0:0:0:0:
402,192,76663,1,0,0:0:0:0:
182,192,76663,1,0,0:0:0:0:
36,192,76663,1,0,0:0:0:0:
36,192,76845,1,0,0:0:0:0:
256,192,76845,1,4,0:0:0:0:
402,192,76845,1,0,0:0:0:0:
182,192,76936,1,0,0:0:0:0:
109,192,77027,1,0,0:0:0:0:
329,192,77027,1,0,0:0:0:0:
182,192,77118,1,0,0:0:0:0:
36,192,77209,1,0,0:0:0:0:
402,192,77209,1,0,0:0:0:0:
182,192,77299,1,0,0:0:0:0:
109,192,77390,1,0,0:0:0:0:
475,192,77390,1,0,0:0:0:0:
182,192,77481,1,0,0:0:0:0:
256,192,77572,1,4,0:0:0:0:
36,192,77572,1,0,0:0:0:0:
402,192,77572,1,0,0:0:0:0:
182,192,77663,1,0,0:0:0:0:
109,192,77754,1,0,0:0:0:0:
329,192,77754,1,0,0:0:0:0:
182,192,77845,1,0,0:0:0:0:
36,192,77936,1,0,0:0:0:0:
475,192,77936,1,0,0:0:0:0:
182,192,78027,1,0,0:0:0:0:
109,192,78118,1,0,0:0:0:0:
402,192,78118,128,0,78299:0:0:0:0:
182,192,78209,1,0,0:0:0:0:
256,192,78299,1,4,0:0:0:0:
36,192,78299,1,0,0:0:0:0:
475,192,78299,1,0,0:0:0:0:
329,192,78390,1,0,0:0:0:0:
109,192,78481,1,0,0:0:0:0:
182,192,78481,1,0,0:0:0:0:
402,192,78572,1,0,0:0:0:0:
36,192,78663,1,0,0:0:0:0:
329,192,78663,1,0,0:0:0:0:
256,192,78663,1,4,0:0:0:0:
182,192,78754,1,0,0:0:0:0:
109,192,78845,1,0,0:0:0:0:
329,192,78845,1,0,0:0:0:0:
402,192,78936,1,0,0:0:0:0:
36,192,79027,1,0,0:0:0:0:
475,192,79027,1,0,0:0:0:0:
256,192,79027,1,4,0:0:0:0:
402,192,79118,1,0,0:0:0:0:
109,192,79209,1,0,0:0:0:0:
329,192,79209,1,0,0:0:0:0:
256,192,79209,1,4,0:0:0:0:
36,192,79209,1,0,0:0:0:0:
182,192,79299,1,0,0:0:0:0:
36,192,79390,1,0,0:0:0:0:
475,192,79390,1,0,0:0:0:0:
402,192,79481,1,0,0:0:0:0:
109,192,79572,1,0,0:0:0:0:
329,192,79572,1,0,0:0:0:0:
36,192,79572,1,0,0:0:0:0:
256,192,79572,1,4,0:0:0:0:
182,192,79663,1,0,0:0:0:0:
329,192,79754,1,0,0:0:0:0:
36,192,79754,128,0,81936:0:0:0:0:
475,192,79754,128,0,81936:0:0:0:0:
256,192,79754,1,4,0:0:0:0:
182,192,79936,1,0,0:0:0:0:
329,192,80118,1,0,0:0:0:0:
182,192,80299,1,0,0:0:0:0:
329,192,80481,1,0,0:0:0:0:
182,192,80663,1,0,0:0:0:0:
329,192,80845,1,0,0:0:0:0:
182,192,81027,1,0,0:0:0:0:
329,192,81209,1,0,0:0:0:0:
182,192,81390,1,0,0:0:0:0:
329,192,81572,1,0,0:0:0:0:
182,192,81754,1,0,0:0:0:0:
256,192,81936,128,0,82663:0:0:0:0:
329,192,81936,1,0,0:0:0:0:
36,192,82663,1,0,0:0:0:0:
109,192,82845,1,0,0:0:0:0:
182,192,83027,1,0,0:0:0:0:
329,192,83209,1,0,0:0:0:0:
402,192,83390,1,0,0:0:0:0:
475,192,83572,1,0,0:0:0:0:
109,192,84118,1,0,0:0:0:0:
182,192,84299,1,0,0:0:0:0:
329,192,84481,1,0,0:0:0:0:
475,192,84663,1,0,0:0:0:0:
329,192,84845,1,0,0:0:0:0:
109,192,85027,1,0,0:0:0:0:
402,192,85572,1,0,0:0:0:0:
329,192,85754,1,0,0:0:0:0:
109,192,85936,1,0,0:0:0:0:
182,192,86118,1,0,0:0:0:0:
329,192,86299,1,0,0:0:0:0:
475,192,86481,1,0,0:0:0:0:
36,192,87027,128,0,87572:0:0:0:0:
329,192,87027,1,0,0:0:0:0:
256,192,87027,1,4,0:0:0:0:
182,192,87118,1,0,0:0:0:0:
329,192,87209,1,0,0:0:0:0:
402,192,87299,1,0,0:0:0:0:
475,192,87390,1,0,0:0:0:0:
402,192,87481,1,0,0:0:0:0:
109,192,87572,1,0,0:0:0:0:
329,192,87572,1,0,0:0:0:0:
36,192,87663,1,0,0:0:0:0:
182,192,87663,1,0,0:0:0:0:
109,192,87754,1,0,0:0:0:0:
329,192,87754,1,0,0:0:0:0:
36,192,87845,1,0,0:0:0:0:
182,192,87845,1,0,0:0:0:0:
109,192,87936,1,0,0:0:0:0:
329,192,87936,1,0,0:0:0:0:
36,192,88027,1,0,0:0:0:0:
402,192,88027,1,0,0:0:0:0:
109,192,88118,1,0,0:0:0:0:
475,192,88118,1,0,0:0:0:0:
182,192,88209,1,0,0:0:0:0:
329,192,88299,1,0,0:0:0:0:
402,192,88390,1,0,0:0:0:0:
36,192,88481,1,0,0:0:0:0:
475,192,88481,1,0,0:0:0:0:
329,192,88572,1,0,0:0:0:0:
109,192,88663,1,0,0:0:0:0:
475,192,88663,1,0,0:0:0:0:
182,192,88754,1,0,0:0:0:0:
36,192,88845,1,0,0:0:0:0:
402,192,88845,1,0,0:0:0:0:
475,192,88936,1,0,0:0:0:0:
329,192,89027,1,0,0:0:0:0:
109,192,89027,1,0,0:0:0:0:
475,192,89118,1,0,0:0:0:0:
36,192,89209,1,0,0:0:0:0:
182,192,89209,1,0,0:0:0:0:
475,192,89299,1,0,0:0:0:0:
109,192,89390,1,0,0:0:0:0:
329,192,89390,1,0,0:0:0:0:
402,192,89481,1,0,0:0:0:0:
329,192,89572,1,0,0:0:0:0:
36,192,89572,1,0,0:0:0:0:
475,192,89663,1,0,0:0:0:0:
182,192,89754,1,0,0:0:0:0:
109,192,89754,1,0,0:0:0:0:
402,192,89845,1,0,0:0:0:0:
36,192,89936,1,0,0:0:0:0:
182,192,89936,1,0,0:0:0:0:
475,192,90027,1,0,0:0:0:0:
329,192,90118,1,0,0:0:0:0:
109,192,90118,1,0,0:0:0:0:
402,192,90209,1,0,0:0:0:0:
182,192,90299,1,0,0:0:0:0:
36,192,90299,1,0,0:0:0:0:
329,192,90390,1,0,0:0:0:0:
109,192,90481,1,0,0:0:0:0:
475,192,90481,1,0,0:0:0:0:
182,192,90572,1,0,0:0:0:0:
402,192,90663,1,0,0:0:0:0:
36,192,90663,1,0,0:0:0:0:
182,192,90754,1,0,0:0:0:0:
109,192,90845,1,0,0:0:0:0:
475,192,90845,1,0,0:0:0:0:
329,192,90936,1,0,0:0:0:0:
475,192,91027,1,0,0:0:0:0:
36,192,91027,1,0,0:0:0:0:
182,192,91118,1,0,0:0:0:0:
402,192,91209,1,0,0:0:0:0:
109,192,91209,1,0,0:0:0:0:
182,192,91299,1,0,0:0:0:0:
475,192,91390,1,0,0:0:0:0:
36,192,91390,1,0,0:0:0:0:
256,192,91390,1,4,0:0:0:0:
109,192,91481,1,0,0:0:0:0:
402,192,91572,1,0,0:0:0:0:
109,192,91663,1,0,0:0:0:0:
256,192,91754,1,4,0:0:0:0:
402,192,91754,1,0,0:0:0:0:
109,192,91845,1,0,0:0:0:0:
36,192,91936,1,0,0:0:0:0:
256,192,91936,1,4,0:0:0:0:
475,192,91936,1,0,0:0:0:0:
402,192,91936,1,0,0:0:0:0:
109,192,92027,1,0,0:0:0:0:
402,192,92118,1,0,0:0:0:0:
109,192,92209,1,0,0:0:0:0:
36,192,92299,1,0,0:0:0:0:
475,192,92299,1,0,0:0:0:0:
256,192,92299,1,4,0:0:0:0:
402,192,92299,1,0,0:0:0:0:
109,192,92390,1,0,0:0:0:0:
256,192,92481,1,4,0:0:0:0:
475,192,92481,1,0,0:0:0:0:
36,192,92481,1,0,0:0:0:0:
402,192,92481,1,0,0:0:0:0:
109,192,92572,1,0,0:0:0:0:
402,192,92663,1,0,0:0:0:0:
109,192,92754,1,0,0:0:0:0:
402,192,92845,1,0,0:0:0:0:
109,192,93027,1,0,0:0:0:0:
256,192,93027,1,4,0:0:0:0:
402,192,93027,1,0,0:0:0:0:
256,192,93209,1,4,0:0:0:0:
402,192,93209,1,0,0:0:0:0:
109,192,93209,1,0,0:0:0:0:
256,192,93390,128,4,93663:0:0:0:0:
109,192,93390,1,0,0:0:0:0:
402,192,93390,1,0,0:0:0:0:
256,192,93754,1,2,0:0:0:0:
402,192,93754,1,0,0:0:0:0:
109,192,93845,1,0,0:0:0:0:
256,192,93936,128,4,94299:0:0:0:0:
475,192,93936,1,0,0:0:0:0:
329,192,94027,1,0,0:0:0:0:
182,192,94118,1,0,0:0:0:0:
109,192,94209,1,0,0:0:0:0:
329,192,94299,1,0,0:0:0:0:
182,192,94299,1,0,0:0:0:0:
36,192,94299,1,0,0:0:0:0:
402,192,94390,1,0,0:0:0:0:
329,192,94481,1,0,0:0:0:0:
109,192,94481,1,0,0:0:0:0:
475,192,94572,1,0,0:0:0:0:
182,192,94663,1,0,0:0:0:0:
36,192,94663,1,0,0:0:0:0:
329,192,94754,1,0,0:0:0:0:
109,192,94845,1,0,0:0:0:0:
402,192,94936,1,0,0:0:0:0:
36,192,95027,1,0,0:0:0:0:
182,192,95027,1,0,0:0:0:0:
475,192,95118,1,0,0:0:0:0:
402,192,95148,1,0,0:0:0:0:
329,192,95178,1,0,0:0:0:0:
109,192,95209,1,0,0:0:0:0:
182,192,95209,128,0,95572:0:0:0:0:
36,192,95390,1,0,0:0:0:0:
329,192,95572,1,0,0:0:0:0:
109,192,95572,1,0,0:0:0:0:
475,192,95663,1,0,0:0:0:0:
329,192,95754,1,0,0:0:0:0:
36,192,95754,1,0,0:0:0:0:
402,192,95845,1,0,0:0:0:0:
109,192,95936,1,0,0:0:0:0:
182,192,95936,1,0,0:0:0:0:
475,192,96027,1,0,0:0:0:0:
36,192,96118,1,0,0:0:0:0:
329,192,96118,1,0,0:0:0:0:
475,192,96209,1,0,0:0:0:0:
402,192,96299,1,0,0:0:0:0:
109,192,96299,1,0,0:0:0:0:
182,192,96390,1,0,0:0:0:0:
475,192,96481,1,0,0:0:0:0:
36,192,96481,1,0,0:0:0:0:
182,192,96572,1,0,0:0:0:0:
329,192,96602,1,0,0:0:0:0:
402,192,96633,1,0,0:0:0:0:
109,192,96663,1,0,0:0:0:0:
475,192,96663,128,0,97027:0:0:0:0:
36,192,96845,1,0,0:0:0:0:
109,192,97027,1,0,0:0:0:0:
329,192,97027,1,0,0:0:0:0:
402,192,97118,1,0,0:0:0:0:
36,192,97209,1,0,0:0:0:0:
182,192,97209,1,0,0:0:0:0:
475,192,97299,1,0,0:0:0:0:
109,192,97390,1,0,0:0:0:0:
329,192,97390,1,0,0:0:0:0:
402,192,97481,1,0,0:0:0:0:
182,192,97572,1,0,0:0:0:0:
36,192,97572,1,0,0:0:0:0:
475,192,97663,1,0,0:0:0:0:
329,192,97754,1,0,0:0:0:0:
109,192,97754,1,0,0:0:0:0:
182,192,97845,1,0,0:0:0:0:
36,192,97936,1,0,0:0:0:0:
402,192,97936,1,0,0:0:0:0:
182,192,98027,1,0,0:0:0:0:
475,192,98118,1,0,0:0:0:0:
109,192,98118,1,0,0:0:0:0:
329,192,98209,1,0,0:0:0:0:
36,192,98299,1,0,0:0:0:0:
475,192,98299,1,0,0:0:0:0:
182,192,98390,1,0,0:0:0:0:
109,192,98481,1,0,0:0:0:0:
402,192,98481,1,0,0:0:0:0:
329,192,98572,1,0,0:0:0:0:
182,192,98663,1,0,0:0:0:0:
36,192,98663,1,0,0:0:0:0:
329,192,98754,1,0,0:0:0:0:
109,192,98845,1,0,0:0:0:0:
402,192,98845,1,0,0:0:0:0:
475,192,98936,1,0,0:0:0:0:
402,192,99027,1,0,0:0:0:0:
36,192,99027,1,0,0:0:0:0:
329,192,99118,1,0,0:0:0:0:
109,192,99209,1,0,0:0:0:0:
182,192,99209,1,0,0:0:0:0:
329,192,99299,1,0,0:0:0:0:
402,192,99390,1,0,0:0:0:0:
36,192,99390,1,0,0:0:0:0:
329,192,99481,1,0,0:0:0:0:
182,192,99572,1,0,0:0:0:0:
329,192,99663,1,0,0:0:0:0:
36,192,99663,1,0,0:0:0:0:
36,192,99754,1,0,0:0:0:0:
402,192,99754,128,0,100118:0:0:0:0:
36,192,99936,1,0,0:0:0:0:
256,192,100118,1,4,0:0:0:0:
36,192,100118,1,0,0:0:0:0:
109,192,100299,1,0,0:0:0:0:
402,192,100299,1,0,0:0:0:0:
36,192,100481,1,0,0:0:0:0:
329,192,100481,1,0,0:0:0:0:
475,192,100663,1,0,0:0:0:0:
256,192,100663,1,2,0:0:0:0:
109,192,100663,1,0,0:0:0:0:
36,192,100845,1,0,0:0:0:0:
329,192,100845,1,0,0:0:0:0:
109,192,101027,1,0,0:0:0:0:
475,192,101027,1,0,0:0:0:0:
256,192,101027,1,2,0:0:0:0:
402,192,101072,1,0,0:0:0:0:
329,192,101118,1,0,0:0:0:0:
182,192,101163,1,0,0:0:0:0:
36,192,101209,1,0,0:0:0:0:
402,192,101299,1,0,0:0:0:0:
182,192,101390,1,0,0:0:0:0:
256,192,101481,128,4,103027:0:0:0:0:
109,192,101481,1,0,0:0:0:0:
402,192,101481,1,0,0:0:0:0:
36,192,101572,1,0,0:0:0:0:
36,192,101754,1,0,0:0:0:0:
475,192,101936,1,0,0:0:0:0:
109,192,102118,1,0,0:0:0:0:
402,192,102209,1,0,0:0:0:0:
109,192,102299,1,0,0:0:0:0:
402,192,102390,1,0,0:0:0:0:
109,192,102481,1,0,0:0:0:0:
475,192,102663,1,0,0:0:0:0:
329,192,102754,1,0,0:0:0:0:
182,192,102845,1,0,0:0:0:0:
109,192,102936,1,0,0:0:0:0:
182,192,103027,1,0,0:0:0:0:
36,192,103027,1,0,0:0:0:0:
329,192,103027,1,0,0:0:0:0:
402,192,103209,1,0,0:0:0:0:
109,192,103209,1,0,0:0:0:0:
182,192,103299,1,0,0:0:0:0:
402,192,103390,1,0,0:0:0:0:
36,192,103390,1,0,0:0:0:0:
182,192,103481,1,0,0:0:0:0:
402,192,103572,1,0,0:0:0:0:
109,192,103572,1,0,0:0:0:0:
182,192,103663,1,0,0:0:0:0:
329,192,103754,1,0,0:0:0:0:
36,192,103754,1,0,0:0:0:0:
475,192,103845,1,0,0:0:0:0:
329,192,103936,1,0,0:0:0:0:
109,192,103936,1,0,0:0:0:0:
475,192,104027,1,0,0:0:0:0:
36,192,104118,1,0,0:0:0:0:
182,192,104209,1,0,0:0:0:0:
329,192,104299,1,0,0:0:0:0:
109,192,104299,1,0,0:0:0:0:
36,192,104481,1,0,0:0:0:0:
329,192,104481,1,0,0:0:0:0:
182,192,104572,1,0,0:0:0:0:
329,192,104663,1,0,0:0:0:0:
109,192,104663,1,0,0:0:0:0:
402,192,104754,1,0,0:0:0:0:
475,192,104845,1,0,0:0:0:0:
36,192,104845,1,0,0:0:0:0:
329,192,105027,1,0,0:0:0:0:
109,192,105027,1,0,0:0:0:0:
182,192,105118,1,0,0:0:0:0:
329,192,105209,1,0,0:0:0:0:
36,192,105209,1,0,0:0:0:0:
402,192,105299,1,0,0:0:0:0:
475,192,105390,1,0,0:0:0:0:
109,192,105390,1,0,0:0:0:0:
402,192,105572,1,0,0:0:0:0:
36,192,105572,1,0,0:0:0:0:
329,192,105663,1,0,0:0:0:0:
182,192,105754,1,0,0:0:0:0:
36,192,105754,1,0,0:0:0:0:
329,192,105845,1,0,0:0:0:0:
36,192,105936,1,0,0:0:0:0:
402,192,105936,1,0,0:0:0:0:
256,192,105936,1,4,0:0:0:0:
182,192,106118,1,0,0:0:0:0:
109,192,106118,1,0,0:0:0:0:
402,192,106209,1,0,0:0:0:0:
36,192,106299,1,0,0:0:0:0:
182,192,106299,1,0,0:0:0:0:
329,192,106390,1,0,0:0:0:0:
109,192,106481,1,0,0:0:0:0:
475,192,106481,1,0,0:0:0:0:
329,192,106572,1,0,0:0:0:0:
36,192,106663,1,0,0:0:0:0:
402,192,106663,1,0,0:0:0:0:
182,192,106754,1,0,0:0:0:0:
109,192,106845,1,0,0:0:0:0:
402,192,106845,1,0,0:0:0:0:
182,192,106936,1,0,0:0:0:0:
36,192,107027,1,0,0:0:0:0:
329,192,107118,1,0,0:0:0:0:
475,192,107209,1,0,0:0:0:0:
109,192,107209,1,0,0:0:0:0:
36,192,107390,1,0,0:0:0:0:
329,192,107390,1,0,0:0:0:0:
182,192,107481,1,0,0:0:0:0:
109,192,107572,1,0,0:0:0:0:
329,192,107572,1,0,0:0:0:0:
402,192,107663,1,0,0:0:0:0:
475,192,107754,1,0,0:0:0:0:
36,192,107754,1,0,0:0:0:0:
182,192,107845,1,0,0:0:0:0:
109,192,107936,1,0,0:0:0:0:
329,192,107936,1,0,0:0:0:0:
402,192,108027,1,0,0:0:0:0:
475,192,108118,1,0,0:0:0:0:
36,192,108118,1,0,0:0:0:0:
402,192,108209,1,0,0:0:0:0:
329,192,108299,1,0,0:0:0:0:
402,192,108390,1,0,0:0:0:0:
109,192,108390,1,0,0:0:0:0:
36,192,108481,1,0,0:0:0:0:
475,192,108481,1,0,0:0:0:0:
109,192,108572,1,0,0:0:0:0:
402,192,108572,1,0,0:0:0:0:
36,192,108663,1,0,0:0:0:0:
329,192,108663,1,0,0:0:0:0:
182,192,108754,1,0,0:0:0:0:
475,192,108845,1,0,0:0:0:0:
36,192,108845,1,0,0:0:0:0:
402,192,108890,1,0,0:0:0:0:
329,192,108936,1,0,0:0:0:0:
182,192,108981,1,0,0:0:0:0:
109,192,109027,1,0,0:0:0:0:
36,192,109027,1,0,0:0:0:0:
182,192,109118,1,0,0:0:0:0:
475,192,109209,1,0,0:0:0:0:
36,192,109209,1,0,0:0:0:0:
402,192,109254,1,0,0:0:0:0:
329,192,109299,1,0,0:0:0:0:
182,192,109345,1,0,0:0:0:0:
109,192,109390,1,0,0:0:0:0:
36,192,109390,1,0,0:0:0:0:
182,192,109481,1,0,0:0:0:0:
36,192,109572,1,0,0:0:0:0:
475,192,109572,1,0,0:0:0:0:
402,192,109618,1,0,0:0:0:0:
329,192,109663,1,0,0:0:0:0:
182,192,109709,1,0,0:0:0:0:
36,192,109754,1,0,0:0:0:0:
475,192,109754,1,0,0:0:0:0:
402,192,109799,1,0,0:0:0:0:
329,192,109845,1,0,0:0:0:0:
182,192,109890,1,0,0:0:0:0:
36,192,109936,1,0,0:0:0:0:
475,192,109936,1,0,0:0:0:0:
402,192,109981,1,0,0:0:0:0:
329,192,110027,1,0,0:0:0:0:
182,192,110072,1,0,0:0:0:0:
36,192,110118,1,0,0:0:0:0:
329,192,110118,128,0,110254:0:0:0:0:
475,192,110118,128,0,110254:0:0:0:0:
36,192,110299,1,0,0:0:0:0:
182,192,110299,1,0,0:0:0:0:
329,192,110299,1,0,0:0:0:0:
475,192,110299,1,0,0:0:0:0:
36,192,110481,1,0,0:0:0:0:
182,192,110481,1,0,0:0:0:0:
329,192,110481,1,0,0:0:0:0:
475,192,110481,1,0,0:0:0:0:
475,192,110572,1,0,0:0:0:0:
329,192,110572,1,0,0:0:0:0:
182,192,110572,1,0,0:0:0:0:
36,192,110572,1,0,0:0:0:0:
36,192,110663,1,0,0:0:0:0:
182,192,110663,1,0,0:0:0:0:
329,192,110663,1,0,0:0:0:0:
475,192,110663,1,0,0:0:0:0:
109,192,110754,1,0,0:0:0:0:
402,192,110754,1,0,0:0:0:0:
256,192,110754,1,4,0:0:0:0:
36,192,110936,128,0,111572:0:0:0:0:
256,192,110936,128,4,111572:0:0:0:0:
475,192,110936,128,0,111572:0:0:0:0:
