osu file format v14

[General]
AudioFilename: TIEFSEESOUND HOLIC Vs. dj TAKA feat. YURiCa.mp3
AudioLeadIn: 0
PreviewTime: 193372
Countdown: 0
SampleSet: Soft
StackLeniency: 0.3
Mode: 0
LetterboxInBreaks: 0
EpilepsyWarning: 1
WidescreenStoryboard: 1

[Editor]
DistanceSpacing: 0.8
BeatDivisor: 4
GridSize: 4
TimelineZoom: 2.399999

[Metadata]
Title:TIEFSEE
TitleUnicode:TIEFSEE
Artist:SOUND HOLIC Vs. dj TAKA feat. YURiCa
ArtistUnicode:SOUND HOLIC Vs. dj TAKA feat. YURiCa
Creator:handsome
Version:ABYSS
Source:
Tags:斬 -ZAN- hanatan deep sea Takayuki Ishikawa 石川貴之 SOUND VOLTEX III GRAVITY WARS SDVX 花たん ユリカ ignorethis
BeatmapID:640007
BeatmapSetID:283041

[Difficulty]
HPDrainRate:6
CircleSize:4.4
OverallDifficulty:8
ApproachRate:9
SliderMultiplier:2
SliderTickRate:1

[Events]
//Background and Video events
0,0,"tiefsee.jpg",0,0
//Break Periods
2,262736,273500
//Storyboard Layer 0 (Background)
//Storyboard Layer 1 (Fail)
//Storyboard Layer 2 (Pass)
//Storyboard Layer 3 (Foreground)
//Storyboard Sound Samples

[TimingPoints]
2100,363.636363636364,4,2,1,35,1,0
2100,-166.666666666667,4,2,2,35,0,0
23190,-166.666666666667,4,2,2,40,0,0
23554,-166.666666666667,4,2,2,50,0,0
23827,-166.666666666667,4,2,2,60,0,0
23918,-166.666666666667,4,2,1,35,0,0
25372,-166.666666666667,4,2,1,40,0,0
37009,-125,4,2,1,50,0,0
48645,-100,4,2,1,70,0,0
54463,-100,4,2,1,50,0,0
77736,-125,4,2,2,40,0,0
89372,-100,4,2,2,55,0,0
101009,-83.3333333333333,4,2,1,70,0,1
124281,-100,4,2,1,70,0,0
147554,-100,4,2,1,50,0,0
170827,-100,4,2,1,40,0,0
182463,-100,4,2,1,55,0,0
194100,-83.3333333333333,4,2,1,70,0,1
217372,-100,4,2,1,60,0,0
237736,-100,4,2,1,70,0,0
274100,-100,4,2,2,55,0,0
285736,-100,4,2,1,60,0,0
287190,-100,4,2,1,65,0,0
288645,-100,4,2,1,70,0,0
289736,-100,4,2,1,35,0,0
290100,-83.3333333333333,4,2,1,70,0,1
313372,-100,4,2,1,70,0,0
336645,-100,4,2,1,50,0,0
348281,-100,4,2,1,70,0,0

[Colours]
Combo1 : 99,67,248
Combo2 : 196,196,196
Combo3 : 0,179,210
Combo4 : 87,87,87
Combo5 : 0,102,185
Combo6 : 255,187,28

[HitObjects]
172,147,2100,5,6,0:0:0:0:
166,219,2281,1,0,0:0:0:0:
211,275,2463,1,0,0:0:0:0:
283,281,2645,2,0,B|231:283|231:283|152:308,1,119.999996337891,2|0,0:0|0:0,0:0:0:0:
250,361,3190,2,0,L|321:359,1,59.9999981689454,0|0,0:0|0:0,0:0:0:0:
449,290,3554,21,2,0:0:0:0:
456,219,3736,1,0,0:0:0:0:
410,163,3918,1,0,0:0:0:0:
338,156,4100,2,0,B|390:154|390:154|469:129,1,119.999996337891,2|0,0:0|0:0,0:0:0:0:
372,77,4645,2,0,L|348:-2,1,59.9999981689454,0|0,0:0|0:0,0:0:0:0:
223,67,5009,53,2,0:0:0:0:
182,126,5190,1,0,0:0:0:0:
208,193,5372,1,2,0:0:0:0:
137,183,5554,1,0,0:0:0:0:
253,136,5736,21,2,0:0:0:0:
279,203,5918,1,0,0:0:0:0:
208,193,6100,1,2,0:0:0:0:
253,136,6281,1,0,0:0:0:0:
306,272,6463,53,2,0:0:0:0:
235,262,6645,1,0,0:0:0:0:
164,252,6827,1,0,0:0:0:0:
93,242,7009,1,0,0:0:0:0:
67,174,7190,2,0,B|144:143,1,59.9999981689454,2|0,0:0|0:0,0:0:0:0:
207,35,7554,2,0,B|130:66,1,59.9999981689454,2|0,0:0|0:0,0:0:0:0:
93,242,7918,22,0,B|124:319,1,59.9999981689454,2|0,0:0|0:0,0:0:0:0:
221,188,8281,2,0,B|198:132,1,59.9999981689454,2|0,0:0|0:0,0:0:0:0:
93,98,8645,1,2,0:0:0:0:
64,170,8827,1,0,0:0:0:0:
93,242,9009,1,0,0:0:0:0:
122,314,9190,1,0,0:0:0:0:
221,188,9372,54,0,L|308:183,1,59.9999981689454,2|0,0:0|0:0,0:0:0:0:
182,311,9736,2,0,L|122:314,1,59.9999981689454,2|0,0:0|0:0,0:0:0:0:
149,217,10100,1,2,0:0:0:0:
221,188,10281,1,0,0:0:0:0:
293,218,10463,2,0,L|367:246,1,59.9999981689454,0|0,0:0|0:0,0:0:0:0:
442,164,10827,21,2,0:0:0:0:
460,282,11009,1,0,0:0:0:0:
349,239,11190,1,0,0:0:0:0:
442,164,11372,2,0,L|464:103,1,59.9999981689454,2|0,0:0|0:0,0:0:0:0:
332,124,11736,1,0,0:0:0:0:
242,192,11918,2,0,L|219:252,1,59.9999981689454,2|0,0:0|0:0,0:0:0:0:
82,201,12281,53,2,0:0:0:0:
133,150,12463,1,0,0:0:0:0:
62,131,12645,1,0,0:0:0:0:
11,182,12827,1,0,0:0:0:0:
102,271,13009,1,2,0:0:0:0:
133,150,13190,1,0,0:0:0:0:
11,182,13372,1,2,0:0:0:0:
102,271,13554,1,0,0:0:0:0:
223,239,13736,22,0,L|297:238,1,59.9999981689454,6|0,0:0|0:0,0:0:0:0:
367,151,14100,1,0,0:0:0:0:
408,209,14281,1,0,0:0:0:0:
481,304,14463,2,0,L|421:303,1,59.9999981689454,2|0,0:0|0:0,0:0:0:0:
337,216,14827,1,0,0:0:0:0:
307,280,15009,1,0,0:0:0:0:
152,246,15190,54,0,L|226:245,1,59.9999981689454,2|0,0:0|0:0,0:0:0:0:
296,158,15554,1,0,0:0:0:0:
337,216,15736,1,0,0:0:0:0:
410,311,15918,2,0,L|350:310,1,59.9999981689454,2|0,0:0|0:0,0:0:0:0:
266,223,16281,1,0,0:0:0:0:
236,287,16463,1,0,0:0:0:0:
48,267,16645,22,0,L|37:181,1,59.9999981689454,2|0,0:0|0:0,0:0:0:0:
151,114,17009,1,0,0:0:0:0:
151,114,17190,2,0,L|162:200,1,59.9999981689454,2|0,0:0|0:0,0:0:0:0:
250,255,17554,1,2,0:0:0:0:
321,243,17736,1,0,0:0:0:0:
296,310,17918,1,0,0:0:0:0:
275,188,18100,54,0,L|312:130,1,59.9999981689454,2|0,0:0|0:0,0:0:0:0:
379,143,18463,2,0,L|416:85,1,59.9999981689454,2|0,0:0|0:0,0:0:0:0:
400,248,18827,2,0,L|363:306,1,59.9999981689454,2|0,0:0|0:0,0:0:0:0:
296,310,19190,2,0,L|259:368,1,59.9999981689454,2|0,0:0|0:0,0:0:0:0:
143,372,19554,21,2,0:0:0:0:
77,341,19736,1,0,0:0:0:0:
81,268,19918,1,0,0:0:0:0:
202,266,20100,2,0,L|262:232,1,59.9999981689454,2|0,0:0|0:0,0:0:0:0:
360,140,20463,1,0,0:0:0:0:
341,70,20645,1,0,0:0:0:0:
322,0,20827,1,0,0:0:0:0:
205,101,21009,53,2,0:0:0:0:
110,89,21372,1,2,0:0:0:0:
69,177,21736,1,2,0:0:0:0:
139,243,22100,1,2,0:0:0:0:
223,197,22463,21,2,0:0:0:0:
223,197,22827,53,0,0:0:0:0:
237,197,22918,1,0,0:0:0:0:
252,198,23009,1,0,0:0:0:0:
267,199,23100,1,0,0:0:0:0:
292,183,23190,1,0,0:0:0:0:
307,184,23281,1,0,0:0:0:0:
321,184,23372,1,0,0:0:0:0:
336,185,23463,1,0,0:0:0:0:
361,169,23554,1,0,0:0:0:0:
376,170,23645,1,0,0:0:0:0:
390,170,23736,1,0,0:0:0:0:
405,171,23827,6,0,L|441:133,1,29.9999990844727,2|0,0:0|0:0,0:0:0:0:
414,306,25372,6,0,B|372:322|372:322|289:311,1,119.999996337891,2|0,0:0|0:0,0:0:0:0:
361,228,25918,1,2,0:0:0:0:
361,228,26281,2,0,L|441:238,1,59.9999981689454,0|0,0:0|0:0,0:0:0:0:
471,105,26645,1,0,0:0:0:0:
397,151,26827,54,0,L|337:143,1,59.9999981689454,2|0,0:0|0:0,0:0:0:0:
215,160,27190,2,0,P|187:218|201:290,2,119.999996337891,0|0|0,0:0|0:0|0:0,0:0:0:0:
271,115,28100,1,0,0:0:0:0:
203,90,28281,22,0,L|138:96,1,59.9999981689454,2|0,0:0|0:0,0:0:0:0:
27,135,28645,1,0,0:0:0:0:
68,194,28827,2,0,B|121:190|121:190|197:205|223:287,1,179.999994506836
77,374,29736,54,0,L|37:310,1,59.9999981689454,2|0,0:0|0:0,0:0:0:0:
71,255,30100,1,0,0:0:0:0:
142,250,30281,1,0,0:0:0:0:
251,276,30463,2,0,L|291:212,1,59.9999981689454,2|0,0:0|0:0,0:0:0:0:
257,157,30827,1,0,0:0:0:0:
186,152,31009,1,0,0:0:0:0:
81,74,31190,22,0,B|109:36|109:36|207:22,1,119.999996337891,2|0,0:0|0:0,0:0:0:0:
300,16,31736,1,0,0:0:0:0:
300,16,32100,2,0,L|322:86,1,59.9999981689454,0|0,0:0|0:0,0:0:0:0:
410,103,32463,1,0,0:0:0:0:
376,210,32645,54,0,L|392:278,1,59.9999981689454,2|0,0:0|0:0,0:0:0:0:
488,313,33009,2,0,B|473:352|473:352|398:386,2,119.999996337891
424,160,33918,1,0,0:0:0:0:
304,246,34100,21,2,0:0:0:0:
312,211,34281,1,0,0:0:0:0:
209,195,34463,1,2,0:0:0:0:
201,160,34645,1,0,0:0:0:0:
139,301,34827,1,2,0:0:0:0:
147,266,35009,1,0,0:0:0:0:
44,250,35190,1,2,0:0:0:0:
36,215,35372,1,0,0:0:0:0:
109,58,35554,69,2,0:0:0:0:
382,160,37009,6,0,L|370:243,1,80,4|0,1:2|0:0,0:0:0:0:
298,302,37372,1,0,0:0:0:0:
226,238,37554,2,0,P|218:188|235:148,1,80,0|0,0:0|0:0,0:0:0:0:
382,160,37918,2,0,P|342:191|299:197,1,80,0|0,0:0|0:0,0:0:0:0:
236,63,38281,6,0,P|283:81|309:115,1,80,0|0,0:0|0:0,0:0:0:0:
381,277,38645,1,0,0:0:0:0:
281,220,38827,2,0,L|185:224,1,80,0|0,0:0|0:0,0:0:0:0:
68,197,39190,1,0,0:0:0:0:
57,180,39281,1,0,0:0:0:0:
49,161,39372,1,0,0:0:0:0:
45,142,39463,1,0,0:0:0:0:
46,122,39554,2,0,L|142:126,1,80
219,184,39918,38,0,B|192:270,1,80
165,350,40281,1,0,0:0:0:0:
89,291,40463,2,0,P|92:247|73:208,1,80,0|0,0:0|0:0,0:0:0:0:
46,122,40827,2,0,L|142:126,1,80
159,38,41190,1,0,0:0:0:0:
230,106,41372,6,0,L|326:110,1,80
407,134,41736,2,0,P|453:118|485:60,1,80
329,190,42100,2,0,P|319:237|354:294,1,80
319,94,42463,2,0,B|291:67|291:67|253:56,1,80,0|0,1:0|0:0,0:0:0:0:
146,5,42827,5,4,1:0:0:0:
142,14,42918,1,0,0:0:0:0:
139,23,43009,1,0,0:0:0:0:
136,33,43100,1,0,0:0:0:0:
133,42,43190,1,0,0:0:0:0:
129,52,43281,1,0,0:0:0:0:
126,61,43372,1,0,0:0:0:0:
123,71,43463,1,0,0:0:0:0:
120,80,43554,1,0,0:0:0:0:
165,202,43736,5,0,0:0:0:0:
162,212,43827,1,0,0:0:0:0:
159,221,43918,1,0,0:0:0:0:
155,230,44009,1,0,0:0:0:0:
152,240,44100,38,0,L|128:304,1,40,0|0,1:0|0:0,0:0:0:0:
230,292,44281,2,0,L|254:228,1,40,0|0,1:0|0:0,0:0:0:0:
288,186,44463,1,0,0:0:0:0:
304,175,44554,1,0,0:0:0:0:
324,169,44645,1,0,0:0:0:0:
429,205,44827,1,0,0:0:0:0:
461,98,45009,5,0,0:0:0:0:
442,76,45099,1,0,0:0:0:0:
416,60,45190,1,0,0:0:0:0:
388,53,45281,1,0,0:0:0:0:
358,54,45372,1,0,0:0:0:0:
329,64,45463,1,0,0:0:0:0:
305,81,45554,6,0,L|262:129,1,40,0|0,1:0|0:0,0:0:0:0:
203,80,45736,2,0,L|176:109,1,40,4|0,1:0|0:0,0:0:0:0:
101,78,45918,1,0,0:0:0:0:
87,92,46009,1,0,0:0:0:0:
74,107,46100,1,0,0:0:0:0:
60,122,46190,1,0,0:0:0:0:
47,137,46281,6,0,L|61:201,1,40,0|0,1:0|0:0,0:0:0:0:
128,212,46463,2,0,L|141:275,1,40,4|0,1:0|0:0,0:0:0:0:
215,268,46645,1,0,0:0:0:0:
233,274,46736,1,0,0:0:0:0:
253,277,46827,1,0,0:0:0:0:
273,277,46918,1,0,0:0:0:0:
292,272,47009,37,0,1:0:0:0:
327,238,47100,1,0,1:0:0:0:
360,204,47190,1,0,1:0:0:0:
272,38,48100,6,0,L|250:16,1,20,0|0,1:0|1:0,1:0:0:0:
259,52,48190,2,0,L|236:29,1,20,0|0,1:0|1:0,1:0:0:0:
245,67,48281,1,0,1:0:0:0:
231,82,48372,1,0,1:0:0:0:
218,96,48463,1,0,1:0:0:0:
204,111,48554,1,0,1:0:0:0:
191,126,48645,22,0,L|83:138,1,100,4|0,1:2|0:0,0:0:0:0:
32,46,49009,2,0,L|139:33,1,100,0|0,1:0|0:0,0:0:0:0:
230,46,49372,2,0,P|248:68|258:104,1,50,0|0,1:0|0:0,0:0:0:0:
258,113,49554,2,0,L|365:100,1,100,0|0,0:0|1:0,0:0:0:0:
456,113,49827,1,0,0:0:0:0:
456,113,49918,2,0,P|474:135|484:171,1,50
489,205,50100,53,0,1:0:0:0:
485,230,50190,1,0,0:0:0:0:
475,253,50281,1,0,0:0:0:0:
459,272,50372,1,0,0:0:0:0:
438,285,50463,2,0,L|333:289,1,100,0|0,1:0|0:0,0:0:0:0:
239,306,50827,2,0,P|221:328|211:364,1,50,0|0,1:0|0:0,0:0:0:0:
207,372,51009,2,0,P|204:320|156:254,2,100,0|0|0,0:0|1:0|0:0,0:0:0:0:
107,346,51554,21,0,1:0:0:0:
93,325,51645,1,0,0:0:0:0:
84,301,51736,1,0,0:0:0:0:
80,277,51827,1,0,0:0:0:0:
82,252,51918,2,0,B|81:210|81:210|31:134,1,100,0|0,1:0|0:0,0:0:0:0:
65,123,52190,1,0,0:0:0:0:
78,143,52281,1,0,1:0:0:0:
91,163,52372,1,0,0:0:0:0:
105,184,52463,2,0,P|158:195|207:181,1,100,0|0,0:0|1:0,0:0:0:0:
339,133,52827,1,0,0:0:0:0:
352,153,52918,1,0,0:0:0:0:
366,174,53009,53,0,1:0:0:0:
414,186,53100,1,0,0:0:0:0:
458,163,53190,1,0,0:0:0:0:
468,114,53281,1,0,0:0:0:0:
439,72,53372,2,0,L|338:62,1,100,0|0,1:0|0:0,0:0:0:0:
242,36,53736,1,0,1:0:0:0:
163,98,53918,1,0,0:0:0:0:
151,120,54009,1,0,0:0:0:0:
144,144,54100,1,0,1:0:0:0:
141,168,54190,1,0,0:0:0:0:
144,193,54281,1,0,0:0:0:0:
151,217,54372,1,0,0:0:0:0:
163,239,54463,22,0,L|274:267,1,100,4|0,1:2|0:0,0:0:0:0:
355,232,54827,1,0,1:0:0:0:
400,320,55009,2,0,P|438:365|484:371,1,100,0|0,0:0|1:0,0:0:0:0:
406,226,55372,2,0,P|346:236|318:273,1,100,0|0,0:0|1:0,0:0:0:0:
484,278,55736,54,0,P|504:221|486:178,1,100,0|0,0:0|1:0,0:0:0:0:
432,104,56100,1,0,0:0:0:0:
340,148,56281,2,0,L|230:156,1,100,0|0,1:0|0:0,0:0:0:0:
170,79,56645,2,0,L|269:71,1,100,0|0,1:0|0:0,0:0:0:0:
406,226,57009,2,0,L|296:234,1,100,0|0,1:0|0:0,0:0:0:0:
222,305,57372,21,0,1:0:0:0:
207,325,57463,1,0,0:0:0:0:
188,342,57554,1,0,0:0:0:0:
164,351,57645,1,0,0:0:0:0:
124,346,57736,1,0,1:0:0:0:
93,320,57827,1,0,0:0:0:0:
80,282,57918,1,0,0:0:0:0:
89,243,58009,1,0,0:0:0:0:
155,277,58100,53,0,1:0:0:0:
179,283,58191,1,0,0:0:0:0:
204,285,58282,1,0,0:0:0:0:
229,277,58373,1,0,0:0:0:0:
257,248,58464,1,0,1:0:0:0:
265,209,58555,1,0,0:0:0:0:
252,171,58646,1,0,0:0:0:0:
221,146,58737,1,0,0:0:0:0:
178,120,58827,22,0,B|145:160|145:160|69:165,1,100,2|0,1:2|0:0,0:0:0:0:
55,191,59100,2,0,P|34:243|55:310,1,100,2|0,0:0|0:0,0:0:0:0:
83,311,59372,2,0,L|196:305,1,100,2|0,0:0|1:0,0:0:0:0:
210,263,59645,2,0,P|255:245|300:265,1,100,2|0,0:0|0:0,0:0:0:0:
329,305,59918,2,0,L|429:311,1,100,2|0,1:2|0:0,0:0:0:0:
471,285,60190,1,0,0:0:0:0:
471,285,60281,54,0,P|477:236|457:191,1,100,2|0,1:2|0:0,0:0:0:0:
392,113,60645,1,0,1:0:0:0:
291,115,60827,2,0,P|236:129|200:173,1,100,0|0,0:0|1:0,0:0:0:0:
282,303,61190,2,0,P|297:247|276:194,1,100,0|0,0:0|1:0,0:0:0:0:
124,201,61554,22,0,P|163:240|219:250,1,100,0|0,0:0|1:0,0:0:0:0:
309,199,61918,1,0,0:0:0:0:
401,269,62100,2,0,L|431:377,1,100,0|0,1:0|0:0,0:0:0:0:
479,202,62463,2,0,L|516:306,1,100,0|0,1:0|0:0,0:0:0:0:
506,104,62827,1,0,1:0:0:0:
426,43,63009,1,0,0:0:0:0:
348,106,63190,53,0,1:0:0:0:
326,118,63281,1,0,0:0:0:0:
302,124,63372,1,0,0:0:0:0:
277,123,63463,1,0,0:0:0:0:
240,105,63554,1,0,1:0:0:0:
203,89,63645,1,0,0:0:0:0:
164,96,63736,1,0,0:0:0:0:
134,121,63827,1,0,0:0:0:0:
193,161,63918,21,0,1:0:0:0:
202,137,64009,1,0,0:0:0:0:
204,112,64100,1,0,0:0:0:0:
198,87,64190,1,0,0:0:0:0:
171,57,64281,1,0,1:0:0:0:
131,48,64372,1,0,0:0:0:0:
93,61,64463,1,0,0:0:0:0:
68,92,64554,1,0,0:0:0:0:
62,131,64645,54,0,P|89:179|146:191,1,100,2|0,1:2|0:0,0:0:0:0:
178,206,64918,2,0,B|201:267|201:267|202:312,1,100,2|0,0:0|0:0,0:0:0:0:
212,349,65190,2,0,P|257:367|302:347,1,100,2|0,0:0|1:0,0:0:0:0:
310,301,65463,2,0,B|311:267|311:267|334:206,1,100,2|0,3:0|0:0,0:0:0:0:
382,192,65736,2,0,P|428:174|450:131,1,100,2|0,1:2|0:0,0:0:0:0:
429,86,66009,1,0,0:0:0:0:
429,86,66100,22,0,B|384:76|384:76|297:98,1,100,6|0,1:2|0:0,0:0:0:0:
279,195,66463,1,0,1:0:0:0:
172,250,66645,2,0,L|73:276,1,100,0|0,0:0|1:0,0:0:0:0:
135,135,67009,2,0,L|36:161,1,100,0|0,0:0|1:0,0:0:0:0:
98,19,67372,54,0,L|-1:45,2,100,0|0|0,0:0|1:0|0:0,0:0:0:0:
281,43,67918,2,0,P|276:95|237:136,1,100,2|0,1:2|0:0,0:0:0:0:
157,175,68190,1,2,0:0:0:0:
157,175,68281,2,0,P|134:238|148:294,1,100,2|0,1:2|0:0,0:0:0:0:
192,353,68554,1,2,0:0:0:0:
192,353,68645,2,0,L|309:344,1,100,0|0,1:2|0:0,0:0:0:0:
412,377,69009,22,0,P|467:357|493:293,1,100,0|0,1:0|0:0,0:0:0:0:
493,203,69372,1,0,1:0:0:0:
406,285,69554,2,0,L|292:285,1,100,0|0,0:0|1:0,0:0:0:0:
230,218,69918,2,0,P|213:171|225:123,1,100,2|0,1:2|1:0,0:0:0:0:
378,114,70281,54,0,P|336:158|289:168,1,100,0|0,0:0|1:0,0:0:0:0:
266,38,70645,1,0,0:0:0:0:
367,30,70827,2,0,P|426:42|457:78,1,100,2|0,1:2|0:0,0:0:0:0:
486,164,71100,1,0,0:0:0:0:
486,164,71190,2,0,B|433:175|433:175|386:219,1,100,2|0,1:2|0:3,0:3:0:0:
320,264,71463,1,2,0:0:0:0:
320,264,71554,2,0,P|301:205|316:158,1,100,2|0,1:2|0:0,0:0:0:0:
404,258,71918,21,4,1:2:0:0:
402,282,72009,1,0,0:0:0:0:
393,306,72100,1,0,0:0:0:0:
378,325,72190,1,0,0:0:0:0:
357,339,72281,1,0,1:0:0:0:
333,346,72372,1,0,0:0:0:0:
308,346,72463,1,0,0:0:0:0:
285,338,72554,1,0,0:0:0:0:
264,323,72645,53,2,1:2:0:0:
242,313,72736,1,0,0:0:0:0:
217,309,72827,1,0,0:0:0:0:
192,311,72918,1,0,0:0:0:0:
168,319,73009,1,0,1:0:0:0:
147,332,73100,1,0,0:0:0:0:
127,347,73190,1,0,0:0:0:0:
103,355,73281,1,0,0:0:0:0:
78,356,73372,21,0,1:0:0:0:
54,349,73463,1,0,0:0:0:0:
34,334,73554,1,0,0:0:0:0:
20,314,73645,1,0,0:0:0:0:
12,290,73736,1,0,1:0:0:0:
13,265,73827,1,0,0:0:0:0:
22,242,73918,1,0,0:0:0:0:
37,223,74009,1,2,0:0:0:0:
58,209,74100,53,2,1:2:0:0:
82,203,74190,1,0,0:0:0:0:
107,206,74281,1,0,0:0:0:0:
130,215,74372,1,0,0:0:0:0:
148,232,74463,1,0,1:0:0:0:
162,253,74554,1,0,0:0:0:0:
169,276,74645,1,0,0:0:0:0:
170,301,74736,1,0,0:0:0:0:
169,339,74827,21,4,1:2:0:0:
170,301,74918,1,0,0:0:0:0:
181,265,75009,1,0,0:0:0:0:
200,233,75100,1,0,0:0:0:0:
227,208,75190,1,0,1:0:0:0:
259,189,75281,1,0,0:0:0:0:
296,179,75372,1,0,0:0:0:0:
333,179,75463,1,2,0:0:0:0:
370,188,75554,53,2,1:2:0:0:
401,210,75645,1,0,0:0:0:0:
425,238,75736,1,0,0:0:0:0:
437,275,75827,1,0,0:0:0:0:
434,312,75918,1,0,1:0:0:0:
417,345,76009,1,0,0:0:0:0:
388,368,76100,1,0,0:0:0:0:
352,377,76190,1,0,0:0:0:0:
314,378,76281,22,0,L|286:324,1,50,4|0,1:2|0:0,0:0:0:0:
200,377,76463,2,0,L|176:332,1,50,0|0,1:0|0:0,0:0:0:0:
255,251,76645,2,0,L|231:206,1,50,0|0,1:0|0:0,0:0:0:0:
369,253,76827,2,0,L|345:208,1,50,0|2,1:0|0:0,0:0:0:0:
424,127,77009,54,0,L|400:82,1,50,2|0,1:2|0:0,0:0:0:0:
310,125,77190,2,0,L|286:80,1,50,0|0,1:0|0:0,0:0:0:0:
194,122,77372,2,0,L|176:86,1,25,0|0,1:0|1:0,0:0:0:0:
194,148,77463,2,0,L|176:112,1,25,0|0,1:0|1:0,0:0:0:0:
188,172,77554,1,0,1:0:0:0:
173,192,77645,1,0,1:0:0:0:
157,204,77736,70,0,L|60:206,1,80,4|0,0:0|0:0,0:0:0:0:
6,140,78100,1,0,0:0:0:0:
35,49,78281,1,0,0:0:0:0:
99,120,78463,2,0,L|196:118,1,80
264,185,78827,1,0,0:0:0:0:
235,277,79009,1,0,0:0:0:0:
206,368,79190,21,0,0:0:0:0:
392,327,79372,1,0,0:0:0:0:
264,185,79554,1,0,0:0:0:0:
287,293,79736,1,0,0:0:0:0:
431,163,80645,54,0,L|495:105,1,80,2|0,0:0|0:0,0:0:0:0:
467,15,81009,1,0,0:0:0:0:
371,15,81190,2,0,P|329:41|311:91,1,80,0|0,0:0|0:0,0:0:0:0:
293,161,81554,1,0,0:0:0:0:
276,255,81736,1,0,0:0:0:0:
259,349,81918,1,0,0:0:0:0:
186,287,82100,21,2,0:0:0:0:
366,223,82827,1,2,0:0:0:0:
220,99,83554,53,2,0:0:0:0:
142,42,83736,1,0,0:0:0:0:
53,80,83918,1,0,0:0:0:0:
131,137,84100,1,0,0:0:0:0:
381,137,84463,1,0,0:0:0:0:
303,194,84645,1,0,0:0:0:0:
225,251,84827,1,0,0:0:0:0:
147,308,85009,21,2,0:0:0:0:
327,377,85190,1,0,0:0:0:0:
483,263,85372,1,0,0:0:0:0:
303,194,85554,1,0,0:0:0:0:
327,377,85736,1,0,0:0:0:0:
123,125,86463,53,2,0:0:0:0:
218,131,86645,1,0,0:0:0:0:
270,52,86827,1,0,0:0:0:0:
313,137,87009,2,0,L|390:193,1,80
476,309,87372,1,0,0:0:0:0:
323,248,87554,1,0,0:0:0:0:
409,381,87736,1,0,0:0:0:0:
256,320,87918,21,2,0:0:0:0:
35,250,88281,1,0,0:0:0:0:
256,180,88645,1,2,0:0:0:0:
35,110,89009,1,0,0:0:0:0:
354,275,89372,69,4,1:3:0:0:
463,226,89554,1,0,0:0:0:0:
415,117,89736,1,0,1:0:0:0:
305,165,89918,2,0,L|191:174,1,100,0|8,0:0|0:0,0:0:0:0:
354,275,90281,1,0,0:0:0:0:
463,226,90463,1,0,0:0:0:0:
156,186,90827,5,0,1:0:0:0:
47,137,91009,1,0,0:0:0:0:
95,28,91190,1,0,1:0:0:0:
205,76,91372,2,0,L|319:85,1,100,0|8,0:0|0:0,0:0:0:0:
156,186,91736,1,0,0:0:0:0:
47,137,91918,1,0,0:0:0:0:
255,276,92281,5,0,1:0:0:0:
340,192,92463,1,0,0:0:0:0:
256,107,92645,1,0,1:0:0:0:
171,191,92827,2,0,B|139:231|139:231|135:289,1,100,0|8,0:0|0:0,0:0:0:0:
255,310,93190,1,0,0:0:0:0:
374,192,93372,1,0,0:0:0:0:
256,72,93554,1,0,1:0:0:0:
147,125,93736,38,0,L|33:134,1,100,0|0,1:0|0:0,0:0:0:0:
202,240,94100,2,0,L|88:249,1,100,0|0,1:0|0:0,0:0:0:0:
365,125,94463,2,0,L|479:134,1,100,8|0,1:2|1:0,0:0:0:0:
310,240,94827,2,0,L|424:249,1,100,0|0,0:0|1:0,0:0:0:0:
256,355,95190,5,4,1:3:0:0:
146,306,95372,2,0,P|112:258|127:198,1,100,0|0,0:0|1:0,0:0:0:0:
217,155,95736,2,0,B|261:163|261:163|325:148,1,100,0|8,0:0|0:0,0:0:0:0:
455,119,96100,1,0,0:0:0:0:
361,0,96281,1,0,0:0:0:0:
512,68,96463,1,0,1:0:0:0:
397,169,96645,6,0,B|348:222|348:222|363:349,1,200,0|0,1:0|1:0,0:0:0:0:
489,368,97190,2,0,L|475:261,1,100,0|8,0:0|0:0,0:0:0:0:
455,119,97554,1,0,0:0:0:0:
355,272,97736,2,0,P|310:298|256:294,1,100,0|0,0:0|1:0,0:0:0:0:
190,154,98100,6,0,L|175:55,1,100,0|0,1:0|0:0,0:0:0:0:
96,228,98463,2,0,L|111:332,1,100,0|0,1:0|0:0,0:0:0:0:
279,223,98827,1,0,1:0:0:0:
175,55,99009,1,0,1:0:0:0:
8,159,99190,1,0,1:0:0:0:
111,327,99372,1,0,1:0:0:0:
143,190,99554,37,0,1:0:0:0:
336,341,101009,6,0,B|378:353|378:353|484:332,1,119.999996337891,6|0,1:2|0:0,0:0:0:0:
351,226,101372,2,0,P|289:227|229:280,1,119.999996337891,0|0,1:0|0:0,0:0:0:0:
154,341,101736,1,0,1:0:0:0:
131,360,101827,1,0,0:0:0:0:
104,376,101918,1,0,0:0:0:0:
72,376,102009,1,0,0:0:0:0:
45,373,102100,2,0,L|28:246,1,119.999996337891,0|0,1:0|0:0,0:0:0:0:
78,143,102463,53,0,1:0:0:0:
189,186,102645,2,0,P|257:195|312:167,1,119.999996337891,0|0,0:0|1:0,0:0:0:0:
325,49,103009,1,0,0:0:0:0:
309,267,103190,1,0,1:0:0:0:
239,104,103372,1,0,0:0:0:0:
401,159,103554,2,0,B|416:101|416:101|401:35,1,119.999996337891,0|0,1:0|0:0,0:0:0:0:
262,13,103918,53,0,1:0:0:0:
232,9,104009,1,0,0:0:0:0:
202,14,104100,1,2,0:0:0:0:
176,27,104190,1,0,0:0:0:0:
155,48,104281,1,0,1:0:0:0:
141,75,104372,1,0,0:0:0:0:
136,104,104463,1,2,0:0:0:0:
140,134,104554,1,0,0:0:0:0:
153,161,104645,5,0,1:0:0:0:
173,183,104736,1,0,0:0:0:0:
199,198,104827,1,2,0:0:0:0:
226,211,104918,1,0,0:0:0:0:
250,228,105009,1,0,1:0:0:0:
267,253,105100,1,0,0:0:0:0:
275,281,105190,1,2,0:0:0:0:
273,311,105281,1,0,0:0:0:0:
264,340,105372,38,0,B|214:361|214:361|139:351,1,119.999996337891,0|0,1:0|0:0,0:0:0:0:
65,259,105645,1,0,1:1:0:0:
39,274,105736,2,0,P|13:327|16:387,1,119.999996337891,0|0,1:0|0:0,0:0:0:0:
116,228,106009,1,0,1:0:0:0:
142,215,106100,2,0,P|168:162|165:102,1,119.999996337891,2|0,1:2|0:0,0:0:0:0:
61,114,106372,1,2,1:2:0:0:
72,142,106463,2,0,L|195:166,1,119.999996337891,2|0,1:2|0:0,0:0:0:0:
330,216,106827,54,0,P|332:286|377:330,1,119.999996337891,4|0,1:0|0:0,0:0:0:0:
405,141,107190,2,0,P|343:107|282:124,1,119.999996337891,0|0,1:0|0:0,0:0:0:0:
432,243,107554,1,0,1:0:0:0:
460,233,107645,1,0,0:0:0:0:
484,215,107736,1,0,0:0:0:0:
500,190,107827,1,0,0:0:0:0:
507,161,107918,2,0,B|491:86|491:86|511:47,1,119.999996337891,0|0,1:0|0:0,0:0:0:0:
400,12,108281,54,0,P|333:12|276:63,1,119.999996337891,4|0,1:0|0:0,0:0:0:0:
217,137,108645,2,0,P|166:168|107:166,1,119.999996337891,0|0,1:0|0:0,0:0:0:0:
19,71,109009,1,0,1:0:0:0:
41,51,109100,1,0,0:0:0:0:
69,39,109190,1,0,0:0:0:0:
98,36,109281,1,0,0:0:0:0:
128,41,109372,2,0,B|173:58|173:58|257:38,1,119.999996337891,0|0,1:0|0:0,0:0:0:0:
305,144,109736,6,0,P|363:148|410:184,1,119.999996337891,4|0,1:0|0:0,0:0:0:0:
434,304,110100,1,0,1:0:0:0:
319,264,110281,2,0,L|174:275,1,119.999996337891,0|0,0:0|1:0,0:0:0:0:
54,157,110645,1,0,0:0:0:0:
160,99,110827,1,0,1:0:0:0:
78,276,111009,1,0,0:0:0:0:
251,183,111190,37,4,1:0:0:0:
197,290,111372,1,0,0:0:0:0:
215,313,111463,1,0,0:0:0:0:
241,327,111554,2,0,B|284:341|284:341|382:327,1,119.999996337891,0|0,1:0|0:0,0:0:0:0:
497,259,111918,2,0,L|462:199,1,59.9999981689454,0|0,1:0|0:0,0:0:0:0:
334,171,112100,2,0,L|369:231,1,59.9999981689454,0|0,1:0|0:0,0:0:0:0:
425,133,112281,1,0,1:0:0:0:
396,94,112372,1,0,1:0:0:0:
353,74,112463,1,0,1:0:0:0:
306,75,112554,1,0,1:0:0:0:
264,99,112645,54,0,L|131:112,1,119.999996337891,4|0,1:2|0:0,0:0:0:0:
46,180,113009,2,0,P|24:246|45:313,1,119.999996337891,0|0,1:0|0:0,0:0:0:0:
129,368,113372,1,0,1:0:0:0:
164,129,113554,1,0,0:0:0:0:
259,204,113736,2,0,P|268:262|247:317,1,119.999996337891,0|0,1:0|0:0,0:0:0:0:
147,249,114100,53,0,1:0:0:0:
164,129,114281,2,0,P|210:91|268:82,1,119.999996337891,0|0,0:0|1:0,0:0:0:0:
376,136,114645,1,0,0:0:0:0:
473,206,114827,1,0,1:0:0:0:
485,87,115009,1,0,0:0:0:0:
364,255,115190,1,0,1:0:0:0:
461,325,115372,1,0,0:0:0:0:
352,374,115554,5,0,1:0:0:0:
322,381,115645,1,0,0:0:0:0:
293,383,115736,1,2,0:0:0:0:
263,381,115827,1,0,0:0:0:0:
232,373,115918,1,0,1:0:0:0:
206,367,116009,1,0,0:0:0:0:
174,373,116100,1,2,0:0:0:0:
145,380,116190,1,0,0:0:0:0:
115,382,116281,37,0,1:0:0:0:
85,379,116372,1,0,0:0:0:0:
56,373,116463,1,2,0:0:0:0:
32,356,116554,1,0,0:0:0:0:
15,331,116645,1,0,1:0:0:0:
8,302,116736,1,0,0:0:0:0:
10,272,116827,1,2,0:0:0:0:
21,245,116918,1,0,0:0:0:0:
41,223,117009,54,0,B|63:185|63:185|43:94,1,119.999996337891,0|0,1:0|0:0,0:0:0:0:
106,19,117281,1,0,1:0:0:0:
132,33,117372,2,0,L|159:154,1,119.999996337891,0|0,1:0|0:0,0:0:0:0:
212,224,117645,1,0,1:0:0:0:
186,238,117736,2,0,L|159:359,1,119.999996337891,0|0,1:0|0:0,0:0:0:0:
328,371,118009,1,0,1:0:0:0:
352,355,118100,2,0,L|326:238,1,119.999996337891,0|0,1:0|1:0,0:0:0:0:
353,150,118372,1,0,1:0:0:0:
371,125,118463,54,0,P|416:77|490:81,1,119.999996337891,4|0,1:0|0:0,0:0:0:0:
509,244,118827,2,0,P|464:292|390:288,1,119.999996337891,0|0,1:0|0:0,0:0:0:0:
298,232,119190,1,0,1:0:0:0:
303,202,119281,1,0,0:0:0:0:
256,87,119463,1,0,0:0:0:0:
256,117,119554,1,0,1:0:0:0:
209,202,119736,1,0,0:0:0:0:
99,296,119918,6,0,P|41:288|3:244,1,119.999996337891,4|0,1:0|0:0,0:0:0:0:
44,72,120281,2,0,P|102:80|141:125,1,119.999996337891,0|0,1:0|0:0,0:0:0:0:
256,267,120645,1,0,1:0:0:0:
368,192,120827,1,0,0:0:0:0:
144,192,121009,1,0,1:0:0:0:
256,117,121190,1,0,1:0:0:0:
360,356,121372,37,4,1:0:0:0:
446,273,121554,1,0,0:0:0:0:
474,264,121645,1,0,0:0:0:0:
494,242,121736,1,0,1:0:0:0:
397,164,121918,1,0,0:0:0:0:
397,134,122009,1,0,0:0:0:0:
382,109,122100,1,0,1:0:0:0:
278,179,122281,1,0,0:0:0:0:
251,170,122372,1,0,0:0:0:0:
221,176,122463,1,0,1:0:0:0:
255,296,122645,1,0,0:0:0:0:
238,318,122736,1,0,0:0:0:0:
235,349,122827,54,0,L|272:378,3,39.9999987792969,0|0|0|0,1:0|1:0|1:0|1:0,1:0:0:0:
106,341,123190,2,0,L|74:316,3,39.9999987792969,0|0|0|0,1:0|1:0|1:0|1:0,1:0:0:0:
180,251,123554,54,0,L|167:216,1,29.9999990844727,0|0,1:0|1:0,1:0:0:0:
204,233,123645,2,0,L|191:198,1,29.9999990844727,0|0,1:0|1:0,1:0:0:0:
234,227,123736,1,0,1:0:0:0:
263,230,123827,1,0,1:0:0:0:
291,238,123918,1,0,1:0:0:0:
319,247,124009,1,0,1:0:0:0:
348,242,124100,1,0,1:0:0:0:
373,227,124190,1,0,1:0:0:0:
387,200,124281,5,6,1:2:0:0:
398,87,124463,1,0,0:0:0:0:
391,76,124554,1,0,0:0:0:0:
384,66,124645,1,0,1:0:0:0:
360,73,124736,1,0,0:0:0:0:
335,76,124827,1,0,0:0:0:0:
310,74,124918,1,0,0:0:0:0:
286,68,125009,37,2,1:2:0:0:
146,139,125190,1,0,0:0:0:0:
153,149,125281,1,0,0:0:0:0:
160,160,125372,1,0,1:0:0:0:
184,153,125463,1,0,0:0:0:0:
208,150,125554,1,0,0:0:0:0:
233,151,125645,1,0,0:0:0:0:
258,157,125736,54,0,B|298:197|298:197|289:308,2,150,2|2|2,1:2|0:0|0:0,0:0:0:0:
123,214,126463,53,0,1:0:0:0:
116,238,126554,1,0,0:0:0:0:
117,263,126645,1,0,0:0:0:0:
125,286,126736,1,0,0:0:0:0:
139,307,126827,1,0,1:0:0:0:
178,305,126918,1,0,0:0:0:0:
217,315,127009,1,0,0:0:0:0:
251,335,127100,1,0,0:0:0:0:
279,364,127190,5,2,1:2:0:0:
403,362,127372,1,0,0:0:0:0:
410,373,127463,1,0,0:0:0:0:
416,384,127554,1,0,1:0:0:0:
439,375,127645,1,0,0:0:0:0:
458,358,127736,1,0,0:0:0:0:
468,336,127827,1,0,0:0:0:0:
470,311,127918,37,2,1:2:0:0:
512,164,128100,1,0,0:0:0:0:
505,153,128190,1,0,0:0:0:0:
499,142,128281,1,0,1:0:0:0:
476,151,128372,1,0,0:0:0:0:
457,168,128463,1,0,0:0:0:0:
447,190,128554,1,0,0:0:0:0:
445,215,128645,54,0,B|349:233|349:233|319:284,2,150,2|2|2,1:2|0:0|0:0,0:0:0:0:
452,339,129372,54,0,L|388:351,1,50,2|0,1:2|0:0,0:0:0:0:
277,383,129554,1,0,0:0:0:0:
277,383,129645,2,0,L|233:340,1,50,2|0,0:0|1:0,0:0:0:0:
92,241,129827,1,0,0:0:0:0:
92,241,129918,2,0,L|136:284,1,50,2|0,1:2|0:0,0:0:0:0:
230,199,130100,5,2,1:2:0:0:
260,174,130190,1,0,0:0:0:0:
270,136,130281,1,0,0:0:0:0:
255,100,130372,1,0,0:0:0:0:
220,80,130463,1,0,1:0:0:0:
161,199,130645,1,2,0:0:0:0:
168,239,130736,1,0,0:0:0:0:
196,265,130827,37,0,1:0:0:0:
235,270,130918,1,0,0:0:0:0:
269,251,131009,1,0,0:0:0:0:
196,139,131190,1,2,1:2:0:0:
159,126,131281,1,0,0:0:0:0:
122,136,131372,1,0,0:0:0:0:
98,168,131463,1,0,0:0:0:0:
98,208,131554,54,0,L|80:285,1,50,0|0,1:0|0:0,0:0:0:0:
0,198,131736,1,0,0:0:0:0:
5,173,131827,1,0,0:0:0:0:
11,149,131918,1,0,1:0:0:0:
17,124,132009,1,0,0:0:0:0:
22,100,132100,1,0,0:0:0:0:
169,9,132281,53,2,1:2:0:0:
212,37,132372,1,0,0:0:0:0:
256,64,132463,1,0,0:0:0:0:
217,57,132554,1,0,0:0:0:0:
178,68,132645,1,0,1:0:0:0:
147,91,132736,1,0,0:0:0:0:
127,125,132827,1,0,0:0:0:0:
123,165,132918,1,0,0:0:0:0:
124,205,133009,5,2,1:2:0:0:
142,223,133100,1,0,0:0:0:0:
160,241,133190,1,0,0:0:0:0:
178,257,133281,1,0,0:0:0:0:
182,297,133372,1,2,1:2:0:0:
200,315,133463,1,0,0:0:0:0:
218,333,133554,1,0,0:0:0:0:
235,350,133645,1,0,0:0:0:0:
277,350,133736,37,2,1:2:0:0:
294,333,133827,1,0,0:0:0:0:
312,315,133918,1,0,0:0:0:0:
330,297,134009,1,0,0:0:0:0:
334,257,134100,1,2,1:2:0:0:
352,241,134190,1,0,0:0:0:0:
370,223,134281,1,0,0:0:0:0:
388,205,134372,1,0,0:0:0:0:
389,165,134463,53,2,1:2:0:0:
385,125,134554,1,0,0:0:0:0:
365,91,134645,1,0,0:0:0:0:
333,67,134736,1,0,0:0:0:0:
295,57,134827,1,2,1:2:0:0:
264,96,134918,1,0,0:0:0:0:
220,118,135009,1,0,0:0:0:0:
170,118,135100,1,0,0:0:0:0:
85,78,135190,53,2,1:2:0:0:
42,102,135281,1,0,0:0:0:0:
21,146,135372,1,0,1:0:0:0:
30,194,135463,1,0,0:0:0:0:
66,228,135554,1,0,1:0:0:0:
115,234,135645,1,0,0:0:0:0:
158,210,135736,1,0,1:0:0:0:
179,166,135827,1,0,0:0:0:0:
170,118,135918,5,2,1:2:0:0:
253,0,136100,1,0,0:0:0:0:
265,1,136190,1,0,0:0:0:0:
278,3,136281,1,0,1:0:0:0:
296,19,136372,1,0,0:0:0:0:
310,40,136463,1,0,0:0:0:0:
317,64,136554,1,0,0:0:0:0:
317,89,136645,37,2,1:2:0:0:
408,174,136827,1,0,0:0:0:0:
421,176,136918,1,0,0:0:0:0:
433,177,137009,1,0,1:0:0:0:
452,193,137100,1,0,0:0:0:0:
465,214,137190,1,0,0:0:0:0:
472,238,137281,1,0,0:0:0:0:
472,263,137372,54,0,B|406:303|406:303|473:354,2,150,2|2|2,1:2|0:0|0:0,0:0:0:0:
344,235,138100,53,0,1:0:0:0:
326,252,138190,1,0,0:0:0:0:
315,274,138281,1,0,0:0:0:0:
311,299,138372,1,0,0:0:0:0:
316,323,138463,1,0,1:0:0:0:
284,347,138554,1,0,0:0:0:0:
246,359,138645,1,0,0:0:0:0:
206,358,138736,1,0,0:0:0:0:
168,345,138827,5,2,1:2:0:0:
63,275,139009,1,0,0:0:0:0:
50,272,139100,1,0,0:0:0:0:
39,270,139190,1,0,1:0:0:0:
50,292,139281,1,0,0:0:0:0:
55,316,139372,1,0,0:0:0:0:
54,341,139463,1,0,0:0:0:0:
48,365,139554,37,2,1:2:0:0:
168,345,139736,1,0,0:0:0:0:
180,347,139827,1,0,0:0:0:0:
192,350,139918,1,0,1:0:0:0:
180,327,140009,1,0,0:0:0:0:
175,303,140100,1,0,0:0:0:0:
176,278,140190,1,0,0:0:0:0:
182,254,140281,54,0,B|238:204|238:204|333:197,2,150,2|2|2,1:2|0:0|0:0,0:0:0:0:
62,235,141009,54,0,L|42:161,1,50,2|0,1:2|0:0,0:0:0:0:
63,65,141190,1,0,0:0:0:0:
63,65,141281,2,0,P|80:46|103:37,1,50,2|0,0:0|1:0,0:0:0:0:
204,128,141463,1,0,0:0:0:0:
204,128,141554,2,0,P|228:131|252:124,1,50,2|0,1:2|0:0,0:0:0:0:
339,40,141736,5,2,1:2:0:0:
373,20,141827,1,0,0:0:0:0:
413,14,141918,1,0,0:0:0:0:
452,23,142009,1,0,0:0:0:0:
485,44,142100,1,0,1:0:0:0:
314,137,142281,1,2,0:0:0:0:
280,117,142372,1,0,0:0:0:0:
255,85,142463,37,0,1:0:0:0:
242,48,142554,1,0,0:0:0:0:
244,9,142645,1,0,0:0:0:0:
410,110,142827,1,2,1:2:0:0:
410,149,142918,1,0,0:0:0:0:
394,187,143009,1,0,0:0:0:0:
369,217,143100,1,0,0:0:0:0:
334,234,143190,54,0,L|271:241,1,50,0|0,1:0|0:0,0:0:0:0:
218,342,143372,1,0,0:0:0:0:
242,339,143463,1,0,0:0:0:0:
267,336,143554,1,0,1:0:0:0:
292,333,143645,1,0,0:0:0:0:
317,330,143736,1,0,0:0:0:0:
438,286,143918,53,2,1:2:0:0:
443,335,144009,1,0,0:0:0:0:
449,384,144100,1,0,0:0:0:0:
477,355,144190,1,0,0:0:0:0:
494,319,144281,1,0,1:0:0:0:
497,280,144372,1,0,0:0:0:0:
487,241,144463,1,0,0:0:0:0:
464,209,144554,1,0,0:0:0:0:
431,186,144645,5,2,1:2:0:0:
407,182,144736,1,0,0:0:0:0:
382,177,144827,1,0,0:0:0:0:
358,173,144918,1,0,0:0:0:0:
355,134,145009,1,2,1:2:0:0:
330,129,145100,1,0,0:0:0:0:
305,125,145190,1,0,0:0:0:0:
281,120,145281,1,0,0:0:0:0:
231,120,145372,37,2,1:2:0:0:
207,125,145463,1,0,0:0:0:0:
182,129,145554,1,0,0:0:0:0:
157,134,145645,1,0,0:0:0:0:
153,173,145736,1,2,1:2:0:0:
129,177,145827,1,0,0:0:0:0:
104,182,145918,1,0,0:0:0:0:
80,186,146009,1,0,0:0:0:0:
47,209,146100,53,2,1:2:0:0:
6,318,146281,1,0,0:0:0:0:
36,357,146372,1,0,1:0:0:0:
82,375,146463,2,0,L|139:365,1,50,0|0,1:0|0:0,0:0:0:0:
206,255,146645,1,0,0:0:0:0:
236,216,146736,1,0,1:0:0:0:
282,198,146827,54,0,L|339:208,1,50,0|0,1:0|0:0,0:0:0:0:
467,335,147009,2,0,L|410:345,1,50,0|0,1:0|0:0,0:0:0:0:
267,243,147190,2,0,L|225:250,1,25,0|0,1:0|0:0,1:0:0:0:
282,198,147281,1,2,1:3:0:0:
297,151,147372,1,2,1:3:0:0:
344,138,147463,1,2,1:3:0:0:
392,125,147554,54,0,P|440:114|477:40,1,100,4|0,1:2|0:0,0:0:0:0:
381,21,147918,1,0,1:0:0:0:
296,75,148100,2,0,L|196:73,1,100,0|0,0:0|1:0,0:0:0:0:
209,180,148463,2,0,L|109:178,1,100,0|0,0:0|1:0,0:0:0:0:
122,285,148827,22,0,L|22:283,1,100,0|0,0:0|1:0,0:0:0:0:
10,121,149190,1,0,0:0:0:0:
145,35,149372,2,0,P|200:34|248:72,1,100,0|0,1:0|0:0,0:0:0:0:
196,230,149736,2,0,P|169:189|169:140,1,100,0|0,1:0|0:0,0:0:0:0:
340,88,150100,2,0,P|313:136|256:158,1,100,0|0,1:0|0:0,0:0:0:0:
103,253,150463,53,0,1:0:0:0:
113,276,150554,1,0,0:0:0:0:
129,295,150645,1,0,0:0:0:0:
149,309,150736,1,0,0:0:0:0:
198,320,150827,1,0,1:0:0:0:
248,317,150918,1,0,0:0:0:0:
289,289,151009,1,0,0:0:0:0:
311,245,151100,1,0,0:0:0:0:
280,171,151190,21,0,1:0:0:0:
258,183,151281,1,0,0:0:0:0:
242,202,151372,1,0,0:0:0:0:
230,224,151463,1,0,0:0:0:0:
232,274,151554,1,0,1:0:0:0:
263,312,151645,1,0,0:0:0:0:
311,324,151736,1,0,0:0:0:0:
358,308,151827,1,0,0:0:0:0:
390,269,151918,54,0,B|415:226|415:226|408:153,1,100,2|0,1:2|0:0,0:0:0:0:
400,126,152190,2,0,P|387:70|344:45,1,100,2|0,0:0|0:0,0:0:0:0:
306,61,152463,2,0,L|206:61,1,100,2|0,0:0|1:0,0:0:0:0:
158,47,152736,2,0,P|119:77|112:126,1,100,2|0,0:0|0:0,0:0:0:0:
101,175,153009,2,0,B|97:226|97:226|122:269,1,100,2|0,1:2|0:0,0:0:0:0:
168,288,153281,1,0,0:0:0:0:
168,288,153372,22,0,B|206:277|206:277|288:296,1,100,2|0,1:2|0:0,0:0:0:0:
374,341,153736,1,0,1:0:0:0:
394,222,153918,2,0,P|372:161|308:131,1,100,0|0,0:0|1:0,0:0:0:0:
225,130,154281,1,0,0:0:0:0:
163,232,154463,1,0,1:0:0:0:
282,235,154645,1,0,0:0:0:0:
225,130,154827,54,0,P|169:110|110:136,1,100,0|0,1:0|0:0,0:0:0:0:
163,231,155190,2,0,P|173:289|225:327,1,100,0|0,1:0|0:0,0:0:0:0:
282,235,155554,2,0,P|327:196|334:132,1,100,0|0,1:0|0:0,0:0:0:0:
226,27,155918,1,0,1:0:0:0:
82,61,156100,1,0,0:0:0:0:
185,170,156281,21,0,1:0:0:0:
205,170,156372,1,0,0:0:0:0:
234,176,156463,1,0,0:0:0:0:
260,190,156554,1,0,0:0:0:0:
287,218,156645,1,0,1:0:0:0:
302,254,156736,1,0,0:0:0:0:
299,303,156827,1,0,0:0:0:0:
274,346,156918,1,0,0:0:0:0:
242,290,157009,53,0,1:0:0:0:
228,310,157100,1,0,0:0:0:0:
199,330,157190,1,0,0:0:0:0:
165,338,157281,1,0,0:0:0:0:
121,328,157372,1,0,1:0:0:0:
87,297,157463,1,0,0:0:0:0:
71,244,157554,1,0,0:0:0:0:
90,192,157645,1,0,0:0:0:0:
123,152,157736,22,0,B|139:115|139:115|123:53,1,100,2|0,1:2|0:0,0:0:0:0:
125,6,158009,2,0,P|180:8|228:50,1,100,2|0,0:0|0:0,0:0:0:0:
238,77,158281,2,0,B|256:124|256:124|278:75,1,100,2|0,0:0|1:0,0:0:0:0:
295,32,158554,2,0,P|337:6|387:6,1,100,2|0,0:0|0:0,0:0:0:0:
387,57,158827,2,0,B|373:115|373:115|389:152,1,100,2|0,1:2|0:0,0:0:0:0:
428,183,159100,1,0,0:0:0:0:
428,183,159190,54,0,P|438:260|417:308,1,100,6|0,1:2|0:0,0:0:0:0:
351,340,159554,1,0,1:0:0:0:
283,266,159736,2,0,L|311:169,1,100,0|0,0:0|1:0,0:0:0:0:
383,100,160100,2,0,P|434:89|503:122,1,100,0|0,0:0|1:0,0:0:0:0:
362,11,160463,22,0,L|235:19,1,100,0|0,0:0|1:0,0:0:0:0:
144,42,160827,1,0,0:0:0:0:
162,162,161009,2,0,P|214:191|264:184,1,100,2|0,1:2|0:0,0:0:0:0:
279,91,161281,1,2,0:0:0:0:
279,91,161372,2,0,P|278:31|247:-8,1,100,2|0,1:2|0:0,3:0:0:0:
159,26,161645,1,2,0:0:0:0:
159,26,161736,2,0,P|107:56|88:103,1,100,2|0,1:2|0:0,3:0:0:0:
21,181,162100,54,0,L|-4:293,1,100,0|0,1:0|0:0,0:0:0:0:
58,383,162463,1,0,1:0:0:0:
122,281,162645,2,0,B|154:262|154:262|219:261,1,100,0|0,0:0|1:0,0:0:0:0:
279,157,163009,2,0,P|343:167|391:136,1,100,0|0,0:0|1:0,0:0:0:0:
251,47,163372,22,0,P|187:37|139:68,1,100,0|0,0:0|1:0,0:0:0:0:
142,170,163736,1,0,0:0:0:0:
46,98,163918,2,0,B|37:48|37:48|57:4,1,100,2|0,1:2|0:0,0:0:0:0:
157,51,164190,1,2,0:0:0:0:
157,51,164281,2,0,B|204:68|204:68|232:107,1,100,2|0,1:2|0:0,0:0:0:0:
142,170,164554,1,2,0:0:0:0:
142,170,164645,2,0,B|103:202|103:202|55:207,1,100,2|0,1:2|0:0,0:0:0:0:
136,317,165009,53,4,1:2:0:0:
153,335,165100,1,0,0:0:0:0:
172,351,165190,1,0,0:0:0:0:
194,364,165281,1,0,0:0:0:0:
217,374,165372,1,0,1:0:0:0:
241,381,165463,1,0,0:0:0:0:
264,384,165554,1,0,0:0:0:0:
290,384,165645,1,0,0:0:0:0:
315,381,165736,21,2,1:2:0:0:
339,374,165827,1,0,0:0:0:0:
362,365,165918,1,0,0:0:0:0:
384,352,166009,1,0,0:0:0:0:
403,336,166100,1,0,1:0:0:0:
421,318,166190,1,0,0:0:0:0:
436,298,166281,1,0,0:0:0:0:
448,276,166372,1,0,0:0:0:0:
459,253,166463,53,0,1:0:0:0:
463,228,166554,1,0,0:0:0:0:
460,203,166645,1,0,0:0:0:0:
451,180,166736,1,0,0:0:0:0:
435,161,166827,1,0,1:0:0:0:
414,147,166918,1,0,0:0:0:0:
391,139,167009,1,0,0:0:0:0:
366,139,167100,1,2,0:0:0:0:
342,145,167190,21,2,1:2:0:0:
321,158,167281,1,0,0:0:0:0:
304,177,167372,1,0,0:0:0:0:
293,199,167463,1,0,0:0:0:0:
289,224,167554,1,0,1:0:0:0:
293,248,167645,1,0,0:0:0:0:
303,271,167736,1,0,0:0:0:0:
319,290,167827,1,0,0:0:0:0:
337,326,167918,53,4,1:2:0:0:
320,290,168009,1,0,0:0:0:0:
291,262,168100,1,0,0:0:0:0:
254,248,168190,1,0,0:0:0:0:
214,248,168281,1,0,1:0:0:0:
178,264,168372,1,0,0:0:0:0:
149,291,168463,1,0,0:0:0:0:
133,328,168554,1,2,0:0:0:0:
117,360,168645,21,2,1:2:0:0:
77,363,168736,1,0,0:0:0:0:
41,351,168827,1,0,0:0:0:0:
13,322,168918,1,0,0:0:0:0:
0,284,169009,1,0,1:0:0:0:
4,245,169100,1,0,0:0:0:0:
25,211,169190,1,0,0:0:0:0:
59,191,169281,1,0,0:0:0:0:
99,190,169372,53,4,1:2:0:0:
52,177,169463,1,0,2:0:0:0:
20,142,169554,1,0,2:0:0:0:
9,94,169645,1,0,2:0:0:0:
25,48,169736,1,0,2:0:0:0:
63,16,169827,1,0,2:0:0:0:
112,10,169918,1,0,2:0:0:0:
163,31,170009,1,2,0:0:0:0:
179,74,170100,21,2,1:2:0:0:
196,119,170190,1,0,1:0:0:0:
213,165,170281,1,0,1:0:0:0:
231,211,170372,1,0,1:0:0:0:
281,211,170463,54,0,L|311:227,1,25,0|0,1:0|1:0,1:0:0:0:
299,165,170554,2,0,L|329:181,1,25,0|0,1:0|1:0,1:0:0:0:
316,119,170645,1,0,1:0:0:0:
333,74,170736,1,0,1:0:0:0:
351,27,170827,22,0,L|245:29,1,100,4|0,1:2|1:2,1:2:0:0:
110,144,171190,1,0,1:0:0:0:
296,111,171372,1,0,0:0:0:0:
231,288,171554,1,0,0:0:0:0:
82,175,171736,1,0,1:0:0:0:
261,312,171918,1,0,0:0:0:0:
383,159,172100,1,0,1:0:0:0:
291,336,172281,54,0,P|342:346|406:320,1,100,0|0,1:0|0:0,0:0:0:0:
466,243,172645,1,0,1:0:0:0:
383,159,172827,2,0,L|264:165,1,100,0|0,0:0|1:0,0:0:0:0:
73,160,173190,1,0,0:0:0:0:
240,75,173372,1,0,1:0:0:0:
117,71,173554,1,0,0:0:0:0:
158,244,173736,22,0,L|181:349,1,100,0|0,1:0|0:0,0:0:0:0:
38,384,174100,1,0,1:0:0:0:
68,243,174281,2,0,L|45:138,1,100,0|0,0:0|1:0,0:0:0:0:
210,11,174645,1,0,0:0:0:0:
159,164,174827,1,0,1:0:0:0:
86,3,175009,1,0,0:0:0:0:
296,87,175190,54,0,L|406:101,1,100,0|0,1:0|0:0,0:0:0:0:
512,169,175554,2,0,L|402:183,1,100,0|0,1:0|0:0,0:0:0:0:
289,250,175918,2,0,L|399:264,1,100,0|0,1:0|0:0,0:0:0:0:
512,341,176281,2,0,L|449:348,1,50,0|0,1:0|0:0,0:0:0:0:
363,359,176463,2,0,L|313:366,1,50,0|0,1:0|0:0,0:0:0:0:
215,384,176645,21,0,1:0:0:0:
327,241,176827,1,0,0:0:0:0:
180,251,177009,1,0,1:0:0:0:
333,324,177190,2,0,P|389:300|407:256,1,100,0|0,0:0|1:0,0:0:0:0:
341,174,177554,1,0,0:0:0:0:
491,158,177736,1,0,1:0:0:0:
402,36,177918,1,0,0:0:0:0:
341,174,178100,53,0,1:0:0:0:
270,7,178281,1,0,0:0:0:0:
228,183,178463,1,0,1:0:0:0:
365,64,178645,1,0,0:0:0:0:
186,81,178827,2,0,B|153:98|153:98|94:188,1,100,0|0,1:0|0:0,0:0:0:0:
0,108,179190,2,0,B|32:90|32:90|67:37,1,100,0|0,1:0|0:0,0:0:0:0:
232,3,179554,21,0,1:0:0:0:
283,156,179736,1,0,0:0:0:0:
124,123,179918,1,0,1:0:0:0:
340,108,180100,2,0,L|349:215,1,100,0|0,0:0|1:0,0:0:0:0:
202,177,180463,1,0,0:0:0:0:
281,56,180645,1,0,1:0:0:0:
415,108,180827,1,0,0:0:0:0:
381,281,181009,54,0,P|325:307|268:296,1,100,0|0,1:0|0:0,0:0:0:0:
199,367,181372,2,0,P|148:331|129:276,1,100,0|0,1:0|0:0,0:0:0:0:
55,223,181736,2,0,P|53:190|61:165,1,50,0|0,1:0|0:0,0:0:0:0:
218,158,181918,2,0,P|220:182|215:207,1,50,0|0,1:0|0:0,0:0:0:0:
82,102,182100,2,0,P|114:64|161:52,1,100
281,56,182463,21,4,1:2:0:0:
218,158,182645,1,0,0:0:0:0:
162,52,182827,1,0,1:0:0:0:
342,157,183009,2,0,B|374:186|374:186|397:253,1,100,0|0,0:0|1:0,0:0:0:0:
155,260,183372,1,0,0:0:0:0:
281,56,183554,1,4,1:2:0:0:
224,338,183918,53,0,1:0:0:0:
300,215,184100,1,0,0:0:0:0:
367,342,184281,1,0,1:0:0:0:
152,217,184463,2,0,B|120:188|120:188|97:121,1,100,0|0,0:0|1:0,0:0:0:0:
376,92,184827,1,0,0:0:0:0:
224,338,185009,1,4,1:2:0:0:
119,93,185372,21,0,1:0:0:0:
274,144,185554,1,0,0:0:0:0:
334,28,185736,1,0,1:0:0:0:
191,136,185918,2,0,P|200:187|242:219,1,100,0|0,0:0|1:0,0:0:0:0:
422,279,186281,1,0,0:0:0:0:
265,341,186463,1,0,1:0:0:0:
402,384,186645,1,0,0:0:0:0:
356,208,186827,54,0,B|388:183|388:183|459:180,1,100,0|0,1:0|0:0,0:0:0:0:
158,208,187190,2,0,B|126:183|126:183|55:180,1,100,0|0,1:0|0:0,0:0:0:0:
257,284,187554,2,0,L|257:388,1,100,0|0,1:0|0:0,0:0:0:0:
318,88,187918,2,0,L|365:49,1,50,0|0,1:0|0:0,0:0:0:0:
193,88,188100,2,0,L|147:49,1,50,0|0,1:0|0:0,0:0:0:0:
16,151,188281,21,0,1:0:0:0:
9,174,188372,1,0,0:0:0:0:
9,201,188463,1,0,0:0:0:0:
13,223,188554,1,0,0:0:0:0:
22,248,188645,1,0,1:0:0:0:
37,267,188736,1,0,0:0:0:0:
55,284,188827,1,0,0:0:0:0:
76,299,188918,1,0,0:0:0:0:
99,307,189009,53,0,1:0:0:0:
123,311,189100,1,0,0:0:0:0:
148,310,189190,1,0,0:0:0:0:
173,304,189281,1,0,0:0:0:0:
195,293,189372,1,0,1:0:0:0:
216,278,189463,1,0,0:0:0:0:
231,258,189554,1,0,0:0:0:0:
243,237,189645,1,0,0:0:0:0:
258,216,189736,21,0,1:0:0:0:
270,194,189827,1,0,0:0:0:0:
285,174,189918,1,0,0:0:0:0:
306,159,190009,1,0,1:0:0:0:
328,148,190100,1,0,1:0:0:0:
353,142,190190,1,0,0:0:0:0:
378,141,190281,1,0,0:0:0:0:
402,145,190372,1,0,1:0:0:0:
425,153,190463,53,0,1:0:0:0:
446,168,190554,1,0,0:0:0:0:
463,185,190645,1,0,0:0:0:0:
478,204,190736,1,0,1:0:0:0:
487,229,190827,1,0,1:0:0:0:
492,251,190918,1,0,0:0:0:0:
492,278,191009,1,0,0:0:0:0:
485,301,191100,1,0,1:0:0:0:
465,335,191190,21,4,1:2:0:0:
433,359,191281,1,0,0:0:0:0:
395,369,191372,1,0,0:0:0:0:
356,362,191463,1,0,0:0:0:0:
309,293,191554,53,0,1:0:0:0:
336,279,191645,1,0,0:0:0:0:
365,277,191736,1,0,0:0:0:0:
393,288,191827,1,0,0:0:0:0:
357,362,191918,21,4,1:3:0:0:
317,370,192009,1,0,0:3:0:0:
279,364,192100,1,0,0:3:0:0:
245,343,192190,1,0,0:3:0:0:
218,316,192281,54,0,L|234:239,1,50,0|0,1:0|0:0,0:0:0:0:
145,185,192463,2,0,L|129:262,1,50,0|0,1:0|0:0,0:0:0:0:
256,136,192645,21,4,1:2:0:0:
152,290,194100,54,0,B|113:309|113:309|59:321|31:287,1,119.999996337891,6|0,1:2|0:0,0:0:0:0:
228,201,194463,2,0,B|249:240|249:240|250:326,1,119.999996337891,0|0,1:0|0:0,0:0:0:0:
369,379,194827,1,0,1:0:0:0:
398,384,194918,1,0,0:0:0:0:
427,381,195009,1,0,0:0:0:0:
454,367,195100,1,0,0:0:0:0:
475,346,195190,2,0,L|475:225,1,119.999996337891,0|0,1:0|0:0,0:0:0:0:
403,128,195554,54,0,P|309:143|281:196,1,119.999996337891,0|0,1:0|0:0,0:0:0:0:
209,241,195918,2,0,P|160:274|102:270,1,119.999996337891,0|0,1:0|0:0,0:0:0:0:
15,115,196281,1,0,1:0:0:0:
136,186,196463,1,0,0:0:0:0:
136,45,196645,1,0,1:0:0:0:
15,256,196827,1,0,0:0:0:0:
136,327,197009,53,0,1:0:0:0:
159,308,197100,1,0,0:0:0:0:
187,296,197190,1,2,0:0:0:0:
216,291,197281,1,0,0:0:0:0:
246,292,197372,1,0,1:0:0:0:
275,301,197463,1,0,0:0:0:0:
300,316,197554,1,2,0:0:0:0:
328,328,197645,1,0,0:0:0:0:
356,337,197736,5,0,1:0:0:0:
385,343,197827,1,0,0:0:0:0:
415,340,197918,1,2,0:0:0:0:
442,329,198009,1,0,0:0:0:0:
466,310,198100,1,0,1:0:0:0:
483,286,198190,1,0,0:0:0:0:
492,257,198281,1,2,0:0:0:0:
492,227,198372,1,0,0:0:0:0:
484,198,198463,38,0,B|446:169|446:169|360:181,1,119.999996337891,0|0,1:0|0:0,0:0:0:0:
256,160,198827,2,0,P|240:94|272:27,1,119.999996337891,0|0,1:0|0:0,0:0:0:0:
361,104,199190,1,2,1:2:0:0:
256,160,199372,1,0,0:0:0:0:
256,160,199463,1,0,0:0:0:0:
256,160,199554,1,2,1:2:0:0:
256,288,199736,1,0,0:0:0:0:
367,229,199918,54,0,P|383:286|369:344,1,119.999996337891,4|0,1:0|0:0,0:0:0:0:
142,344,200281,2,0,P|128:286|144:229,1,119.999996337891,0|0,1:0|0:0,0:0:0:0:
256,160,200645,1,0,1:0:0:0:
361,102,200827,1,0,0:0:0:0:
256,45,201009,1,0,1:0:0:0:
151,102,201190,1,0,0:0:0:0:
200,272,201372,54,0,P|256:289|312:271,1,119.999996337891,4|0,1:0|0:0,0:0:0:0:
311,111,201736,2,0,P|255:94|199:112,1,119.999996337891,0|0,1:0|0:0,0:0:0:0:
104,282,202100,1,0,1:0:0:0:
256,364,202281,1,0,0:0:0:0:
407,282,202463,1,0,1:0:0:0:
256,198,202645,1,0,0:0:0:0:
142,156,202827,6,0,P|119:93|151:34,1,119.999996337891,4|0,1:0|0:0,0:0:0:0:
299,39,203190,1,0,1:0:0:0:
224,182,203372,2,0,P|180:233|113:235,1,119.999996337891,0|0,0:0|1:0,0:0:0:0:
162,79,203736,1,0,0:0:0:0:
310,158,203918,1,0,1:0:0:0:
229,305,204100,1,0,0:0:0:0:
377,384,204281,38,0,P|436:363|466:299,1,119.999996337891,0|0,1:0|0:0,0:0:0:0:
489,197,204554,1,0,1:0:0:0:
469,174,204645,2,0,L|335:187,1,119.999996337891,0|0,1:0|0:0,0:0:0:0:
279,243,204918,1,0,1:0:0:0:
259,266,205009,1,0,1:0:0:0:
82,299,205190,1,0,1:0:0:0:
259,332,205372,1,0,1:0:0:0:
82,365,205554,1,0,1:0:0:0:
82,233,205736,54,0,B|109:271|109:271|216:257,1,119.999996337891,4|0,1:2|0:0,0:0:0:0:
339,257,206100,2,0,P|373:311|361:373,1,119.999996337891,0|0,1:0|0:0,0:0:0:0:
200,166,206463,1,0,1:0:0:0:
229,170,206554,1,0,0:0:0:0:
259,175,206645,1,0,0:0:0:0:
288,179,206736,1,0,0:0:0:0:
318,184,206827,2,0,P|336:137|419:105,1,119.999996337891,0|0,1:0|0:0,0:0:0:0:
497,165,207190,53,0,1:0:0:0:
414,5,207372,2,0,L|291:26,1,119.999996337891,0|0,0:0|1:0,0:0:0:0:
116,48,207736,1,0,0:0:0:0:
295,65,207918,1,0,1:0:0:0:
116,82,208100,1,0,0:0:0:0:
295,99,208281,2,0,L|413:119,1,119.999996337891,0|0,1:0|0:0,0:0:0:0:
492,217,208645,5,0,1:0:0:0:
494,246,208736,1,0,0:0:0:0:
489,276,208827,1,2,0:0:0:0:
476,303,208918,1,0,0:0:0:0:
457,326,209009,1,0,1:0:0:0:
433,343,209100,1,0,0:0:0:0:
404,353,209190,1,2,0:0:0:0:
375,355,209281,1,0,0:0:0:0:
345,350,209372,37,0,1:0:0:0:
320,333,209463,1,0,0:0:0:0:
293,321,209554,1,2,0:0:0:0:
264,315,209645,1,0,0:0:0:0:
234,313,209736,1,0,1:0:0:0:
204,317,209827,1,0,0:0:0:0:
175,326,209918,1,2,0:0:0:0:
149,340,210009,1,0,0:0:0:0:
125,358,210100,54,0,P|71:375|7:354,1,119.999996337891,0|0,1:0|0:0,0:0:0:0:
0,237,210372,1,0,1:0:0:0:
16,211,210463,2,0,P|70:194|134:215,1,119.999996337891,0|0,1:0|0:0,0:0:0:0:
255,302,210827,2,0,L|381:298,1,119.999996337891,0|0,1:0|0:0,0:0:0:0:
447,244,211100,1,0,1:0:0:0:
459,217,211190,1,0,1:0:0:0:
420,70,211372,1,0,1:0:0:0:
267,92,211554,54,0,P|213:137|195:200,1,119.999996337891,4|0,1:0|0:0,0:0:0:0:
126,280,211918,2,0,L|-5:298,1,119.999996337891,0|0,1:0|0:0,0:0:0:0:
82,166,212281,1,0,1:0:0:0:
108,181,212372,1,0,0:0:0:0:
137,189,212463,1,0,0:0:0:0:
167,189,212554,1,0,0:0:0:0:
196,182,212645,2,0,P|231:229|238:288,1,119.999996337891,0|0,1:0|0:0,0:0:0:0:
316,381,213009,6,0,L|447:377,1,119.999996337891,4|0,1:0|0:0,0:0:0:0:
502,277,213372,2,0,P|494:218|459:170,1,119.999996337891,0|0,1:0|0:0,0:0:0:0:
334,297,213736,1,0,1:0:0:0:
304,297,213827,1,0,0:0:0:0:
274,298,213918,1,0,0:0:0:0:
244,299,214009,1,0,0:0:0:0:
214,300,214100,2,0,B|185:275|185:275|92:278,1,119.999996337891,0|0,1:0|0:0,0:0:0:0:
13,198,214463,38,0,P|12:112|48:74,1,119.999996337891,4|0,1:0|0:0,0:0:0:0:
124,11,214736,1,0,1:0:0:0:
144,32,214827,2,0,L|290:29,1,119.999996337891,0|0,1:0|0:0,0:0:0:0:
368,91,215100,1,0,1:0:0:0:
348,112,215190,2,0,L|202:109,1,119.999996337891,0|0,1:0|0:0,0:0:0:0:
127,175,215463,1,0,1:0:0:0:
147,196,215554,1,0,1:0:0:0:
259,287,215736,1,0,1:0:0:0:
396,210,215918,54,0,L|436:182,3,39.9999987792969,0|0|0|0,1:0|1:0|1:0|1:0,1:0:0:0:
266,132,216281,2,0,L|226:104,3,39.9999987792969,0|0|0|0,1:0|1:0|1:0|1:0,1:0:0:0:
390,108,216645,54,0,L|438:100,1,29.9999990844727,0|0,1:0|1:0,1:0:0:0:
378,80,216736,2,0,L|423:61,1,29.9999990844727,0|0,1:0|1:0,1:0:0:0:
360,56,216827,1,0,1:0:0:0:
338,36,216918,1,0,1:0:0:0:
312,21,217009,1,0,1:0:0:0:
283,13,217100,1,0,1:0:0:0:
253,11,217190,1,0,1:0:0:0:
224,16,217281,1,0,1:0:0:0:
188,35,217372,5,4,1:2:0:0:
148,33,217463,1,0,0:0:0:0:
109,41,217554,1,0,0:0:0:0:
73,58,217645,1,0,0:0:0:0:
42,84,217736,1,0,1:0:0:0:
19,117,217827,1,0,0:0:0:0:
5,154,217918,1,0,0:0:0:0:
0,194,218009,1,0,0:0:0:0:
6,233,218100,37,0,1:0:0:0:
21,270,218190,1,0,0:0:0:0:
45,302,218281,1,0,0:0:0:0:
76,327,218372,1,0,0:0:0:0:
113,344,218463,1,0,1:0:0:0:
152,351,218554,1,0,0:0:0:0:
192,348,218645,1,0,0:0:0:0:
229,335,218736,1,0,0:0:0:0:
259,309,218827,53,0,1:0:0:0:
286,279,218917,1,0,0:0:0:0:
320,258,219008,1,0,0:0:0:0:
358,246,219099,1,0,0:0:0:0:
397,243,219190,1,0,1:0:0:0:
432,260,219281,1,0,0:0:0:0:
451,295,219372,1,0,0:0:0:0:
446,335,219463,1,0,0:0:0:0:
419,363,219554,53,0,1:0:0:0:
380,371,219645,1,0,0:0:0:0:
344,355,219736,1,0,0:0:0:0:
324,320,219827,1,0,0:0:0:0:
329,280,219918,1,0,1:0:0:0:
341,242,220008,1,0,0:0:0:0:
330,205,220099,1,0,0:0:0:0:
296,184,220190,1,0,0:0:0:0:
256,188,220281,5,4,1:0:0:0:
116,330,220463,1,0,0:0:0:0:
116,330,220554,1,0,0:0:0:0:
116,330,220645,1,0,1:0:0:0:
50,190,220827,1,0,0:0:0:0:
50,190,220918,1,0,0:0:0:0:
50,190,221009,37,2,1:2:0:0:
116,54,221190,1,0,0:0:0:0:
116,54,221281,1,0,0:0:0:0:
116,54,221372,1,2,1:2:0:0:
256,188,221554,1,0,0:0:0:0:
256,188,221645,1,0,0:0:0:0:
256,188,221736,53,2,1:2:0:0:
279,196,221827,1,0,0:0:0:0:
303,204,221918,1,0,0:0:0:0:
326,212,222009,1,0,0:0:0:0:
371,236,222100,1,0,1:0:0:0:
394,244,222190,1,0,0:0:0:0:
418,252,222281,1,0,0:0:0:0:
441,260,222372,1,0,0:0:0:0:
488,276,222463,53,0,1:0:0:0:
464,284,222554,1,0,0:0:0:0:
441,292,222645,1,0,0:0:0:0:
417,300,222736,1,0,0:0:0:0:
373,324,222827,1,0,1:0:0:0:
350,332,222918,1,0,0:0:0:0:
326,340,223009,1,0,0:0:0:0:
303,348,223100,1,0,0:0:0:0:
255,363,223190,5,4,1:0:0:0:
215,358,223281,1,0,0:0:0:0:
178,343,223372,1,0,0:0:0:0:
147,318,223463,1,0,0:0:0:0:
124,286,223554,1,0,1:0:0:0:
110,248,223645,1,0,0:0:0:0:
108,208,223736,1,0,0:0:0:0:
117,170,223827,1,0,0:0:0:0:
165,107,223918,37,4,1:0:0:0:
200,88,224009,1,0,0:0:0:0:
239,79,224100,1,0,0:0:0:0:
279,82,224190,1,0,0:0:0:0:
316,96,224281,1,0,1:0:0:0:
349,119,224372,1,0,0:0:0:0:
373,151,224463,1,0,0:0:0:0:
388,188,224554,1,0,0:0:0:0:
384,267,224645,53,4,1:0:0:0:
256,320,224827,1,0,0:0:0:0:
256,320,224918,1,0,0:0:0:0:
256,320,225009,1,0,1:0:0:0:
128,267,225190,53,4,1:0:0:0:
256,45,225372,1,4,1:0:0:0:
256,320,225554,1,0,0:0:0:0:
256,320,225645,1,0,0:0:0:0:
256,320,225736,1,0,1:0:0:0:
443,299,225918,1,0,0:0:0:0:
447,303,226009,1,0,0:0:0:0:
451,307,226100,5,0,1:0:0:0:
455,311,226190,1,0,0:0:0:0:
459,315,226281,2,0,L|450:370,1,50,0|0,0:0|0:0,0:0:0:0:
340,313,226463,1,0,1:0:0:0:
344,317,226554,1,0,0:0:0:0:
348,321,226645,2,0,L|339:376,1,50,0|0,0:0|0:0,0:0:0:0:
237,327,226827,38,0,L|228:382,1,50,0|0,1:0|0:0,0:0:0:0:
126,334,227009,2,0,L|117:389,1,50
15,340,227190,1,0,1:0:0:0:
3,301,227281,1,0,0:0:0:0:
3,262,227372,1,0,0:0:0:0:
16,224,227463,1,0,0:0:0:0:
41,192,227554,53,4,1:0:0:0:
45,196,227645,1,0,0:0:0:0:
49,200,227736,2,0,L|58:255,1,50,0|0,0:0|0:0,0:0:0:0:
160,206,227918,2,0,L|169:261,1,50,0|0,1:0|0:0,0:0:0:0:
271,212,228100,2,0,L|280:267,1,50,0|0,0:0|0:0,0:0:0:0:
382,219,228281,53,4,1:0:0:0:
401,184,228372,1,0,0:0:0:0:
406,144,228463,1,0,0:0:0:0:
397,105,228554,1,0,0:0:0:0:
375,72,228645,1,0,1:0:0:0:
343,49,228736,1,0,0:0:0:0:
305,39,228827,1,0,0:0:0:0:
265,43,228918,1,0,0:0:0:0:
232,66,229009,6,0,B|195:115|195:115|188:261,1,200,4|0,1:0|1:0,0:0:0:0:
162,333,229463,1,0,0:0:0:0:
146,345,229554,1,0,0:0:0:0:
130,357,229645,1,0,0:0:0:0:
115,370,229736,38,0,L|54:372,1,50,4|0,1:0|0:0,0:0:0:0:
0,265,229918,1,0,0:0:0:0:
16,253,230009,1,0,0:0:0:0:
32,241,230100,1,0,1:0:0:0:
57,240,230190,1,0,0:0:0:0:
82,239,230281,1,0,0:0:0:0:
107,238,230372,1,0,0:0:0:0:
132,260,230463,53,0,1:0:0:0:
157,259,230554,1,0,0:0:0:0:
182,258,230645,1,0,0:0:0:0:
207,257,230736,1,0,0:0:0:0:
214,280,230827,1,0,1:0:0:0:
221,303,230918,1,0,0:0:0:0:
229,327,231009,1,0,0:0:0:0:
237,351,231100,1,0,0:0:0:0:
244,375,231190,53,0,1:0:0:0:
284,382,231281,1,0,0:0:0:0:
320,383,231372,1,0,0:0:0:0:
358,369,231463,1,0,0:0:0:0:
386,341,231554,1,0,1:0:0:0:
379,291,231645,1,0,0:0:0:0:
397,245,231736,1,0,0:0:0:0:
435,213,231827,1,0,0:0:0:0:
483,204,231918,5,4,1:0:0:0:
508,161,232009,1,0,0:0:0:0:
508,112,232100,1,0,0:0:0:0:
482,70,232190,1,0,0:0:0:0:
419,39,232281,1,0,1:0:0:0:
370,43,232372,1,0,0:0:0:0:
330,73,232463,1,0,0:0:0:0:
312,118,232554,1,0,0:0:0:0:
298,186,232645,37,4,1:0:0:0:
279,231,232736,1,0,0:0:0:0:
244,267,232827,1,0,0:0:0:0:
198,286,232918,1,0,0:0:0:0:
128,286,233009,1,0,1:0:0:0:
82,267,233100,1,0,0:0:0:0:
47,231,233190,1,0,0:0:0:0:
28,185,233281,1,0,0:0:0:0:
43,116,233372,53,4,1:0:0:0:
62,120,233918,1,0,0:0:0:0:
81,125,234281,53,0,0:0:0:0:
99,130,234372,1,0,0:0:0:0:
118,135,234463,1,0,0:0:0:0:
137,140,234554,1,0,0:0:0:0:
156,146,234645,1,0,0:0:0:0:
175,151,234736,1,0,0:0:0:0:
194,156,234827,5,4,1:0:0:0:
213,161,235372,1,0,0:0:0:0:
232,166,235554,37,0,0:0:0:0:
251,171,235645,1,0,0:0:0:0:
270,177,235736,1,0,0:0:0:0:
289,182,235827,1,0,0:0:0:0:
307,187,235918,1,0,0:0:0:0:
326,193,236009,1,0,0:0:0:0:
345,198,236100,1,0,0:0:0:0:
364,203,236190,1,0,0:0:0:0:
383,209,236281,53,4,1:0:0:0:
372,246,236372,1,0,0:0:0:0:
362,284,236463,1,0,0:0:0:0:
351,322,236554,1,0,0:0:0:0:
334,379,236645,1,0,0:0:0:0:
323,341,236736,1,0,0:0:0:0:
313,303,236827,1,0,0:0:0:0:
302,266,236918,1,0,0:0:0:0:
285,208,237009,53,0,0:0:0:0:
274,246,237100,1,0,0:0:0:0:
264,284,237190,1,0,0:0:0:0:
253,321,237281,1,0,0:0:0:0:
236,378,237372,1,0,0:0:0:0:
225,340,237463,1,0,0:0:0:0:
215,302,237554,1,0,0:0:0:0:
204,265,237645,1,0,0:0:0:0:
187,207,237736,6,0,L|120:192,1,50,2|0,1:2|0:0,0:0:0:0:
168,80,237918,2,0,L|101:65,1,50,2|0,1:2|0:0,0:0:0:0:
344,80,238100,2,0,L|411:65,1,50,2|0,1:2|0:0,0:0:0:0:
325,207,238281,2,0,L|392:192,1,50,2|0,1:2|0:0,0:0:0:0:
256,347,238463,37,0,1:0:0:0:
256,322,238554,1,0,1:0:0:0:
256,297,238645,1,0,1:0:0:0:
256,272,238736,1,0,1:0:0:0:
256,247,238827,1,0,1:0:0:0:
209,232,238918,1,0,1:0:0:0:
189,188,239009,1,0,1:0:0:0:
209,143,239100,1,0,1:0:0:0:
254,127,239190,37,6,1:2:0:0:
325,207,239372,1,0,0:0:0:0:
374,198,239463,1,0,0:0:0:0:
410,164,239554,1,2,1:2:0:0:
396,41,239736,1,0,0:0:0:0:
384,63,239827,1,0,0:0:0:0:
372,85,239918,5,0,1:0:0:0:
334,90,240009,1,0,0:0:0:0:
297,95,240100,1,0,0:0:0:0:
260,100,240190,1,0,0:0:0:0:
223,105,240281,1,0,1:0:0:0:
174,109,240372,1,0,0:0:0:0:
133,137,240463,1,0,0:0:0:0:
113,182,240554,1,0,0:0:0:0:
120,231,240645,70,0,L|145:296,1,50,2|0,1:2|0:0,0:0:0:0:
255,235,240827,1,0,0:0:0:0:
255,235,240918,2,0,L|302:217,1,50,2|0,0:2|1:0,0:0:0:0:
260,100,241100,1,0,0:0:0:0:
260,100,241190,2,0,L|242:53,1,50,2|0,0:2|0:0,0:0:0:0:
124,95,241372,5,2,1:2:0:0:
101,104,241463,1,0,0:0:0:0:
77,113,241554,1,0,0:0:0:0:
56,146,241645,1,0,0:0:0:0:
46,185,241736,1,0,1:0:0:0:
49,224,241827,1,0,0:0:0:0:
65,261,241918,1,0,0:0:0:0:
111,243,242009,1,0,0:0:0:0:
158,225,242100,69,0,1:0:0:0:
197,255,242190,1,0,0:0:0:0:
245,268,242281,1,0,0:0:0:0:
294,262,242372,1,0,0:0:0:0:
337,237,242463,1,2,1:2:0:0:
487,175,242645,1,2,0:2:0:0:
498,197,242736,1,0,0:0:0:0:
510,219,242827,5,0,1:0:0:0:
472,232,242918,1,0,0:0:0:0:
441,257,243009,1,0,0:0:0:0:
420,291,243100,1,0,0:0:0:0:
410,329,243190,1,0,1:0:0:0:
412,280,243281,1,0,0:0:0:0:
400,231,243372,1,0,0:0:0:0:
374,189,243463,1,0,0:0:0:0:
337,155,243554,70,0,L|264:142,1,50,2|0,1:2|0:0,0:0:0:0:
152,160,243736,1,0,0:0:0:0:
152,160,243827,2,0,P|148:192|152:216,1,50,2|0,0:2|1:0,0:0:0:0:
360,224,244009,1,0,0:0:0:0:
359,224,244100,2,0,P|364:199|361:174,1,50,2|0,0:2|0:0,0:0:0:0:
264,75,244281,6,0,L|191:62,1,50,2|0,1:2|0:0,0:0:0:0:
125,200,244463,1,0,0:0:0:0:
125,200,244554,2,0,P|135:238|149:263,1,50,2|0,0:2|1:0,0:0:0:0:
386,183,244736,1,0,0:0:0:0:
386,183,244827,2,0,P|380:153|366:126,1,50,2|0,1:2|0:0,0:0:0:0:
256,24,245009,69,2,1:2:0:0:
120,44,245190,1,0,0:0:0:0:
104,24,245281,1,0,0:0:0:0:
88,10,245372,1,2,1:2:0:0:
49,14,245463,1,0,0:0:0:0:
18,39,245554,1,0,0:0:0:0:
0,74,245645,1,0,0:0:0:0:
19,110,245736,5,0,1:0:0:0:
7,149,245827,1,0,0:0:0:0:
14,188,245918,1,0,0:0:0:0:
36,221,246009,1,0,0:0:0:0:
70,242,246100,1,0,1:0:0:0:
109,238,246190,1,0,0:0:0:0:
149,235,246281,1,0,0:0:0:0:
189,232,246372,1,0,0:0:0:0:
229,230,246463,69,0,1:0:0:0:
260,254,246554,1,0,0:0:0:0:
275,290,246645,1,0,0:0:0:0:
271,330,246736,1,0,0:0:0:0:
249,362,246827,2,0,L|180:378,1,50,2|0,1:2|0:0,0:0:0:0:
92,283,247009,2,0,L|140:272,1,50,2|0,0:2|0:0,0:0:0:0:
275,290,247190,5,0,1:0:0:0:
298,323,247281,1,0,0:0:0:0:
331,345,247372,1,0,0:0:0:0:
369,354,247463,1,0,0:0:0:0:
409,349,247554,1,0,1:0:0:0:
443,329,247645,1,0,0:0:0:0:
469,299,247736,1,0,0:0:0:0:
481,261,247827,1,0,0:0:0:0:
479,221,247918,70,0,L|445:158,1,50,2|0,1:2|0:0,0:0:0:0:
502,92,248100,1,0,0:0:0:0:
502,92,248190,2,0,L|441:54,1,50,2|0,0:2|0:0,0:0:0:0:
350,100,248372,2,0,L|289:62,1,50,2|0,0:2|0:0,0:0:0:0:
202,26,248554,1,0,0:0:0:0:
202,26,248645,6,0,L|152:23,1,50,2|0,1:2|0:0,0:0:0:0:
66,116,248827,1,0,0:0:0:0:
46,150,248918,1,0,0:0:0:0:
40,191,249009,1,0,1:0:0:0:
47,228,249100,1,0,0:0:0:0:
69,262,249190,1,0,0:0:0:0:
102,285,249281,1,0,0:0:0:0:
138,298,249372,70,0,L|221:285,1,50,0|0,1:0|0:0,0:0:0:0:
305,195,249554,1,0,0:0:0:0:
345,190,249645,1,0,0:0:0:0:
385,186,249736,1,0,1:0:0:0:
404,118,249827,1,0,0:0:0:0:
384,61,249918,1,0,0:0:0:0:
336,24,250009,1,0,0:0:0:0:
286,14,250100,5,0,1:0:0:0:
238,28,250190,1,0,0:0:0:0:
208,54,250281,1,0,1:0:0:0:
188,89,250372,1,0,0:0:0:0:
182,118,250463,1,0,1:0:0:0:
185,147,250554,1,0,0:0:0:0:
193,175,250645,1,0,1:0:0:0:
232,205,250736,1,0,0:0:0:0:
271,235,250827,69,2,1:2:0:0:
216,383,251009,1,0,0:0:0:0:
176,353,251100,1,0,0:0:0:0:
137,323,251190,1,2,1:2:0:0:
193,175,251372,1,0,0:0:0:0:
212,190,251463,1,0,0:0:0:0:
232,205,251554,5,0,1:0:0:0:
252,190,251645,1,0,0:0:0:0:
271,175,251736,1,0,0:0:0:0:
290,190,251827,1,0,0:0:0:0:
310,205,251918,1,0,1:0:0:0:
343,226,252009,1,0,0:0:0:0:
382,227,252100,1,0,0:0:0:0:
417,207,252190,1,0,0:0:0:0:
436,172,252281,70,0,L|449:114,1,50,2|0,1:2|0:0,0:0:0:0:
359,9,252463,1,0,0:0:0:0:
359,9,252554,2,0,L|284:15,1,50,2|0,0:2|1:0,0:0:0:0:
219,104,252736,1,0,0:0:0:0:
219,104,252827,2,0,L|144:98,1,50,2|0,0:2|0:0,0:0:0:0:
87,3,253009,5,2,1:2:0:0:
63,5,253100,1,0,0:0:0:0:
38,6,253190,1,0,0:0:0:0:
34,45,253281,1,0,0:0:0:0:
41,85,253372,1,0,1:0:0:0:
57,121,253463,1,0,0:0:0:0:
81,153,253554,1,0,0:0:0:0:
112,178,253645,1,0,0:0:0:0:
148,195,253736,69,0,1:0:0:0:
194,176,253827,1,0,0:0:0:0:
242,187,253918,1,0,0:0:0:0:
274,224,254009,1,0,0:0:0:0:
279,273,254100,1,2,1:2:0:0:
154,294,254281,1,2,0:0:0:0:
129,294,254372,1,0,0:0:0:0:
104,294,254463,5,0,1:0:0:0:
94,255,254554,1,0,0:0:0:0:
94,215,254645,1,0,0:0:0:0:
103,177,254736,1,0,0:0:0:0:
126,144,254827,1,0,1:0:0:0:
145,144,254918,1,0,0:0:0:0:
165,145,255009,1,0,0:0:0:0:
185,145,255100,1,0,0:0:0:0:
220,166,255190,69,0,1:0:0:0:
249,166,255281,1,0,0:0:0:0:
279,167,255372,1,0,0:0:0:0:
309,168,255463,1,0,0:0:0:0:
358,205,255554,1,0,1:0:0:0:
397,206,255645,1,0,0:0:0:0:
437,207,255736,1,0,0:0:0:0:
477,208,255827,1,0,0:0:0:0:
512,280,255918,5,0,1:0:0:0:
475,313,256009,1,0,0:0:0:0:
426,326,256100,1,0,0:0:0:0:
377,315,256190,1,0,0:0:0:0:
301,275,256281,1,0,1:0:0:0:
252,264,256372,1,0,0:0:0:0:
203,277,256463,1,0,1:0:0:0:
166,310,256554,1,0,0:0:0:0:
151,358,256645,70,0,L|143:293,1,50,0|0,1:0|0:0,0:0:0:0:
188,150,256827,1,2,0:0:0:0:
223,107,256918,1,0,0:0:0:0:
275,92,257009,1,0,1:0:0:0:
327,106,257100,1,0,0:0:0:0:
365,147,257190,1,0,0:0:0:0:
368,201,257281,1,0,0:0:0:0:
349,252,257372,6,0,L|357:323,1,50,0|0,1:0|0:0,0:0:0:0:
217,321,257554,1,2,0:0:0:0:
178,368,257645,1,0,0:0:0:0:
121,384,257736,1,0,1:0:0:0:
64,369,257827,1,0,0:0:0:0:
22,324,257918,1,0,0:0:0:0:
19,264,258009,1,0,0:0:0:0:
39,208,258100,70,0,L|29:129,1,50,0|0,1:0|0:0,0:0:0:0:
141,77,258281,1,0,0:0:0:0:
144,101,258372,1,0,0:0:0:0:
147,126,258463,1,2,1:2:0:0:
96,332,258645,1,0,0:0:0:0:
93,307,258736,1,0,0:0:0:0:
90,283,258827,5,0,1:0:0:0:
123,260,258918,1,0,0:0:0:0:
160,245,259009,1,0,0:0:0:0:
199,238,259100,1,0,0:0:0:0:
239,240,259190,1,0,1:0:0:0:
277,251,259281,1,0,0:0:0:0:
313,270,259372,1,0,0:0:0:0:
343,296,259463,1,0,0:0:0:0:
367,328,259554,69,2,1:2:0:0:
391,334,259645,1,0,0:0:0:0:
415,340,259736,1,0,0:0:0:0:
439,347,259827,1,0,1:0:0:0:
503,302,259918,1,2,1:2:0:0:
472,263,260009,1,0,0:0:0:0:
428,241,260100,1,0,0:0:0:0:
379,238,260190,1,0,1:0:0:0:
333,257,260281,5,2,1:2:0:0:
308,263,260372,1,0,0:0:0:0:
284,269,260463,1,0,1:0:0:0:
260,276,260554,1,0,0:0:0:0:
196,231,260645,1,2,1:2:0:0:
227,192,260736,1,0,0:0:0:0:
271,170,260827,1,0,1:0:0:0:
320,167,260918,1,0,0:0:0:0:
360,184,261009,69,0,1:0:0:0:
415,203,261100,1,0,1:0:0:0:
472,185,261190,1,0,1:0:0:0:
507,138,261281,1,0,1:0:0:0:
508,79,261372,1,0,1:0:0:0:
474,31,261463,1,0,1:0:0:0:
419,12,261554,1,0,1:0:0:0:
362,29,261645,1,0,1:0:0:0:
327,76,261736,5,0,1:0:0:0:
312,134,261827,1,0,1:0:0:0:
277,182,261918,1,0,1:0:0:0:
227,215,262009,1,0,1:0:0:0:
167,214,262100,2,0,B|142:191|127:216|134:240|156:255|187:242|207:217|242:207|279:223|306:250,1,200,0|4,1:0|1:2,0:0:0:0:
256,334,274100,22,0,L|357:364,1,100,0|0,1:0|0:0,0:0:0:0:
380,254,274463,2,0,L|481:284,2,100,0|0|8,1:0|0:0|0:0,0:0:0:0:
256,192,275009,1,0,0:0:0:0:
476,162,275190,1,0,0:0:0:0:
256,334,275554,6,0,L|155:364,1,100,0|0,1:0|0:0,0:0:0:0:
132,254,275918,2,0,L|29:283,2,100,0|0|8,1:0|0:0|0:0,0:0:0:0:
256,192,276463,1,0,0:0:0:0:
36,162,276645,1,0,0:0:0:0:
208,16,277009,6,0,P|256:0|306:21,1,100,0|0,1:0|0:0,0:0:0:0:
256,192,277372,2,0,L|256:85,2,100,0|0|8,1:0|0:0|0:0,0:0:0:0:
335,248,277918,1,0,0:0:0:0:
177,248,278100,1,0,0:0:0:0:
343,149,278281,1,0,1:0:0:0:
169,149,278463,37,0,1:0:0:0:
343,149,278827,1,0,1:0:0:0:
177,248,279190,2,0,L|165:367,1,100,8|0,0:2|1:0,0:0:0:0:
335,248,279554,2,0,L|347:367,1,100,8|0,0:0|1:0,0:0:0:0:
442,224,279918,6,0,P|493:205|506:125,1,100,0|0,1:0|0:0,0:0:0:0:
403,103,280281,2,0,L|273:108,1,100,0|0,1:0|0:0,0:0:0:0:
214,223,280645,2,0,L|344:218,1,100,8|0,0:0|0:0,0:0:0:0:
314,219,281190,1,0,1:0:0:0:
182,292,281372,6,0,P|142:242|157:175,1,100,0|0,1:0|0:0,0:0:0:0:
229,124,281736,2,0,L|243:22,1,100,0|0,1:0|0:0,0:0:0:0:
71,92,282100,2,0,L|57:194,1,100,8|0,0:0|0:0,0:0:0:0:
57,191,282645,1,0,1:0:0:0:
134,279,282827,6,0,P|186:293|255:249,1,100,0|0,1:0|0:0,0:0:0:0:
277,137,283190,2,0,P|225:123|156:167,1,100,0|0,1:0|0:0,0:0:0:0:
134,279,283554,1,8,0:0:0:0:
228,278,283736,1,0,0:0:0:0:
277,137,283918,1,0,0:0:0:0:
182,137,284100,1,0,1:0:0:0:
228,278,284281,38,0,P|266:318|336:334,1,100,0|0,1:0|0:0,0:0:0:0:
358,107,284645,2,0,P|320:67|250:51,1,100,0|0,1:0|0:0,0:0:0:0:
228,278,285009,1,8,0:0:0:0:
355,331,285190,1,0,0:0:0:0:
210,139,285372,1,0,0:0:0:0:
118,360,285554,1,0,1:0:0:0:
228,278,285736,5,0,1:0:0:0:
245,253,285827,1,0,0:0:0:0:
272,241,285918,1,0,0:0:0:0:
301,242,286009,1,0,0:0:0:0:
357,261,286100,1,0,1:0:0:0:
386,262,286190,1,0,0:0:0:0:
413,250,286281,1,0,0:0:0:0:
430,225,286372,1,0,0:0:0:0:
444,167,286463,21,0,1:0:0:0:
440,137,286554,1,0,0:0:0:0:
420,113,286645,1,0,0:0:0:0:
393,98,286736,1,0,0:0:0:0:
333,90,286827,1,0,1:0:0:0:
303,97,286918,1,0,0:0:0:0:
281,117,287009,1,0,0:0:0:0:
268,144,287100,1,0,0:0:0:0:
256,202,287190,53,0,1:0:0:0:
230,233,287281,1,0,0:0:0:0:
195,252,287372,1,0,0:0:0:0:
154,252,287463,1,0,1:0:0:0:
99,226,287554,1,0,1:0:0:0:
74,194,287645,1,0,0:0:0:0:
65,154,287736,1,0,0:0:0:0:
74,115,287827,1,0,0:0:0:0:
110,66,287918,22,0,L|170:49,1,50,0|0,1:0|0:0,0:0:0:0:
303,97,288100,2,0,L|254:110,1,50,0|0,1:0|0:0,0:0:0:0:
63,172,288281,2,0,L|123:155,1,50,0|0,1:0|0:0,0:0:0:0:
256,203,288463,2,0,L|207:216,1,50,0|0,1:0|0:0,0:0:0:0:
16,278,288645,53,0,1:0:0:0:
63,261,288736,1,0,1:0:0:0:
112,265,288827,1,0,1:0:0:0:
156,288,288918,1,0,1:0:0:0:
188,326,289009,1,0,1:0:0:0:
224,360,289100,1,0,1:0:0:0:
270,379,289190,1,0,1:0:0:0:
320,380,289281,1,0,1:0:0:0:
365,361,289372,21,0,1:0:0:0:
401,327,289463,1,0,1:0:0:0:
421,281,289554,1,0,1:0:0:0:
423,232,289645,1,0,1:0:0:0:
406,184,289736,2,0,B|363:100|363:100|342:132|361:162,1,150,4|0,0:3|0:0,0:0:0:0:
416,161,290100,54,0,L|337:6,1,119.999996337891,6|0,1:2|0:0,0:0:0:0:
241,58,290463,2,0,P|173:35|92:90,1,119.999996337891
64,190,290827,1,0,1:0:0:0:
92,178,290918,1,0,0:0:0:0:
120,167,291009,1,0,0:0:0:0:
148,156,291100,1,0,0:0:0:0:
175,145,291190,2,0,P|243:168|324:113,1,119.999996337891,0|0,1:0|0:0,0:0:0:0:
396,47,291554,54,0,L|446:155,1,119.999996337891,0|0,1:0|0:0,0:0:0:0:
413,365,291918,2,0,L|362:256,1,119.999996337891,0|0,1:0|0:0,0:0:0:0:
229,200,292281,1,0,1:0:0:0:
375,100,292463,1,0,0:0:0:0:
173,118,292645,1,0,1:0:0:0:
285,288,292827,1,0,0:0:0:0:
269,100,293009,53,0,1:0:0:0:
259,71,293100,1,0,0:0:0:0:
242,47,293190,1,2,0:0:0:0:
219,28,293281,1,0,0:0:0:0:
191,17,293372,1,0,1:0:0:0:
161,14,293463,1,0,0:0:0:0:
132,21,293554,1,2,0:0:0:0:
106,35,293645,1,0,0:0:0:0:
85,56,293736,5,0,1:0:0:0:
71,83,293827,1,0,0:0:0:0:
65,112,293918,1,2,0:0:0:0:
68,142,294009,1,0,0:0:0:0:
80,169,294100,1,0,1:0:0:0:
91,196,294190,1,0,0:0:0:0:
94,226,294281,1,2,0:0:0:0:
88,255,294372,1,0,0:0:0:0:
74,282,294463,38,0,B|92:327|92:327|178:369,1,119.999996337891,0|0,1:0|0:0,0:0:0:0:
260,296,294736,1,0,1:0:0:0:
286,282,294827,2,0,P|360:291|403:355,1,119.999996337891,0|0,1:0|0:0,0:0:0:0:
501,384,295190,2,0,L|475:242,1,119.999996337891,2|0,1:2|0:0,0:0:0:0:
394,181,295463,1,0,1:0:0:0:
365,170,295554,2,0,L|274:179,1,59.9999981689454,2|0,1:2|0:0,0:0:0:0:
183,84,295736,2,0,L|274:75,1,59.9999981689454,0|0,1:0|0:0,0:0:0:0:
459,113,295918,54,0,P|490:183|453:250,1,119.999996337891,4|0,1:0|0:0,0:0:0:0:
377,324,296281,1,0,1:0:0:0:
394,181,296463,1,0,0:0:0:0:
261,238,296645,1,0,1:0:0:0:
237,255,296736,1,0,0:0:0:0:
209,267,296827,1,0,0:0:0:0:
180,273,296918,1,0,0:0:0:0:
149,270,297009,2,0,B|139:233|139:233|168:126,1,119.999996337891,0|0,1:0|0:0,0:0:0:0:
140,14,297372,54,0,P|69:42|34:118,1,119.999996337891,4|0,1:0|0:0,0:0:0:0:
160,154,297736,1,0,1:0:0:0:
286,90,297918,1,0,0:0:0:0:
398,182,298100,1,0,1:0:0:0:
417,204,298190,1,0,0:0:0:0:
428,232,298281,1,0,0:0:0:0:
431,262,298372,1,0,0:0:0:0:
425,291,298463,2,0,B|375:303|375:303|300:372,1,119.999996337891,0|0,1:0|0:0,0:0:0:0:
148,340,298827,6,0,L|248:250,1,119.999996337891,4|0,1:0|0:0,0:0:0:0:
126,124,299190,1,0,1:0:0:0:
322,283,299372,2,0,P|311:212|229:169,1,119.999996337891,0|0,0:0|1:0,0:0:0:0:
131,290,299736,1,0,0:0:0:0:
419,280,299918,1,0,1:0:0:0:
266,35,300100,1,0,0:0:0:0:
153,156,300281,38,0,L|22:168,1,119.999996337891,0|0,1:0|0:0,0:0:0:0:
23,49,300554,1,0,1:0:0:0:
42,25,300645,2,0,L|161:14,1,119.999996337891,0|0,1:0|0:0,0:0:0:0:
291,52,301009,2,0,L|315:129,1,59.9999981689454,0|0,1:0|0:0,0:0:0:0:
475,169,301190,2,0,L|457:111,1,59.9999981689454,0|0,1:0|0:0,0:0:0:0:
345,237,301372,2,0,L|363:295,1,59.9999981689454,0|0,1:0|0:0,0:0:0:0:
196,235,301554,2,0,L|179:178,1,59.9999981689454,0|0,1:0|0:0,0:0:0:0:
66,303,301736,54,0,B|85:364|85:364|155:382,1,119.999996337891,4|0,1:2|0:0,0:0:0:0:
256,296,302100,2,0,P|312:277|389:305,1,119.999996337891,0|0,1:0|0:0,0:0:0:0:
510,384,302463,1,0,1:0:0:0:
317,384,302645,1,0,0:0:0:0:
286,179,302827,2,0,P|241:140|227:59,1,119.999996337891,0|0,1:0|0:0,0:0:0:0:
99,3,303190,53,0,1:0:0:0:
169,212,303372,2,0,P|157:269|94:322,1,119.999996337891,0|0,0:0|1:0,0:0:0:0:
63,219,303736,1,0,0:0:0:0:
330,86,303918,1,0,1:0:0:0:
151,86,304100,1,0,0:0:0:0:
264,270,304281,2,0,B|342:268|342:268|406:291,1,119.999996337891,0|0,1:0|0:0,0:0:0:0:
434,180,304645,5,0,1:0:0:0:
462,169,304736,1,0,0:0:0:0:
484,148,304827,1,2,0:0:0:0:
497,122,304918,1,0,0:0:0:0:
499,92,305009,1,0,1:0:0:0:
490,63,305100,1,0,0:0:0:0:
471,40,305190,1,2,0:0:0:0:
446,25,305281,1,0,0:0:0:0:
416,20,305372,37,0,1:0:0:0:
387,30,305463,1,0,0:0:0:0:
358,35,305554,1,2,0:0:0:0:
328,36,305645,1,0,0:0:0:0:
298,31,305736,1,0,1:0:0:0:
268,26,305827,1,0,0:0:0:0:
238,27,305918,1,2,0:0:0:0:
208,32,306009,1,0,0:0:0:0:
180,42,306100,54,0,L|118:168,1,119.999996337891,0|0,1:0|0:0,0:0:0:0:
21,199,306372,1,0,1:0:0:0:
1,176,306463,2,0,L|53:68,1,119.999996337891,0|0,1:0|0:0,0:0:0:0:
176,144,306827,2,0,P|243:168|315:122,1,119.999996337891,0|0,1:0|0:0,0:0:0:0:
389,91,307100,1,0,1:0:0:0:
410,112,307190,2,0,L|394:186,1,59.9999981689454,0|0,1:0|0:0,0:0:0:0:
501,278,307372,2,0,L|513:219,1,59.9999981689454,0|0,1:0|0:0,0:0:0:0:
310,272,307554,54,0,P|256:292|220:363,1,119.999996337891,4|0,1:0|0:0,0:0:0:0:
414,312,307918,1,0,1:0:0:0:
292,161,308100,1,0,0:0:0:0:
164,258,308281,1,0,1:0:0:0:
134,264,308372,1,0,0:0:0:0:
105,271,308463,1,0,0:0:0:0:
76,277,308554,1,0,0:0:0:0:
46,284,308645,2,0,P|17:216|51:133,1,119.999996337891,0|0,1:0|0:0,0:0:0:0:
178,62,309009,6,0,L|318:61,1,119.999996337891,4|0,1:0|0:0,0:0:0:0:
440,151,309372,1,0,1:0:0:0:
291,229,309554,1,0,0:0:0:0:
433,317,309736,1,0,1:0:0:0:
457,299,309827,1,0,0:0:0:0:
476,276,309918,1,0,0:0:0:0:
489,249,310009,1,0,0:0:0:0:
496,220,310100,2,0,L|363:183,1,119.999996337891,0|0,1:0|0:0,0:0:0:0:
246,83,310463,38,0,B|218:159|218:159|228:219,1,119.999996337891,4|0,1:0|0:0,0:0:0:0:
181,304,310736,1,0,1:0:0:0:
186,334,310827,2,0,P|130:352|65:334,1,119.999996337891,0|0,1:0|0:0,0:0:0:0:
331,304,311100,1,0,1:0:0:0:
326,334,311190,2,0,P|381:352|447:334,1,119.999996337891,0|0,1:0|0:0,0:0:0:0:
386,218,311463,1,0,1:0:0:0:
394,189,311554,2,0,L|323:83,1,119.999996337891,0|0,1:0|0:0,0:0:0:0:
126,218,311827,1,0,1:0:0:0:
118,189,311918,54,0,L|156:131,3,39.9999987792969,0|0|0|0,1:0|1:0|1:0|1:0,1:0:0:0:
289,171,312281,2,0,L|327:113,3,39.9999987792969,0|0|0|0,1:0|1:0|1:0|1:0,1:0:0:0:
206,52,312645,54,0,L|235:7,1,29.9999990844727,0|0,1:0|1:0,1:0:0:0:
149,35,312736,2,0,L|165:-4,1,29.9999990844727,0|0,1:0|1:0,1:0:0:0:
90,46,312827,1,0,1:0:0:0:
43,82,312918,1,0,1:0:0:0:
19,136,313009,1,0,1:0:0:0:
22,196,313100,1,0,1:0:0:0:
52,247,313190,1,0,1:0:0:0:
102,279,313281,1,0,1:0:0:0:
161,272,313372,6,0,L|249:264,1,50,6|0,1:2|0:0,0:0:0:0:
327,195,313554,1,0,0:0:0:0:
374,211,313645,1,0,0:0:0:0:
419,190,313736,1,2,1:2:0:0:
373,76,313918,1,0,0:0:0:0:
343,50,314009,1,0,0:0:0:0:
306,36,314100,5,0,1:0:0:0:
266,37,314190,1,0,0:0:0:0:
230,53,314281,1,0,0:0:0:0:
201,80,314372,1,0,0:0:0:0:
185,117,314463,1,0,1:0:0:0:
182,156,314554,1,0,0:0:0:0:
185,195,314645,1,0,0:0:0:0:
138,211,314736,1,0,0:0:0:0:
93,190,314827,70,0,L|22:143,1,50,2|0,1:2|0:0,0:0:0:0:
137,56,315009,1,0,0:0:0:0:
137,56,315100,2,0,P|160:37|187:31,1,50,2|0,0:0|1:0,0:0:0:0:
300,168,315281,1,0,0:0:0:0:
300,168,315372,2,0,P|277:187|250:193,1,50,2|0,0:0|0:0,0:0:0:0:
344,34,315554,6,0,L|415:81,1,50,2|0,1:2|0:0,0:0:0:0:
492,181,315736,1,2,0:0:0:0:
462,206,315827,1,0,0:0:0:0:
451,243,315918,1,0,1:0:0:0:
451,283,316009,1,0,0:0:0:0:
427,314,316100,1,0,0:0:0:0:
389,328,316190,1,0,0:0:0:0:
327,294,316281,69,0,1:0:0:0:
277,290,316372,1,0,0:0:0:0:
229,305,316463,1,0,0:0:0:0:
190,335,316554,1,0,0:0:0:0:
165,378,316645,2,0,L|105:386,1,50,2|0,1:2|0:0,0:0:0:0:
24,276,316827,1,0,0:0:0:0:
13,238,316918,1,0,0:0:0:0:
22,200,317009,5,0,1:0:0:0:
49,171,317100,1,0,0:0:0:0:
87,160,317190,1,0,0:0:0:0:
125,169,317281,1,0,0:0:0:0:
160,191,317372,1,0,1:0:0:0:
202,215,317463,1,0,0:0:0:0:
251,215,317554,1,0,0:0:0:0:
293,188,317645,1,0,0:0:0:0:
309,140,317736,70,0,L|305:71,1,50,2|0,1:2|0:0,0:0:0:0:
166,116,317918,1,0,0:0:0:0:
166,116,318009,2,0,P|139:132|123:180,1,50,2|0,0:0|1:0,0:0:0:0:
346,268,318190,1,0,0:0:0:0:
346,268,318281,2,0,P|373:252|389:204,1,50,2|0,0:0|0:0,0:0:0:0:
185,261,318463,6,0,L|189:322,1,50,2|0,1:2|0:0,0:0:0:0:
387,295,318645,1,0,0:0:0:0:
387,295,318736,2,0,P|414:281|435:259,1,50,2|0,0:0|1:0,0:0:0:0:
132,80,318918,1,0,0:0:0:0:
132,80,319009,2,0,P|110:89|91:106,1,50,2|0,0:0|0:0,0:0:0:0:
21,208,319190,69,0,1:0:0:0:
28,231,319281,1,0,0:0:0:0:
36,255,319372,1,0,0:0:0:0:
44,279,319463,1,0,0:0:0:0:
52,303,319554,1,2,1:2:0:0:
95,328,319645,1,0,0:0:0:0:
144,335,319736,1,0,0:0:0:0:
192,323,319827,1,0,0:0:0:0:
233,294,319918,5,0,1:0:0:0:
264,257,320009,1,0,0:0:0:0:
312,250,320100,1,0,0:0:0:0:
353,277,320190,1,0,0:0:0:0:
365,324,320281,1,0,1:0:0:0:
342,367,320372,1,0,0:0:0:0:
283,381,320463,1,0,0:0:0:0:
240,355,320554,1,0,0:0:0:0:
211,314,320645,69,0,1:0:0:0:
186,270,320736,1,0,0:0:0:0:
147,240,320827,1,0,0:0:0:0:
98,229,320918,1,0,0:0:0:0:
49,216,321009,2,0,L|-2:154,1,50,0|0,1:0|0:0,0:0:0:0:
119,61,321190,1,0,0:0:0:0:
134,80,321281,1,0,0:0:0:0:
150,99,321372,5,0,1:0:0:0:
195,118,321463,1,0,0:0:0:0:
244,115,321554,1,0,0:0:0:0:
278,78,321645,1,0,0:0:0:0:
327,68,321736,1,0,1:0:0:0:
366,97,321827,1,0,0:0:0:0:
372,145,321918,1,0,0:0:0:0:
341,182,322009,1,0,0:0:0:0:
292,184,322100,69,2,1:2:0:0:
287,208,322190,1,0,0:0:0:0:
282,233,322281,1,0,0:0:0:0:
278,257,322372,1,0,0:0:0:0:
244,294,322463,1,2,1:2:0:0:
195,292,322554,1,0,0:0:0:0:
166,253,322645,1,0,0:0:0:0:
176,206,322736,1,0,0:0:0:0:
220,184,322827,5,2,1:2:0:0:
224,208,322918,1,0,0:0:0:0:
229,233,323009,1,0,0:0:0:0:
233,257,323100,1,0,0:0:0:0:
268,294,323190,1,2,1:2:0:0:
316,292,323281,1,0,0:0:0:0:
345,253,323372,1,0,0:0:0:0:
335,206,323463,1,0,0:0:0:0:
292,184,323554,70,0,L|197:175,1,50,2|0,1:2|0:0,0:0:0:0:
98,206,323736,1,0,0:0:0:0:
48,174,323827,1,0,0:0:0:0:
24,120,323918,1,0,1:0:0:0:
34,61,324009,1,0,0:0:0:0:
76,19,324100,1,0,0:0:0:0:
133,7,324190,1,0,0:0:0:0:
188,29,324281,6,0,L|237:33,1,50,0|0,1:0|0:0,0:0:0:0:
449,126,324463,2,0,L|399:121,1,50,0|0,1:0|0:0,0:0:0:0:
119,145,324645,2,0,L|168:149,1,50,0|0,1:0|0:0,0:0:0:0:
380,242,324827,2,0,L|330:237,1,50,0|0,1:0|0:0,0:0:0:0:
100,265,325009,70,0,L|51:261,1,50,2|0,1:2|0:0,0:0:0:0:
119,145,325190,1,0,0:0:0:0:
168,149,325281,1,0,0:0:0:0:
218,153,325372,1,2,1:2:0:0:
330,237,325554,1,0,0:0:0:0:
354,239,325645,1,0,0:0:0:0:
379,241,325736,5,0,1:0:0:0:
424,220,325827,1,0,0:0:0:0:
453,180,325918,1,0,0:0:0:0:
459,131,326009,1,0,0:0:0:0:
441,85,326100,1,0,1:0:0:0:
403,53,326190,1,0,0:0:0:0:
354,43,326281,1,0,0:0:0:0:
307,58,326372,1,0,0:0:0:0:
273,95,326463,70,0,L|185:96,1,50,2|0,1:2|0:0,0:0:0:0:
91,197,326645,1,0,0:0:0:0:
91,197,326736,2,0,L|140:196,1,50,2|0,0:0|1:0,0:0:0:0:
336,279,326918,1,0,0:0:0:0:
336,279,327009,2,0,L|385:278,1,50,2|0,0:0|0:0,0:0:0:0:
252,379,327190,5,2,1:2:0:0:
227,379,327281,1,0,0:0:0:0:
203,380,327372,1,0,0:0:0:0:
206,340,327463,1,0,0:0:0:0:
191,303,327554,1,0,1:0:0:0:
161,277,327645,1,0,0:0:0:0:
122,268,327736,1,0,0:0:0:0:
84,277,327827,1,0,0:0:0:0:
26,303,327918,69,0,1:0:0:0:
57,263,328009,1,0,0:0:0:0:
74,217,328100,1,0,0:0:0:0:
74,167,328190,1,0,0:0:0:0:
58,120,328281,2,0,L|25:61,1,50,2|0,1:2|0:0,0:0:0:0:
177,63,328463,1,0,0:0:0:0:
226,59,328554,1,0,0:0:0:0:
274,71,328645,5,0,1:0:0:0:
310,104,328736,1,0,0:0:0:0:
327,151,328827,1,0,0:0:0:0:
320,200,328918,1,0,0:0:0:0:
291,240,329009,1,0,1:0:0:0:
261,243,329100,1,0,0:0:0:0:
231,246,329190,1,0,0:0:0:0:
201,249,329281,1,0,0:0:0:0:
141,256,329372,69,0,1:0:0:0:
170,258,329463,1,0,0:0:0:0:
200,261,329554,1,0,0:0:0:0:
230,264,329645,1,0,0:0:0:0:
257,318,329736,1,0,1:0:0:0:
296,314,329827,1,0,0:0:0:0:
336,310,329918,1,0,0:0:0:0:
376,306,330009,1,0,0:0:0:0:
456,296,330100,5,0,1:0:0:0:
417,292,330190,1,0,0:0:0:0:
377,288,330281,1,0,0:0:0:0:
337,285,330372,1,0,0:0:0:0:
271,238,330463,2,0,L|268:188,1,50,0|0,1:0|0:0,0:0:0:0:
147,317,330645,2,0,L|149:366,1,50,0|0,0:0|0:0,0:0:0:0:
21,219,330827,70,0,L|18:169,1,50,2|0,1:2|0:0,0:0:0:0:
11,48,331009,1,0,0:0:0:0:
13,87,331100,1,0,0:0:0:0:
27,125,331190,1,0,0:0:0:0:
51,156,331281,1,0,0:0:0:0:
84,178,331372,1,0,0:0:0:0:
122,190,331463,1,0,0:0:0:0:
162,189,331554,5,0,0:0:0:0:
200,177,331645,1,0,0:0:0:0:
232,153,331736,1,0,0:0:0:0:
256,121,331827,1,0,0:0:0:0:
271,84,331918,1,0,0:0:0:0:
297,55,332009,1,0,0:0:0:0:
333,36,332100,1,0,0:0:0:0:
372,32,332190,1,0,0:0:0:0:
411,41,332281,70,0,L|455:72,1,50,0|0,1:0|0:0,0:0:0:0:
460,215,332463,1,0,0:0:0:0:
418,186,332554,1,0,0:0:0:0:
377,157,332645,1,2,0:0:0:0:
217,229,332827,1,0,0:0:0:0:
258,257,332918,1,0,0:0:0:0:
299,286,333009,5,0,0:0:0:0:
347,273,333100,1,0,0:0:0:0:
385,242,333190,1,0,0:0:0:0:
408,198,333281,1,0,0:0:0:0:
410,148,333372,1,0,0:0:0:0:
391,102,333463,1,0,0:0:0:0:
355,68,333554,1,0,1:0:0:0:
309,51,333645,1,0,0:0:0:0:
259,55,333736,69,2,1:2:0:0:
235,61,333827,1,0,0:0:0:0:
210,66,333918,1,0,0:0:0:0:
186,71,334009,1,0,0:0:0:0:
116,126,334100,1,2,0:2:0:0:
116,174,334190,1,0,0:0:0:0:
152,206,334281,1,0,1:0:0:0:
200,201,334372,1,0,0:0:0:0:
229,162,334463,5,2,1:2:0:0:
253,167,334554,1,0,0:0:0:0:
277,172,334645,1,0,0:0:0:0:
302,178,334736,1,0,0:0:0:0:
372,232,334827,1,2,0:2:0:0:
372,280,334918,1,0,0:0:0:0:
336,313,335009,1,0,1:0:0:0:
287,308,335100,1,0,1:0:0:0:
259,268,335190,69,0,1:0:0:0:
239,222,335281,1,0,0:0:0:0:
194,203,335372,1,0,1:0:0:0:
148,222,335463,1,0,1:0:0:0:
129,268,335554,1,0,1:0:0:0:
148,314,335645,1,0,0:0:0:0:
194,333,335736,1,0,1:0:0:0:
239,314,335827,1,0,1:0:0:0:
283,268,335918,5,0,1:0:0:0:
256,204,336009,1,0,0:0:0:0:
194,178,336100,1,0,1:0:0:0:
130,204,336191,1,0,1:0:0:0:
104,268,336281,2,0,L|129:268,1,25,0|0,1:0|1:0,1:0:0:0:
130,331,336373,1,0,0:0:0:0:
194,357,336464,1,0,1:0:0:0:
256,331,336555,1,0,1:0:0:0:
283,268,336645,21,0,1:0:0:0:
256,192,336736,12,2,348281,0:0:0:0:
