osu file format v14

[General]
AudioFilename: TIEFSEE.mp3
AudioLeadIn: 0
PreviewTime: 57465
Countdown: 0
SampleSet: Normal
StackLeniency: 0.7
Mode: 1
LetterboxInBreaks: 0
WidescreenStoryboard: 0

[Editor]
DistanceSpacing: 0.7
BeatDivisor: 4
GridSize: 32
TimelineZoom: 1

[Metadata]
Title:TIEFSEE
TitleUnicode:TIEFSEE
Artist:SOUND HOLIC Vs. dj TAKA feat. YURiCa
ArtistUnicode:SOUND HOLIC Vs. dj TAKA feat. YURiCa
Creator:Nardoxyribonucleic
Version:Muzukashii
Source:SOUND VOLTEX III GRAVITY WARS
Tags:Taiko SDVXIII beatmania IIDX 22 PENDUAL 斬 -ZAN- deep sea Hanatan 花たん Antonio Vivaldi Winter aabc271
BeatmapID:984392
BeatmapSetID:457878

[Difficulty]
HPDrainRate:5
CircleSize:5
OverallDifficulty:4
ApproachRate:5
SliderMultiplier:1.4
SliderTickRate:1

[Events]
//Background and Video events
0,0,"DEEPSEA.jpg",0,60
//Break Periods
//Storyboard Layer 0 (Background)
//Storyboard Layer 1 (Fail)
//Storyboard Layer 2 (Pass)
//Storyboard Layer 3 (Foreground)
//Storyboard Sound Samples

[TimingPoints]
556,363.636363636364,4,1,0,60,1,0
22374,-100,4,1,0,70,0,0
23828,-100,4,1,0,80,0,0
35465,-100,4,1,0,90,0,0
47101,-100,4,1,0,80,0,0
58737,-100,4,1,0,100,0,1
82010,-100,4,1,0,90,0,0
102374,-100,4,1,0,100,0,1
125646,-100,4,1,0,70,0,0

[HitObjects]
256,192,556,5,8,0:0:0:0:
256,192,919,1,0,0:0:0:0:
256,192,1101,1,8,0:0:0:0:
256,192,1465,1,0,0:0:0:0:
256,192,1646,1,0,0:0:0:0:
256,192,2010,1,8,0:0:0:0:
256,192,2374,1,0,0:0:0:0:
256,192,2556,1,8,0:0:0:0:
256,192,2919,1,0,0:0:0:0:
256,192,3101,1,0,0:0:0:0:
256,192,3465,1,8,0:0:0:0:
256,192,3828,1,0,0:0:0:0:
256,192,4010,1,8,0:0:0:0:
256,192,4374,1,8,0:0:0:0:
256,192,4556,1,8,0:0:0:0:
256,192,4919,1,8,0:0:0:0:
256,192,5283,1,8,0:0:0:0:
256,192,5646,1,0,0:0:0:0:
256,192,5828,1,0,0:0:0:0:
256,192,6010,1,8,0:0:0:0:
256,192,6374,1,8,0:0:0:0:
256,192,6737,1,0,0:0:0:0:
256,192,6919,1,8,0:0:0:0:
256,192,7283,1,0,0:0:0:0:
256,192,7465,1,0,0:0:0:0:
256,192,7828,1,8,0:0:0:0:
256,192,8192,1,8,0:0:0:0:
256,192,8556,1,0,0:0:0:0:
288,192,8737,1,0,0:0:0:0:
256,192,8919,1,8,0:0:0:0:
256,192,9283,1,0,0:0:0:0:
256,192,9646,1,0,0:0:0:0:
256,192,10010,1,8,0:0:0:0:
256,192,10192,1,0,0:0:0:0:
256,192,10374,1,8,0:0:0:0:
256,192,10465,1,8,0:0:0:0:
256,192,10556,1,8,0:0:0:0:
256,192,10737,1,0,0:0:0:0:
256,192,11465,1,0,0:0:0:0:
256,192,11828,1,8,0:0:0:0:
256,192,12192,1,8,0:0:0:0:
256,192,12737,1,0,0:0:0:0:
256,192,13101,1,8,0:0:0:0:
256,192,13465,1,0,0:0:0:0:
256,192,13646,1,8,0:0:0:0:
256,192,14010,1,8,0:0:0:0:
256,192,14374,1,0,0:0:0:0:
256,192,14737,1,0,0:0:0:0:
256,192,15101,1,8,0:0:0:0:
256,192,15465,1,0,0:0:0:0:
256,192,15646,1,0,0:0:0:0:
256,192,16556,1,8,0:0:0:0:
256,192,16828,1,8,0:0:0:0:
256,192,17101,1,0,0:0:0:0:
256,192,17374,1,0,0:0:0:0:
256,192,17646,1,8,0:0:0:0:
256,192,18010,1,8,0:0:0:0:
256,192,18556,1,0,0:0:0:0:
256,192,18919,1,8,0:0:0:0:
256,192,19283,1,0,0:0:0:0:
256,192,19465,1,8,0:0:0:0:
256,192,19828,1,0,0:0:0:0:
256,192,20192,1,8,0:0:0:0:
256,192,20556,1,8,0:0:0:0:
256,192,20919,1,0,0:0:0:0:
256,192,21283,1,0,0:0:0:0:
256,192,21465,1,8,0:0:0:0:
256,192,21828,1,0,0:0:0:0:
256,192,22010,1,8,0:0:0:0:
256,192,22374,1,12,0:0:0:0:
256,192,22737,1,8,0:0:0:0:
256,192,22919,1,0,0:0:0:0:
256,192,23010,1,0,0:0:0:0:
256,192,23101,1,0,0:0:0:0:
256,192,23283,1,8,0:0:0:0:
256,192,23374,1,8,0:0:0:0:
256,192,23465,1,8,0:0:0:0:
256,192,23646,1,0,0:0:0:0:
256,192,23828,1,12,0:0:0:0:
256,192,24192,1,8,0:0:0:0:
256,192,24556,1,0,0:0:0:0:
256,192,24737,1,0,0:0:0:0:
256,192,24919,1,8,0:0:0:0:
256,192,25101,1,8,0:0:0:0:
256,192,25283,1,0,0:0:0:0:
256,192,25646,1,8,0:0:0:0:
256,192,25828,1,8,0:0:0:0:
256,192,25919,1,8,0:0:0:0:
256,192,26010,1,8,0:0:0:0:
256,192,26192,1,0,0:0:0:0:
256,192,26374,1,8,0:0:0:0:
256,192,26737,1,0,0:0:0:0:
256,192,27101,1,8,0:0:0:0:
256,192,27465,1,0,0:0:0:0:
256,192,27646,1,8,0:0:0:0:
256,192,27828,1,8,0:0:0:0:
256,192,28010,1,0,0:0:0:0:
256,192,28192,1,8,0:0:0:0:
256,192,28556,1,8,0:0:0:0:
256,192,28737,1,0,0:0:0:0:
256,192,28828,1,0,0:0:0:0:
256,192,28919,1,0,0:0:0:0:
256,192,29101,1,0,0:0:0:0:
256,192,29283,1,8,0:0:0:0:
256,192,29646,1,4,0:0:0:0:
256,192,30010,1,8,0:0:0:0:
256,192,30192,1,0,0:0:0:0:
256,192,30556,1,8,0:0:0:0:
256,192,30737,1,8,0:0:0:0:
256,192,30919,1,0,0:0:0:0:
256,192,31101,1,8,0:0:0:0:
256,192,31465,1,8,0:0:0:0:
256,192,31828,1,0,0:0:0:0:
256,192,32010,1,0,0:0:0:0:
256,192,32192,1,8,0:0:0:0:
256,192,32556,1,4,0:0:0:0:
256,192,32919,1,8,0:0:0:0:
256,192,33101,1,0,0:0:0:0:
256,192,33465,1,8,0:0:0:0:
256,192,33646,1,8,0:0:0:0:
256,192,33828,1,0,0:0:0:0:
256,192,34010,1,12,0:0:0:0:
256,192,34374,1,8,0:0:0:0:
256,192,34556,1,0,0:0:0:0:
256,192,34737,1,8,0:0:0:0:
256,192,34919,1,8,0:0:0:0:
256,192,35010,1,8,0:0:0:0:
256,192,35101,1,8,0:0:0:0:
256,192,35283,1,0,0:0:0:0:
256,192,35465,1,12,0:0:0:0:
256,192,35828,1,0,0:0:0:0:
256,192,36010,1,0,0:0:0:0:
256,192,36192,1,8,0:0:0:0:
256,192,36556,1,0,0:0:0:0:
256,192,36737,1,8,0:0:0:0:
256,192,36919,1,0,0:0:0:0:
256,192,37101,1,8,0:0:0:0:
256,192,37192,1,8,0:0:0:0:
256,192,37283,1,8,0:0:0:0:
256,192,37465,1,0,0:0:0:0:
256,192,37828,1,0,0:0:0:0:
256,192,38010,1,8,0:0:0:0:
256,192,38374,1,0,0:0:0:0:
256,192,38737,1,8,0:0:0:0:
256,192,38919,1,0,0:0:0:0:
256,192,39010,1,0,0:0:0:0:
256,192,39101,1,0,0:0:0:0:
256,192,39283,1,0,0:0:0:0:
256,192,39465,1,8,0:0:0:0:
256,192,39646,1,0,0:0:0:0:
256,192,40010,1,0,0:0:0:0:
256,192,40192,1,8,0:0:0:0:
256,192,40556,1,0,0:0:0:0:
256,192,40737,1,0,0:0:0:0:
256,192,40919,1,8,0:0:0:0:
256,192,41283,1,8,0:0:0:0:
256,192,41465,1,0,0:0:0:0:
256,192,41646,1,8,0:0:0:0:
256,192,41828,1,8,0:0:0:0:
256,192,42192,1,0,0:0:0:0:
256,192,42374,1,8,0:0:0:0:
256,192,42556,1,8,0:0:0:0:
256,192,42737,1,0,0:0:0:0:
256,192,42919,1,8,0:0:0:0:
256,192,43010,1,8,0:0:0:0:
256,192,43101,1,8,0:0:0:0:
256,192,43283,1,0,0:0:0:0:
256,192,43465,1,0,0:0:0:0:
256,192,44192,1,8,0:0:0:0:
256,192,44374,1,0,0:0:0:0:
256,192,44556,1,8,0:0:0:0:
256,192,44737,1,0,0:0:0:0:
256,192,45101,1,0,0:0:0:0:
256,192,45283,1,8,0:0:0:0:
256,192,45465,1,0,0:0:0:0:
256,192,45556,1,0,0:0:0:0:
256,192,45646,1,0,0:0:0:0:
256,192,46010,1,8,0:0:0:0:
256,192,46192,1,8,0:0:0:0:
256,192,46283,1,8,0:0:0:0:
256,192,46374,1,8,0:0:0:0:
256,192,46556,1,0,0:0:0:0:
256,192,46737,1,8,0:0:0:0:
256,192,47101,1,4,0:0:0:0:
256,192,47283,1,0,0:0:0:0:
256,192,47465,1,8,0:0:0:0:
256,192,47646,1,8,0:0:0:0:
256,192,48010,1,8,0:0:0:0:
256,192,48101,1,8,0:0:0:0:
256,192,48192,1,8,0:0:0:0:
256,192,48556,1,0,0:0:0:0:
256,192,48737,1,0,0:0:0:0:
256,192,48919,1,8,0:0:0:0:
256,192,49101,1,8,0:0:0:0:
256,192,49465,1,8,0:0:0:0:
256,192,49556,1,8,0:0:0:0:
256,192,49646,1,8,0:0:0:0:
256,192,50010,1,0,0:0:0:0:
256,192,50192,1,8,0:0:0:0:
256,192,50374,1,8,0:0:0:0:
256,192,50556,1,0,0:0:0:0:
256,192,50919,1,8,0:0:0:0:
256,192,51101,1,8,0:0:0:0:
256,192,51283,1,0,0:0:0:0:
256,192,51465,1,0,0:0:0:0:
256,192,51828,1,8,0:0:0:0:
256,192,52192,1,8,0:0:0:0:
256,192,52374,1,0,0:0:0:0:
256,192,52556,1,8,0:0:0:0:
256,192,52919,1,4,0:0:0:0:
256,192,53283,1,8,0:0:0:0:
256,192,53465,1,0,0:0:0:0:
256,192,53556,1,0,0:0:0:0:
256,192,53646,1,0,0:0:0:0:
256,192,53828,1,0,0:0:0:0:
256,192,54010,1,8,0:0:0:0:
256,192,54192,1,8,0:0:0:0:
256,192,54374,1,0,0:0:0:0:
256,192,54737,1,0,0:0:0:0:
256,192,54919,1,8,0:0:0:0:
256,192,55283,1,0,0:0:0:0:
256,192,55465,1,8,0:0:0:0:
256,192,55646,1,8,0:0:0:0:
256,192,55828,1,0,0:0:0:0:
256,192,56010,1,8,0:0:0:0:
256,192,56101,1,8,0:0:0:0:
256,192,56192,1,8,0:0:0:0:
256,192,56374,1,8,0:0:0:0:
256,192,56556,1,0,0:0:0:0:
256,192,56737,1,8,0:0:0:0:
256,192,56828,1,8,0:0:0:0:
256,192,56919,1,8,0:0:0:0:
256,192,57101,1,8,0:0:0:0:
256,192,57283,1,0,0:0:0:0:
256,192,58737,1,12,0:0:0:0:
256,192,59101,1,0,0:0:0:0:
256,192,59283,1,8,0:0:0:0:
256,192,59465,1,0,0:0:0:0:
256,192,59556,1,0,0:0:0:0:
256,192,59646,1,0,0:0:0:0:
256,192,59828,1,8,0:0:0:0:
256,192,60010,1,0,0:0:0:0:
256,192,60192,1,8,0:0:0:0:
256,192,60374,1,0,0:0:0:0:
256,192,60737,1,8,0:0:0:0:
256,192,60919,1,8,0:0:0:0:
256,192,61101,1,0,0:0:0:0:
256,192,61283,1,0,0:0:0:0:
256,192,61465,1,8,0:0:0:0:
256,192,61828,1,8,0:0:0:0:
256,192,62010,1,8,0:0:0:0:
256,192,62374,1,8,0:0:0:0:
256,192,62556,1,0,0:0:0:0:
256,192,62737,1,8,0:0:0:0:
256,192,62919,1,8,0:0:0:0:
256,192,63010,1,8,0:0:0:0:
256,192,63101,1,8,0:0:0:0:
256,192,63283,1,0,0:0:0:0:
256,192,63465,1,8,0:0:0:0:
256,192,63828,1,8,0:0:0:0:
256,192,64010,1,0,0:0:0:0:
256,192,64374,1,0,0:0:0:0:
256,192,64556,1,8,0:0:0:0:
256,192,64919,1,0,0:0:0:0:
256,192,65101,1,8,0:0:0:0:
256,192,65283,1,0,0:0:0:0:
256,192,65374,1,0,0:0:0:0:
256,192,65465,1,0,0:0:0:0:
256,192,65646,1,8,0:0:0:0:
256,192,65828,1,0,0:0:0:0:
256,192,66010,1,8,0:0:0:0:
256,192,66374,1,0,0:0:0:0:
256,192,66556,1,8,0:0:0:0:
256,192,66919,1,0,0:0:0:0:
256,192,67101,1,8,0:0:0:0:
256,192,67283,1,8,0:0:0:0:
256,192,67465,1,0,0:0:0:0:
256,192,67828,1,0,0:0:0:0:
256,192,68010,1,8,0:0:0:0:
256,192,68374,1,0,0:0:0:0:
256,192,68556,1,8,0:0:0:0:
256,192,68737,1,8,0:0:0:0:
256,192,68919,1,0,0:0:0:0:
256,192,69101,1,8,0:0:0:0:
256,192,69192,1,8,0:0:0:0:
256,192,69283,1,8,0:0:0:0:
256,192,69465,1,0,0:0:0:0:
256,192,69828,1,0,0:0:0:0:
256,192,70010,1,0,0:0:0:0:
256,192,70192,1,8,0:0:0:0:
256,192,70374,1,12,0:0:0:0:
256,192,70737,1,0,0:0:0:0:
256,192,70919,1,8,0:0:0:0:
256,192,71101,1,0,0:0:0:0:
256,192,71192,1,0,0:0:0:0:
256,192,71283,1,0,0:0:0:0:
256,192,71465,1,8,0:0:0:0:
256,192,71646,1,0,0:0:0:0:
256,192,71828,1,8,0:0:0:0:
256,192,72010,1,0,0:0:0:0:
256,192,72374,1,8,0:0:0:0:
256,192,72556,1,8,0:0:0:0:
256,192,72737,1,0,0:0:0:0:
256,192,72919,1,0,0:0:0:0:
256,192,73101,1,8,0:0:0:0:
256,192,73465,1,8,0:0:0:0:
256,192,73646,1,8,0:0:0:0:
256,192,74010,1,8,0:0:0:0:
256,192,74192,1,0,0:0:0:0:
256,192,74374,1,8,0:0:0:0:
256,192,74556,1,8,0:0:0:0:
256,192,74646,1,8,0:0:0:0:
256,192,74737,1,8,0:0:0:0:
256,192,74919,1,0,0:0:0:0:
256,192,75101,1,8,0:0:0:0:
256,192,75465,1,8,0:0:0:0:
256,192,75646,1,0,0:0:0:0:
256,192,76010,1,0,0:0:0:0:
256,192,76192,1,8,0:0:0:0:
256,192,76556,1,0,0:0:0:0:
256,192,76737,1,8,0:0:0:0:
256,192,76919,1,0,0:0:0:0:
256,192,77010,1,0,0:0:0:0:
256,192,77101,1,0,0:0:0:0:
256,192,77283,1,8,0:0:0:0:
256,192,77465,1,0,0:0:0:0:
256,192,77646,1,8,0:0:0:0:
256,192,78010,1,0,0:0:0:0:
256,192,78192,1,8,0:0:0:0:
256,192,78556,1,0,0:0:0:0:
256,192,78737,1,8,0:0:0:0:
256,192,78919,1,8,0:0:0:0:
256,192,79101,1,0,0:0:0:0:
256,192,79465,1,0,0:0:0:0:
256,192,79646,1,8,0:0:0:0:
256,192,80010,1,0,0:0:0:0:
256,192,80192,1,8,0:0:0:0:
256,192,80374,1,8,0:0:0:0:
256,192,80556,1,0,0:0:0:0:
256,192,80646,1,0,0:0:0:0:
256,192,80737,1,0,0:0:0:0:
256,192,80919,1,8,0:0:0:0:
256,192,81101,1,0,0:0:0:0:
256,192,81465,1,0,0:0:0:0:
256,192,81646,1,8,0:0:0:0:
256,192,81737,1,8,0:0:0:0:
256,192,81828,1,8,0:0:0:0:
256,192,82010,1,4,0:0:0:0:
256,192,82737,1,0,0:0:0:0:
256,192,83101,1,8,0:0:0:0:
256,192,83283,1,0,0:0:0:0:
256,192,83465,1,0,0:0:0:0:
256,192,83828,1,8,0:0:0:0:
256,192,84192,1,0,0:0:0:0:
256,192,84374,1,0,0:0:0:0:
256,192,84556,1,8,0:0:0:0:
256,192,84737,1,0,0:0:0:0:
256,192,84919,1,8,0:0:0:0:
256,192,85283,1,8,0:0:0:0:
256,192,85646,1,8,0:0:0:0:
256,192,85828,1,0,0:0:0:0:
256,192,86010,1,8,0:0:0:0:
256,192,86192,1,0,0:0:0:0:
256,192,86283,1,0,0:0:0:0:
256,192,86374,1,0,0:0:0:0:
256,192,86556,1,0,0:0:0:0:
256,192,86737,1,8,0:0:0:0:
256,192,87101,1,8,0:0:0:0:
256,192,87283,1,0,0:0:0:0:
256,192,87465,1,8,0:0:0:0:
256,192,87646,1,8,0:0:0:0:
256,192,87828,1,0,0:0:0:0:
256,192,88192,1,8,0:0:0:0:
256,192,88556,1,0,0:0:0:0:
256,192,88737,1,0,0:0:0:0:
256,192,88919,1,8,0:0:0:0:
256,192,89101,1,8,0:0:0:0:
256,192,89283,1,0,0:0:0:0:
256,192,89646,1,8,0:0:0:0:
256,192,89828,1,0,0:0:0:0:
256,192,90010,1,12,0:0:0:0:
256,192,90374,1,8,0:0:0:0:
256,192,90556,1,0,0:0:0:0:
256,192,90646,1,0,0:0:0:0:
256,192,90737,1,0,0:0:0:0:
256,192,90919,1,0,0:0:0:0:
256,192,91101,1,8,0:0:0:0:
256,192,91465,1,8,0:0:0:0:
256,192,91646,1,8,0:0:0:0:
256,192,91737,1,8,0:0:0:0:
256,192,91828,1,8,0:0:0:0:
256,192,92010,1,0,0:0:0:0:
256,192,92192,1,8,0:0:0:0:
256,192,92556,1,8,0:0:0:0:
256,192,92919,1,0,0:0:0:0:
256,192,93101,1,8,0:0:0:0:
256,192,93283,1,0,0:0:0:0:
256,192,93465,1,8,0:0:0:0:
256,192,93646,1,0,0:0:0:0:
256,192,94010,1,8,0:0:0:0:
256,192,94192,1,0,0:0:0:0:
256,192,94374,1,12,0:0:0:0:
256,192,94737,1,8,0:0:0:0:
256,192,94919,1,0,0:0:0:0:
256,192,95101,1,8,0:0:0:0:
256,192,95283,1,0,0:0:0:0:
256,192,95374,1,0,0:0:0:0:
256,192,95465,1,0,0:0:0:0:
256,192,95828,1,8,0:0:0:0:
256,192,96010,1,8,0:0:0:0:
256,192,96192,1,0,0:0:0:0:
256,192,96374,1,8,0:0:0:0:
256,192,96556,1,4,0:0:0:0:
256,192,96919,1,8,0:0:0:0:
256,192,97283,1,0,0:0:0:0:
256,192,97465,1,0,0:0:0:0:
256,192,97646,1,8,0:0:0:0:
256,192,97828,1,0,0:0:0:0:
256,192,97919,1,0,0:0:0:0:
256,192,98010,1,0,0:0:0:0:
256,192,98374,1,0,0:0:0:0:
256,192,98556,1,8,0:0:0:0:
256,192,98737,1,0,0:0:0:0:
256,192,98828,1,0,0:0:0:0:
256,192,98919,1,0,0:0:0:0:
256,192,99101,1,8,0:0:0:0:
256,192,99283,1,8,0:0:0:0:
256,192,99465,1,4,0:0:0:0:
256,192,100919,1,0,0:0:0:0:
256,192,101101,1,8,0:0:0:0:
256,192,101283,1,0,0:0:0:0:
256,192,101465,1,8,0:0:0:0:
256,192,101646,1,0,0:0:0:0:
256,192,101737,1,0,0:0:0:0:
256,192,101828,1,0,0:0:0:0:
256,192,102010,1,8,0:0:0:0:
256,192,102101,1,8,0:0:0:0:
256,192,102192,1,8,0:0:0:0:
256,192,102374,1,4,0:0:0:0:
256,192,102737,1,8,0:0:0:0:
256,192,102919,1,0,0:0:0:0:
256,192,103010,1,0,0:0:0:0:
256,192,103101,1,0,0:0:0:0:
256,192,103283,1,0,0:0:0:0:
256,192,103465,1,8,0:0:0:0:
256,192,103646,1,0,0:0:0:0:
256,192,103828,1,8,0:0:0:0:
256,192,104192,1,8,0:0:0:0:
256,192,104374,1,8,0:0:0:0:
256,192,104556,1,0,0:0:0:0:
256,192,104737,1,0,0:0:0:0:
256,192,104919,1,8,0:0:0:0:
256,192,105283,1,0,0:0:0:0:
256,192,105465,1,8,0:0:0:0:
256,192,105556,1,8,0:0:0:0:
256,192,105646,1,8,0:0:0:0:
256,192,105828,1,0,0:0:0:0:
256,192,106010,1,8,0:0:0:0:
256,192,106192,1,0,0:0:0:0:
256,192,106374,1,8,0:0:0:0:
256,192,106737,1,8,0:0:0:0:
256,192,106919,1,0,0:0:0:0:
256,192,107010,1,0,0:0:0:0:
256,192,107101,1,0,0:0:0:0:
256,192,107283,1,0,0:0:0:0:
256,192,107465,1,8,0:0:0:0:
256,192,107646,1,8,0:0:0:0:
256,192,107737,1,8,0:0:0:0:
256,192,107828,1,8,0:0:0:0:
256,192,108010,1,0,0:0:0:0:
256,192,108192,1,4,0:0:0:0:
256,192,108556,1,8,0:0:0:0:
256,192,108919,1,8,0:0:0:0:
256,192,109101,1,0,0:0:0:0:
256,192,109283,1,8,0:0:0:0:
256,192,109646,1,0,0:0:0:0:
256,192,109828,1,0,0:0:0:0:
256,192,110010,1,8,0:0:0:0:
256,192,110192,1,8,0:0:0:0:
256,192,110283,1,8,0:0:0:0:
256,192,110374,1,8,0:0:0:0:
256,192,110556,1,0,0:0:0:0:
256,192,110737,1,8,0:0:0:0:
256,192,111101,1,4,0:0:0:0:
256,192,111465,1,0,0:0:0:0:
256,192,111646,1,8,0:0:0:0:
256,192,111828,1,8,0:0:0:0:
256,192,112010,1,0,0:0:0:0:
256,192,112192,1,8,0:0:0:0:
256,192,112556,1,0,0:0:0:0:
256,192,112737,1,8,0:0:0:0:
256,192,112828,1,8,0:0:0:0:
256,192,112919,1,8,0:0:0:0:
256,192,113101,1,8,0:0:0:0:
256,192,113283,1,0,0:0:0:0:
256,192,113465,1,0,0:0:0:0:
256,192,113646,1,8,0:0:0:0:
256,192,114010,1,12,0:0:0:0:
256,192,114374,1,8,0:0:0:0:
256,192,114556,1,0,0:0:0:0:
256,192,114737,1,8,0:0:0:0:
256,192,114828,1,8,0:0:0:0:
256,192,114919,1,8,0:0:0:0:
256,192,115101,1,0,0:0:0:0:
256,192,115283,1,0,0:0:0:0:
256,192,115465,1,8,0:0:0:0:
256,192,115828,1,0,0:0:0:0:
256,192,116010,1,8,0:0:0:0:
256,192,116192,1,0,0:0:0:0:
256,192,116374,1,0,0:0:0:0:
256,192,116556,1,8,0:0:0:0:
256,192,116919,1,0,0:0:0:0:
256,192,117101,1,8,0:0:0:0:
256,192,117192,1,8,0:0:0:0:
256,192,117283,1,8,0:0:0:0:
256,192,117465,1,0,0:0:0:0:
256,192,117646,1,8,0:0:0:0:
256,192,117828,1,0,0:0:0:0:
256,192,118010,1,8,0:0:0:0:
256,192,118374,1,8,0:0:0:0:
256,192,118556,1,0,0:0:0:0:
256,192,118646,1,0,0:0:0:0:
256,192,118737,1,0,0:0:0:0:
256,192,118919,1,0,0:0:0:0:
256,192,119101,1,8,0:0:0:0:
256,192,119283,1,0,0:0:0:0:
256,192,119465,1,8,0:0:0:0:
256,192,119556,1,8,0:0:0:0:
256,192,119646,1,8,0:0:0:0:
256,192,119828,1,0,0:0:0:0:
256,192,120192,1,8,0:0:0:0:
256,192,120556,1,0,0:0:0:0:
256,192,120737,1,8,0:0:0:0:
256,192,120919,1,8,0:0:0:0:
256,192,121283,1,0,0:0:0:0:
256,192,121465,1,0,0:0:0:0:
256,192,121646,1,8,0:0:0:0:
256,192,121828,1,0,0:0:0:0:
256,192,121919,1,0,0:0:0:0:
256,192,122010,1,0,0:0:0:0:
256,192,122192,1,8,0:0:0:0:
256,192,122374,1,8,0:0:0:0:
256,192,122737,1,0,0:0:0:0:
256,192,123101,1,8,0:0:0:0:
256,192,123283,1,0,0:0:0:0:
256,192,123374,1,0,0:0:0:0:
256,192,123465,1,0,0:0:0:0:
256,192,123646,1,0,0:0:0:0:
256,192,123828,1,8,0:0:0:0:
256,192,124192,1,0,0:0:0:0:
256,192,124374,1,8,0:0:0:0:
256,192,124465,1,8,0:0:0:0:
256,192,124556,1,8,0:0:0:0:
256,192,124737,1,8,0:0:0:0:
256,192,124919,1,0,0:0:0:0:
256,192,125010,1,0,0:0:0:0:
256,192,125101,1,0,0:0:0:0:
256,192,125283,1,8,0:0:0:0:
256,192,125465,1,0,0:0:0:0:
256,192,125646,1,12,0:0:0:0:
256,192,125919,1,8,0:0:0:0:
256,192,126192,1,8,0:0:0:0:
256,192,126374,1,0,0:0:0:0:
256,192,126737,1,0,0:0:0:0:
256,192,127101,1,8,0:0:0:0:
256,192,127374,1,8,0:0:0:0:
256,192,127646,1,8,0:0:0:0:
256,192,127828,1,0,0:0:0:0:
256,192,128192,1,8,0:0:0:0:
256,192,128556,1,0,0:0:0:0:
256,192,128919,1,8,0:0:0:0:
256,192,129101,1,8,0:0:0:0:
256,192,129283,1,0,0:0:0:0:
256,192,129646,1,8,0:0:0:0:
256,192,130010,1,0,0:0:0:0:
256,192,130283,1,0,0:0:0:0:
256,192,130556,1,0,0:0:0:0:
256,192,130737,1,8,0:0:0:0:
256,192,131010,1,8,0:0:0:0:
256,192,131283,1,0,0:0:0:0:
256,192,131465,1,8,0:0:0:0:
