osu file format v14

[General]
AudioFilename: TOXIC VIBRATION.mp3
AudioLeadIn: 0
PreviewTime: 60117
Countdown: 0
SampleSet: Normal
StackLeniency: 0.7
Mode: 1
LetterboxInBreaks: 0
WidescreenStoryboard: 0

[Editor]
DistanceSpacing: 0.8
BeatDivisor: 1
GridSize: 4
TimelineZoom: 0.6999998

[Metadata]
Title:TOXIC VIBRATION
TitleUnicode:TOXIC VIBRATION
Artist:SOUND HOLIC Vs. T.Kakuta feat. YURiCa
ArtistUnicode:SOUND HOLIC Vs. T.Kakuta feat. YURiCa
Creator:KamizonoShinobu
Version:Kantan
Source:GITADORA OverDrive
Tags:8STYLE Nana Takahashi beatmania IIDX 22 PENDUAL pop'n music ラピストリア SDVX SOUND VOLTEX III GRAVITY WARS MELODIC SPEED METAL
BeatmapID:1146539
BeatmapSetID:540714

[Difficulty]
HPDrainRate:7
CircleSize:5
OverallDifficulty:3
ApproachRate:5
SliderMultiplier:1.4
SliderTickRate:1

[Events]
//Background and Video events
0,0,"space-hell-1280x720-wallpaper.jpg",0,0
//Break Periods
//Storyboard Layer 0 (Background)
//Storyboard Layer 1 (Fail)
//Storyboard Layer 2 (Pass)
//Storyboard Layer 3 (Foreground)
//Storyboard Sound Samples

[TimingPoints]
1945,304.568527918782,4,1,0,85,1,0
60422,-100,4,1,0,85,0,1
79914,-100,4,1,0,85,0,0
101843,-100,4,1,0,85,0,1
121335,-100,4,1,0,85,0,0

[HitObjects]
168,212,1945,5,4,0:0:0:0:
72,292,3163,2,4,P|136:96|376:76,1,420
184,232,4381,1,4,0:0:0:0:
80,192,5599,1,4,0:0:0:0:
136,180,6208,1,8,0:0:0:0:
80,192,6818,1,4,0:0:0:0:
136,180,7427,1,8,0:0:0:0:
80,192,8036,1,4,0:0:0:0:
136,180,8645,1,8,0:0:0:0:
80,192,9254,1,4,0:0:0:0:
136,180,9863,1,8,0:0:0:0:
80,192,10472,1,0,0:0:0:0:
136,180,10777,1,0,0:0:0:0:
80,192,11082,1,8,0:0:0:0:
80,192,11691,1,4,0:0:0:0:
168,168,12909,1,0,0:0:0:0:
168,168,13518,1,8,0:0:0:0:
168,168,14127,1,0,0:0:0:0:
168,168,14736,1,8,0:0:0:0:
168,168,15346,1,0,0:0:0:0:
168,168,16564,1,0,0:0:0:0:
168,168,17173,1,8,0:0:0:0:
168,168,17782,1,0,0:0:0:0:
168,168,18391,1,8,0:0:0:0:
168,168,19000,1,0,0:0:0:0:
168,168,19609,1,0,0:0:0:0:
256,192,20219,12,0,20828,0:0:0:0:
164,192,21437,5,0,0:0:0:0:
164,192,22351,1,8,0:0:0:0:
164,192,22960,1,8,0:0:0:0:
164,192,23569,1,8,0:0:0:0:
164,192,23873,1,0,0:0:0:0:
164,192,24178,1,8,0:0:0:0:
164,192,24787,1,8,0:0:0:0:
164,192,25396,1,8,0:0:0:0:
164,192,25701,1,8,0:0:0:0:
172,180,26310,1,0,0:0:0:0:
164,192,27224,1,8,0:0:0:0:
164,192,27833,1,8,0:0:0:0:
164,192,28442,1,8,0:0:0:0:
164,192,28747,1,0,0:0:0:0:
164,192,29051,1,8,0:0:0:0:
164,192,29660,1,8,0:0:0:0:
164,192,30269,1,8,0:0:0:0:
164,192,30574,1,8,0:0:0:0:
164,192,31183,1,4,0:0:0:0:
224,132,32097,1,8,0:0:0:0:
224,132,32401,1,0,0:0:0:0:
224,132,32706,1,8,0:0:0:0:
224,132,33315,1,8,0:0:0:0:
224,132,33620,1,0,0:0:0:0:
224,132,33924,1,8,0:0:0:0:
224,132,34533,1,8,0:0:0:0:
224,132,34838,1,0,0:0:0:0:
224,132,36056,1,0,0:0:0:0:
224,132,36970,1,8,0:0:0:0:
224,132,37274,1,0,0:0:0:0:
224,132,37579,1,8,0:0:0:0:
224,132,38188,1,8,0:0:0:0:
224,132,38493,1,0,0:0:0:0:
224,132,38797,1,8,0:0:0:0:
224,132,39406,1,8,0:0:0:0:
224,132,39711,1,0,0:0:0:0:
224,132,40929,1,4,0:0:0:0:
108,176,42148,1,0,0:0:0:0:
224,132,43366,1,12,0:0:0:0:
108,176,44584,1,8,0:0:0:0:
224,132,45802,1,4,0:0:0:0:
108,176,47021,1,0,0:0:0:0:
224,132,48239,1,4,0:0:0:0:
224,132,48696,1,4,0:0:0:0:
224,132,49457,1,4,0:0:0:0:
108,176,50675,1,0,0:0:0:0:
108,176,51285,1,0,0:0:0:0:
108,176,51894,1,0,0:0:0:0:
108,176,52198,1,0,0:0:0:0:
108,176,52503,1,0,0:0:0:0:
108,176,53112,1,8,0:0:0:0:
108,176,53721,1,8,0:0:0:0:
108,176,54330,1,8,0:0:0:0:
108,176,55549,1,0,0:0:0:0:
108,176,56158,1,0,0:0:0:0:
108,176,56767,1,0,0:0:0:0:
108,176,57071,1,0,0:0:0:0:
108,176,57376,1,0,0:0:0:0:
108,176,57985,1,4,0:0:0:0:
108,176,58442,1,4,0:0:0:0:
108,176,58899,1,4,0:0:0:0:
112,276,59203,2,4,P|208:100|324:88,1,280
240,208,60422,1,0,0:0:0:0:
240,196,61031,1,0,0:0:0:0:
28,148,61640,1,0,0:0:0:0:
28,148,61945,1,0,0:0:0:0:
28,148,62249,1,0,0:0:0:0:
28,148,62858,1,8,0:0:0:0:
28,148,63467,1,8,0:0:0:0:
28,148,64076,1,8,0:0:0:0:
28,148,65295,1,0,0:0:0:0:
28,148,65904,1,8,0:0:0:0:
28,148,66208,1,8,0:0:0:0:
28,148,66513,1,0,0:0:0:0:
28,148,67122,1,8,0:0:0:0:
28,148,67427,1,0,0:0:0:0:
28,148,67731,1,0,0:0:0:0:
28,148,68340,1,8,0:0:0:0:
212,216,68950,1,0,0:0:0:0:
244,200,70168,1,0,0:0:0:0:
244,200,70777,1,0,0:0:0:0:
244,200,71386,1,0,0:0:0:0:
244,200,71691,1,0,0:0:0:0:
244,200,71995,1,0,0:0:0:0:
244,200,72604,1,8,0:0:0:0:
244,200,73214,1,8,0:0:0:0:
244,200,73823,1,8,0:0:0:0:
244,200,75041,1,0,0:0:0:0:
244,200,75650,1,8,0:0:0:0:
244,200,75955,1,8,0:0:0:0:
244,200,76259,1,0,0:0:0:0:
244,200,76868,1,8,0:0:0:0:
244,200,77173,1,0,0:0:0:0:
244,200,77477,1,0,0:0:0:0:
244,200,78087,1,8,0:0:0:0:
192,192,78696,1,0,0:0:0:0:
256,192,79914,12,0,82351,0:0:0:0:
192,168,84787,5,0,0:0:0:0:
192,168,85396,1,0,0:0:0:0:
192,168,85701,1,0,0:0:0:0:
192,168,86005,1,8,0:0:0:0:
192,168,86310,1,8,0:0:0:0:
192,168,86615,1,0,0:0:0:0:
80,264,87224,2,0,P|132:92|376:64,1,420
256,192,88442,12,0,89356,0:0:0:0:
108,176,89660,5,0,0:0:0:0:
108,176,90270,1,0,0:0:0:0:
108,176,90879,1,0,0:0:0:0:
108,176,91183,1,0,0:0:0:0:
108,176,91488,1,8,0:0:0:0:
108,176,92097,1,0,0:0:0:0:
108,176,92706,1,0,0:0:0:0:
108,176,93315,1,8,0:0:0:0:
108,176,94534,1,0,0:0:0:0:
108,176,95143,1,0,0:0:0:0:
108,176,95752,1,0,0:0:0:0:
108,176,96056,1,0,0:0:0:0:
108,176,96361,1,8,0:0:0:0:
108,176,96970,1,4,0:0:0:0:
108,176,97427,1,4,0:0:0:0:
108,176,97884,1,4,0:0:0:0:
204,176,98188,1,4,0:0:0:0:
204,176,98645,1,12,0:0:0:0:
204,176,99102,1,12,0:0:0:0:
124,312,99406,2,4,P|400:64|392:304,1,840
204,268,101843,1,0,0:0:0:0:
204,268,102452,1,0,0:0:0:0:
204,268,103061,1,0,0:0:0:0:
204,268,103366,1,0,0:0:0:0:
204,268,103670,1,8,0:0:0:0:
204,268,104280,1,0,0:0:0:0:
204,268,104889,1,0,0:0:0:0:
204,268,105498,1,8,0:0:0:0:
204,268,106716,1,0,0:0:0:0:
204,268,107325,1,8,0:0:0:0:
204,268,107630,1,8,0:0:0:0:
204,268,107934,1,0,0:0:0:0:
204,268,108543,1,8,0:0:0:0:
204,268,108848,1,0,0:0:0:0:
204,268,109153,1,0,0:0:0:0:
204,268,109762,1,8,0:0:0:0:
144,168,110371,1,0,0:0:0:0:
204,268,111589,5,0,0:0:0:0:
204,268,112198,1,0,0:0:0:0:
204,268,112807,1,8,0:0:0:0:
204,268,113112,1,8,0:0:0:0:
204,268,113417,1,8,0:0:0:0:
204,268,114026,1,0,0:0:0:0:
204,268,114635,1,0,0:0:0:0:
204,268,115244,1,8,0:0:0:0:
204,268,116462,1,0,0:0:0:0:
204,268,116767,1,0,0:0:0:0:
204,268,117071,1,0,0:0:0:0:
204,268,117681,1,8,0:0:0:0:
204,268,117985,1,8,0:0:0:0:
204,268,118290,1,8,0:0:0:0:
204,268,118899,1,0,0:0:0:0:
204,268,119203,1,0,0:0:0:0:
204,268,119508,1,0,0:0:0:0:
204,268,120117,1,8,0:0:0:0:
204,268,120422,1,8,0:0:0:0:
204,268,120726,1,8,0:0:0:0:
256,192,121335,12,0,123163,0:0:0:0:
48,164,123772,5,4,0:0:0:0:
