osu file format v14

[General]
AudioFilename: TOXIC VIBRATION.mp3
AudioLeadIn: 0
PreviewTime: 60117
Countdown: 0
SampleSet: Normal
StackLeniency: 0.7
Mode: 1
LetterboxInBreaks: 0
WidescreenStoryboard: 0

[Editor]
DistanceSpacing: 0.8
BeatDivisor: 2
GridSize: 4
TimelineZoom: 0.9999999

[Metadata]
Title:TOXIC VIBRATION
TitleUnicode:TOXIC VIBRATION
Artist:SOUND HOLIC Vs. T.Kakuta feat. YURiCa
ArtistUnicode:SOUND HOLIC Vs. T.Kakuta feat. YURiCa
Creator:KamizonoShinobu
Version:Futsuu
Source:GITADORA OverDrive
Tags:8STYLE Nana Takahashi beatmania IIDX 22 PENDUAL pop'n music ラピストリア SDVX SOUND VOLTEX III GRAVITY WARS MELODIC SPEED METAL
BeatmapID:1146538
BeatmapSetID:540714

[Difficulty]
HPDrainRate:6
CircleSize:5
OverallDifficulty:4
ApproachRate:5
SliderMultiplier:1.4
SliderTickRate:1

[Events]
//Background and Video events
0,0,"space-hell-1280x720-wallpaper.jpg",0,0
//Break Periods
//Storyboard Layer 0 (Background)
//Storyboard Layer 1 (Fail)
//Storyboard Layer 2 (Pass)
//Storyboard Layer 3 (Foreground)
//Storyboard Sound Samples

[TimingPoints]
1945,304.568527918782,4,1,0,85,1,0
60422,-100,4,1,0,85,0,1
79914,-100,4,1,0,85,0,0
101843,-100,4,1,0,85,0,1
121335,-100,4,1,0,85,0,0

[HitObjects]
168,212,1945,5,4,0:0:0:0:
72,292,3163,2,4,P|136:96|376:76,1,420
184,232,4381,1,4,0:0:0:0:
80,192,5599,1,4,0:0:0:0:
80,192,6208,1,8,0:0:0:0:
80,192,6818,1,4,0:0:0:0:
80,192,7427,1,8,0:0:0:0:
80,192,8036,1,4,0:0:0:0:
80,192,8645,1,8,0:0:0:0:
80,192,8950,1,8,0:0:0:0:
80,192,9254,1,4,0:0:0:0:
80,192,9863,1,8,0:0:0:0:
80,192,10168,1,8,0:0:0:0:
80,192,10472,1,0,0:0:0:0:
80,192,10777,1,0,0:0:0:0:
80,192,10929,1,0,0:0:0:0:
80,192,11082,1,8,0:0:0:0:
80,192,11691,1,4,0:0:0:0:
168,168,12300,1,8,0:0:0:0:
168,168,12452,1,8,0:0:0:0:
168,168,12604,1,8,0:0:0:0:
168,168,12909,1,0,0:0:0:0:
168,168,13518,1,8,0:0:0:0:
168,168,13670,1,8,0:0:0:0:
168,168,13823,1,8,0:0:0:0:
168,168,14127,1,0,0:0:0:0:
168,168,14736,1,8,0:0:0:0:
168,168,14889,1,8,0:0:0:0:
168,168,15041,1,0,0:0:0:0:
168,168,15346,1,0,0:0:0:0:
168,168,15955,1,8,0:0:0:0:
168,168,16107,1,8,0:0:0:0:
168,168,16259,1,0,0:0:0:0:
168,168,16564,1,0,0:0:0:0:
168,168,17173,1,8,0:0:0:0:
168,168,17782,1,0,0:0:0:0:
168,168,18391,1,8,0:0:0:0:
168,168,19000,1,0,0:0:0:0:
164,224,19305,1,0,0:0:0:0:
168,168,19609,1,8,0:0:0:0:
256,192,20219,12,0,20828,0:0:0:0:
164,192,21437,5,0,0:0:0:0:
164,192,21741,1,8,0:0:0:0:
164,192,21894,1,0,0:0:0:0:
164,192,22351,1,8,0:0:0:0:
164,192,22655,1,0,0:0:0:0:
164,192,22960,1,8,0:0:0:0:
140,164,23417,1,0,0:0:0:0:
164,192,23569,1,8,0:0:0:0:
164,192,23873,1,0,0:0:0:0:
164,192,24178,1,8,0:0:0:0:
164,192,24330,1,0,0:0:0:0:
164,192,24787,1,8,0:0:0:0:
164,192,25092,1,0,0:0:0:0:
164,192,25396,1,8,0:0:0:0:
136,156,25853,1,8,0:0:0:0:
164,192,26005,1,8,0:0:0:0:
164,192,26310,1,0,0:0:0:0:
164,192,26615,1,8,0:0:0:0:
164,192,26767,1,0,0:0:0:0:
164,192,27224,1,8,0:0:0:0:
164,192,27528,1,0,0:0:0:0:
164,192,27833,1,8,0:0:0:0:
164,192,28290,1,0,0:0:0:0:
164,192,28442,1,8,0:0:0:0:
164,192,28747,1,0,0:0:0:0:
164,192,29051,1,8,0:0:0:0:
164,192,29203,1,0,0:0:0:0:
164,192,29660,1,8,0:0:0:0:
164,192,29965,1,0,0:0:0:0:
164,192,30269,1,8,0:0:0:0:
136,192,30726,1,8,0:0:0:0:
164,192,30879,1,8,0:0:0:0:
164,192,31183,1,0,0:0:0:0:
184,168,31488,1,8,0:0:0:0:
184,168,31640,1,0,0:0:0:0:
224,132,32097,1,8,0:0:0:0:
224,132,32401,1,0,0:0:0:0:
224,132,32706,1,8,0:0:0:0:
224,132,33010,1,0,0:0:0:0:
224,132,33163,1,0,0:0:0:0:
224,132,33315,1,8,0:0:0:0:
224,132,33620,1,0,0:0:0:0:
224,132,33924,1,8,0:0:0:0:
224,132,34076,1,0,0:0:0:0:
224,132,34533,1,8,0:0:0:0:
224,132,34838,1,0,0:0:0:0:
224,132,35142,1,8,0:0:0:0:
224,132,35447,1,0,0:0:0:0:
224,132,35599,1,8,0:0:0:0:
224,132,35752,1,8,0:0:0:0:
224,132,36056,1,0,0:0:0:0:
224,132,36361,1,8,0:0:0:0:
224,132,36513,1,0,0:0:0:0:
224,132,36970,1,8,0:0:0:0:
224,132,37274,1,0,0:0:0:0:
224,132,37579,1,8,0:0:0:0:
224,132,37884,1,0,0:0:0:0:
224,132,38036,1,0,0:0:0:0:
224,132,38188,1,8,0:0:0:0:
224,132,38493,1,0,0:0:0:0:
224,132,38797,1,8,0:0:0:0:
224,132,38950,1,0,0:0:0:0:
224,132,39406,1,8,0:0:0:0:
224,132,39711,1,0,0:0:0:0:
224,132,40016,1,8,0:0:0:0:
224,132,40320,1,0,0:0:0:0:
224,132,40472,1,8,0:0:0:0:
224,132,40625,1,8,0:0:0:0:
224,132,40929,1,4,0:0:0:0:
108,176,41538,1,8,0:0:0:0:
108,176,42148,1,0,0:0:0:0:
108,176,42757,1,8,0:0:0:0:
232,188,43061,1,8,0:0:0:0:
224,132,43366,1,4,0:0:0:0:
108,176,43975,1,8,0:0:0:0:
108,176,44584,1,0,0:0:0:0:
224,132,45802,1,4,0:0:0:0:
108,176,46412,1,8,0:0:0:0:
108,176,47021,1,0,0:0:0:0:
108,176,47630,1,8,0:0:0:0:
136,152,47934,1,8,0:0:0:0:
224,132,48239,1,4,0:0:0:0:
224,132,48696,1,4,0:0:0:0:
224,132,49153,1,4,0:0:0:0:
224,132,49457,1,4,0:0:0:0:
164,176,50066,1,12,0:0:0:0:
108,176,50675,1,0,0:0:0:0:
176,172,50980,1,8,0:0:0:0:
108,176,51285,1,0,0:0:0:0:
108,176,51894,1,0,0:0:0:0:
108,176,52198,1,0,0:0:0:0:
108,176,52503,1,8,0:0:0:0:
152,216,52655,1,8,0:0:0:0:
152,216,52807,1,8,0:0:0:0:
108,176,53112,1,0,0:0:0:0:
168,176,53417,1,8,0:0:0:0:
108,176,53721,1,0,0:0:0:0:
108,176,54330,1,0,0:0:0:0:
108,176,54635,1,0,0:0:0:0:
124,192,54939,1,8,0:0:0:0:
108,176,55549,1,0,0:0:0:0:
160,144,55853,1,8,0:0:0:0:
108,176,56158,1,0,0:0:0:0:
108,176,56767,1,0,0:0:0:0:
108,176,57071,1,0,0:0:0:0:
108,176,57376,1,8,0:0:0:0:
124,192,57528,1,8,0:0:0:0:
124,192,57681,1,8,0:0:0:0:
108,176,57985,1,4,0:0:0:0:
108,176,58442,1,4,0:0:0:0:
108,176,58899,1,4,0:0:0:0:
112,276,59203,2,4,P|208:100|324:88,1,280
240,208,60422,1,0,0:0:0:0:
240,208,60726,1,0,0:0:0:0:
240,208,60879,1,0,0:0:0:0:
240,208,61183,1,8,0:0:0:0:
240,208,61488,1,0,0:0:0:0:
240,208,61945,1,8,0:0:0:0:
240,208,62249,1,8,0:0:0:0:
140,148,62858,1,0,0:0:0:0:
212,176,63163,1,0,0:0:0:0:
212,176,63467,1,8,0:0:0:0:
212,176,63772,1,8,0:0:0:0:
212,176,64076,1,0,0:0:0:0:
212,176,64381,1,8,0:0:0:0:
212,176,64533,1,8,0:0:0:0:
212,176,65295,1,0,0:0:0:0:
212,176,65599,1,0,0:0:0:0:
212,176,65904,1,8,0:0:0:0:
212,176,66056,1,8,0:0:0:0:
212,176,66208,1,8,0:0:0:0:
212,176,66513,1,0,0:0:0:0:
212,176,66818,1,0,0:0:0:0:
212,176,67122,1,8,0:0:0:0:
212,176,67731,1,0,0:0:0:0:
212,176,68036,1,8,0:0:0:0:
212,176,68340,1,0,0:0:0:0:
212,176,68569,1,8,0:0:0:0:
212,176,68797,1,8,0:0:0:0:
212,176,68950,1,4,0:0:0:0:
212,176,69178,1,4,0:0:0:0:
212,176,69406,1,12,0:0:0:0:
212,176,69559,1,4,0:0:0:0:
208,116,70168,1,0,0:0:0:0:
208,116,70472,1,0,0:0:0:0:
208,116,70625,1,0,0:0:0:0:
208,116,70929,1,8,0:0:0:0:
208,116,71234,1,0,0:0:0:0:
208,116,71691,1,8,0:0:0:0:
208,116,71995,1,8,0:0:0:0:
208,116,72604,1,0,0:0:0:0:
208,116,72909,1,0,0:0:0:0:
208,116,73214,1,8,0:0:0:0:
208,116,73518,1,8,0:0:0:0:
208,116,73823,1,0,0:0:0:0:
208,116,74127,1,8,0:0:0:0:
208,116,74280,1,8,0:0:0:0:
208,116,75041,1,0,0:0:0:0:
208,116,75346,1,8,0:0:0:0:
208,116,75498,1,8,0:0:0:0:
208,116,75650,1,8,0:0:0:0:
208,116,75955,1,8,0:0:0:0:
208,116,76259,1,0,0:0:0:0:
208,116,76564,1,8,0:0:0:0:
208,116,76716,1,8,0:0:0:0:
208,116,76868,1,0,0:0:0:0:
208,116,77477,1,0,0:0:0:0:
208,116,77782,1,8,0:0:0:0:
208,116,78087,1,0,0:0:0:0:
208,116,78315,1,8,0:0:0:0:
208,116,78543,1,8,0:0:0:0:
236,144,78696,1,4,0:0:0:0:
236,144,78924,1,4,0:0:0:0:
236,144,79153,1,12,0:0:0:0:
236,144,79305,1,4,0:0:0:0:
176,168,79914,1,0,0:0:0:0:
176,168,80219,1,8,0:0:0:0:
176,168,80523,1,0,0:0:0:0:
176,168,81132,1,0,0:0:0:0:
176,168,81437,1,8,0:0:0:0:
176,168,81589,1,8,0:0:0:0:
176,168,81741,1,0,0:0:0:0:
176,168,82046,1,8,0:0:0:0:
176,168,82351,1,0,0:0:0:0:
176,168,82655,1,8,0:0:0:0:
176,168,82960,1,0,0:0:0:0:
176,168,83569,1,0,0:0:0:0:
176,168,83873,1,8,0:0:0:0:
176,168,84178,1,0,0:0:0:0:
192,168,84787,5,0,0:0:0:0:
164,144,85092,1,0,0:0:0:0:
164,144,85396,1,8,0:0:0:0:
164,144,85549,1,8,0:0:0:0:
164,144,85701,1,8,0:0:0:0:
164,144,86005,1,0,0:0:0:0:
164,144,86310,1,0,0:0:0:0:
164,144,86615,1,8,0:0:0:0:
164,144,86919,1,0,0:0:0:0:
80,264,87224,2,0,P|132:92|376:64,1,420
256,192,88442,12,0,89356,0:0:0:0:
108,176,89660,5,0,0:0:0:0:
160,268,89965,1,8,0:0:0:0:
108,176,90270,1,0,0:0:0:0:
108,176,90879,1,0,0:0:0:0:
108,176,91183,1,0,0:0:0:0:
160,268,91488,1,8,0:0:0:0:
160,268,91640,1,8,0:0:0:0:
160,268,91792,1,8,0:0:0:0:
108,176,92097,1,0,0:0:0:0:
160,268,92401,1,8,0:0:0:0:
108,176,92706,1,0,0:0:0:0:
108,176,93315,1,0,0:0:0:0:
108,176,93620,1,8,0:0:0:0:
204,176,93924,1,0,0:0:0:0:
160,268,94076,1,0,0:0:0:0:
160,268,94229,1,8,0:0:0:0:
108,176,94534,1,0,0:0:0:0:
160,268,94838,1,8,0:0:0:0:
108,176,95143,1,0,0:0:0:0:
108,176,95752,1,0,0:0:0:0:
108,176,96056,1,0,0:0:0:0:
160,268,96361,1,8,0:0:0:0:
160,268,96513,1,8,0:0:0:0:
160,268,96665,1,8,0:0:0:0:
108,176,96970,1,4,0:0:0:0:
108,176,97427,1,4,0:0:0:0:
108,176,97884,1,4,0:0:0:0:
204,176,98188,1,4,0:0:0:0:
204,176,98645,1,12,0:0:0:0:
204,176,99102,1,12,0:0:0:0:
124,312,99406,2,4,P|400:64|392:304,1,840
204,268,101843,1,0,0:0:0:0:
204,268,102148,1,0,0:0:0:0:
204,268,102300,1,0,0:0:0:0:
204,268,102604,1,8,0:0:0:0:
204,268,102909,1,0,0:0:0:0:
204,268,103366,1,8,0:0:0:0:
204,268,103670,1,8,0:0:0:0:
204,268,104280,1,0,0:0:0:0:
204,268,104584,1,0,0:0:0:0:
204,268,104889,1,8,0:0:0:0:
204,268,105193,1,8,0:0:0:0:
204,268,105498,1,0,0:0:0:0:
204,268,105802,1,8,0:0:0:0:
204,268,105955,1,8,0:0:0:0:
204,268,106716,1,0,0:0:0:0:
204,268,107021,1,8,0:0:0:0:
204,268,107173,1,8,0:0:0:0:
204,268,107325,1,8,0:0:0:0:
204,268,107630,1,8,0:0:0:0:
204,268,107934,1,0,0:0:0:0:
204,268,108239,1,8,0:0:0:0:
204,268,108391,1,8,0:0:0:0:
204,268,108543,1,0,0:0:0:0:
204,268,109153,1,0,0:0:0:0:
204,268,109457,1,8,0:0:0:0:
204,268,109762,1,0,0:0:0:0:
204,268,109990,1,8,0:0:0:0:
204,268,110219,1,8,0:0:0:0:
204,268,110371,1,4,0:0:0:0:
204,268,110599,1,4,0:0:0:0:
204,268,110828,1,12,0:0:0:0:
204,268,110980,1,4,0:0:0:0:
204,268,111589,1,0,0:0:0:0:
204,268,111894,1,0,0:0:0:0:
204,268,112198,1,0,0:0:0:0:
204,268,112503,1,0,0:0:0:0:
204,268,112807,1,8,0:0:0:0:
204,268,113112,1,8,0:0:0:0:
204,268,113417,1,8,0:0:0:0:
204,268,114026,1,0,0:0:0:0:
204,268,114330,1,0,0:0:0:0:
204,268,114635,1,8,0:0:0:0:
204,268,114939,1,8,0:0:0:0:
204,268,115244,1,0,0:0:0:0:
204,268,115549,1,0,0:0:0:0:
204,268,115853,1,8,0:0:0:0:
204,268,116462,1,0,0:0:0:0:
204,268,116767,1,8,0:0:0:0:
204,268,117071,1,0,0:0:0:0:
204,268,117224,1,0,0:0:0:0:
204,268,117376,1,8,0:0:0:0:
204,268,117681,1,0,0:0:0:0:
204,268,117985,1,8,0:0:0:0:
204,268,118290,1,0,0:0:0:0:
204,268,118899,1,0,0:0:0:0:
204,268,119203,1,8,0:0:0:0:
204,268,119508,1,0,0:0:0:0:
204,268,119660,1,8,0:0:0:0:
204,268,119813,1,8,0:0:0:0:
204,268,120117,1,0,0:0:0:0:
204,268,120422,1,8,0:0:0:0:
204,268,120726,1,0,0:0:0:0:
256,192,121335,12,0,123163,0:0:0:0:
48,164,123772,5,4,0:0:0:0:
