osu file format v14

[General]
AudioFilename: TOXIC VIBRATION.mp3
AudioLeadIn: 0
PreviewTime: 60117
Countdown: 0
SampleSet: Normal
StackLeniency: 0.7
Mode: 1
LetterboxInBreaks: 0
WidescreenStoryboard: 0

[Editor]
DistanceSpacing: 0.8
BeatDivisor: 4
GridSize: 4
TimelineZoom: 2.799999

[Metadata]
Title:TOXIC VIBRATION
TitleUnicode:TOXIC VIBRATION
Artist:SOUND HOLIC Vs. T.Kakuta feat. YURiCa
ArtistUnicode:SOUND HOLIC Vs. T.Kakuta feat. YURiCa
Creator:KamizonoShinobu
Version:Fatal Oni
Source:GITADORA OverDrive
Tags:8STYLE Nana Takahashi beatmania IIDX 22 PENDUAL pop'n music ラピストリア SDVX SOUND VOLTEX III GRAVITY WARS MELODIC SPEED METAL
BeatmapID:1146537
BeatmapSetID:540714

[Difficulty]
HPDrainRate:6
CircleSize:5
OverallDifficulty:7
ApproachRate:5
SliderMultiplier:1.4
SliderTickRate:1

[Events]
//Background and Video events
0,0,"space-hell-1280x720-wallpaper.jpg",0,0
//Break Periods
//Storyboard Layer 0 (Background)
//Storyboard Layer 1 (Fail)
//Storyboard Layer 2 (Pass)
//Storyboard Layer 3 (Foreground)
//Storyboard Sound Samples

[TimingPoints]
1945,304.568527918782,4,1,0,85,1,0
60422,-100,4,1,0,85,0,1
79914,-100,4,1,0,85,0,0
101843,-100,4,1,0,85,0,1
121335,-100,4,1,0,85,0,0

[HitObjects]
192,180,1945,5,4,0:0:0:0:
92,280,3163,2,4,B|100:128|248:72|440:92,1,420
200,160,4381,1,4,0:0:0:0:
184,168,5599,1,4,0:0:0:0:
188,164,6208,1,8,0:0:0:0:
184,168,6285,1,8,0:0:0:0:
184,168,6361,1,8,0:0:0:0:
184,168,6437,1,8,0:0:0:0:
184,168,6513,1,0,0:0:0:0:
184,168,6818,1,4,0:0:0:0:
188,164,7427,1,8,0:0:0:0:
188,164,7503,1,8,0:0:0:0:
188,164,7579,1,8,0:0:0:0:
188,164,7655,1,8,0:0:0:0:
188,164,7731,1,0,0:0:0:0:
188,164,8036,1,4,0:0:0:0:
248,196,8340,1,0,0:0:0:0:
200,116,8645,1,8,0:0:0:0:
200,116,8721,1,8,0:0:0:0:
200,116,8797,1,8,0:0:0:0:
200,116,8873,1,8,0:0:0:0:
200,116,8950,1,0,0:0:0:0:
248,196,9102,1,8,0:0:0:0:
200,116,9254,1,4,0:0:0:0:
248,196,9559,1,0,0:0:0:0:
248,196,9711,1,0,0:0:0:0:
248,196,9863,1,8,0:0:0:0:
248,196,9939,1,8,0:0:0:0:
248,196,10016,1,8,0:0:0:0:
248,196,10092,1,8,0:0:0:0:
248,196,10168,1,0,0:0:0:0:
248,196,10320,1,8,0:0:0:0:
248,144,10472,1,0,0:0:0:0:
248,144,10549,1,0,0:0:0:0:
248,144,10625,1,8,0:0:0:0:
248,144,10701,1,8,0:0:0:0:
248,144,10777,1,0,0:0:0:0:
248,144,10853,1,0,0:0:0:0:
136,160,10929,1,8,0:0:0:0:
136,160,10980,1,0,0:0:0:0:
136,160,11031,1,0,0:0:0:0:
136,160,11082,1,8,0:0:0:0:
248,196,11691,1,4,0:0:0:0:
248,196,11843,1,8,0:0:0:0:
248,196,11995,1,0,0:0:0:0:
248,196,12071,1,0,0:0:0:0:
248,196,12148,1,8,0:0:0:0:
248,196,12300,1,0,0:0:0:0:
248,196,12452,1,8,0:0:0:0:
248,196,12528,1,0,0:0:0:0:
248,196,12681,1,0,0:0:0:0:
248,196,12757,1,8,0:0:0:0:
144,176,12909,1,0,0:0:0:0:
144,176,13061,1,8,0:0:0:0:
144,176,13214,1,0,0:0:0:0:
144,176,13290,1,0,0:0:0:0:
144,176,13366,1,8,0:0:0:0:
144,176,13518,1,0,0:0:0:0:
144,176,13670,1,8,0:0:0:0:
144,176,13747,1,0,0:0:0:0:
144,176,13899,1,8,0:0:0:0:
144,176,13975,1,8,0:0:0:0:
144,176,14127,1,0,0:0:0:0:
144,176,14280,1,8,0:0:0:0:
144,176,14432,1,0,0:0:0:0:
144,176,14508,1,0,0:0:0:0:
144,176,14584,1,8,0:0:0:0:
144,176,14736,1,0,0:0:0:0:
144,176,14889,1,8,0:0:0:0:
144,176,14965,1,0,0:0:0:0:
144,176,15117,1,0,0:0:0:0:
144,176,15193,1,8,0:0:0:0:
144,176,15346,1,0,0:0:0:0:
144,176,15498,1,8,0:0:0:0:
144,176,15650,1,0,0:0:0:0:
144,176,15726,1,0,0:0:0:0:
144,176,15802,1,8,0:0:0:0:
144,176,15955,1,0,0:0:0:0:
144,176,16107,1,8,0:0:0:0:
144,176,16183,1,0,0:0:0:0:
144,176,16335,1,8,0:0:0:0:
144,176,16412,1,8,0:0:0:0:
200,188,16488,1,8,0:0:0:0:
144,176,16564,1,0,0:0:0:0:
144,176,16716,1,8,0:0:0:0:
144,176,16868,1,0,0:0:0:0:
144,176,16945,1,0,0:0:0:0:
144,176,17021,1,8,0:0:0:0:
144,176,17173,1,0,0:0:0:0:
144,176,17249,1,0,0:0:0:0:
144,176,17325,1,8,0:0:0:0:
144,176,17401,1,0,0:0:0:0:
176,172,17554,1,0,0:0:0:0:
144,176,17630,1,8,0:0:0:0:
144,176,17782,1,0,0:0:0:0:
144,176,17934,1,8,0:0:0:0:
144,176,18087,1,0,0:0:0:0:
144,176,18163,1,8,0:0:0:0:
144,176,18239,1,8,0:0:0:0:
144,176,18391,1,0,0:0:0:0:
144,176,18467,1,0,0:0:0:0:
144,176,18543,1,8,0:0:0:0:
144,176,18620,1,0,0:0:0:0:
144,176,18772,1,8,0:0:0:0:
144,176,18848,1,8,0:0:0:0:
144,176,19000,1,0,0:0:0:0:
144,176,19153,1,8,0:0:0:0:
144,176,19305,1,0,0:0:0:0:
144,176,19381,1,0,0:0:0:0:
144,176,19457,1,8,0:0:0:0:
144,176,19609,1,0,0:0:0:0:
144,176,19686,1,0,0:0:0:0:
144,176,19762,1,8,0:0:0:0:
144,176,19838,1,0,0:0:0:0:
124,144,19990,1,0,0:0:0:0:
144,176,20066,1,8,0:0:0:0:
244,144,20219,1,0,0:0:0:0:
244,144,20295,1,0,0:0:0:0:
244,144,20371,1,8,0:0:0:0:
244,144,20447,1,8,0:0:0:0:
244,144,20523,1,0,0:0:0:0:
244,144,20599,1,8,0:0:0:0:
244,144,20675,1,0,0:0:0:0:
244,144,20726,1,0,0:0:0:0:
244,144,20777,1,0,0:0:0:0:
244,144,20828,1,8,0:0:0:0:
244,144,21056,1,8,0:0:0:0:
244,144,21285,1,8,0:0:0:0:
244,144,21437,1,4,0:0:0:0:
244,144,21589,1,0,0:0:0:0:
244,145,21741,1,8,0:0:0:0:
244,144,21894,1,0,0:0:0:0:
244,144,22046,1,0,0:0:0:0:
244,144,22198,1,8,0:0:0:0:
244,144,22351,1,8,0:0:0:0:
244,144,22503,1,0,0:0:0:0:
244,144,22655,1,0,0:0:0:0:
244,144,22807,1,0,0:0:0:0:
244,144,22960,1,8,0:0:0:0:
244,144,23112,1,0,0:0:0:0:
244,144,23264,1,0,0:0:0:0:
244,144,23417,1,8,0:0:0:0:
244,144,23569,1,0,0:0:0:0:
244,144,23721,1,8,0:0:0:0:
244,144,23873,1,0,0:0:0:0:
244,144,24026,1,0,0:0:0:0:
244,144,24178,1,8,0:0:0:0:
244,144,24330,1,0,0:0:0:0:
244,144,24483,1,0,0:0:0:0:
244,144,24635,1,8,0:0:0:0:
244,144,24787,1,8,0:0:0:0:
244,144,24939,1,0,0:0:0:0:
244,144,25092,1,0,0:0:0:0:
244,144,25244,1,0,0:0:0:0:
244,144,25396,1,8,0:0:0:0:
244,144,25549,1,0,0:0:0:0:
244,144,25701,1,0,0:0:0:0:
244,144,25853,1,0,0:0:0:0:
244,144,26005,1,8,0:0:0:0:
244,144,26158,1,8,0:0:0:0:
244,144,26310,1,0,0:0:0:0:
244,144,26462,1,0,0:0:0:0:
244,144,26615,1,8,0:0:0:0:
244,144,26767,1,0,0:0:0:0:
244,144,26919,1,0,0:0:0:0:
244,144,27071,1,8,0:0:0:0:
244,144,27224,1,8,0:0:0:0:
244,144,27376,1,0,0:0:0:0:
244,144,27528,1,0,0:0:0:0:
244,144,27681,1,0,0:0:0:0:
244,144,27833,1,8,0:0:0:0:
244,144,27985,1,0,0:0:0:0:
244,144,28137,1,0,0:0:0:0:
244,144,28290,1,8,0:0:0:0:
244,144,28442,1,0,0:0:0:0:
244,144,28594,1,8,0:0:0:0:
244,144,28747,1,0,0:0:0:0:
244,144,28899,1,0,0:0:0:0:
244,144,29051,1,8,0:0:0:0:
244,144,29203,1,0,0:0:0:0:
244,144,29356,1,0,0:0:0:0:
244,144,29508,1,8,0:0:0:0:
244,144,29660,1,8,0:0:0:0:
244,144,29813,1,0,0:0:0:0:
244,144,29965,1,0,0:0:0:0:
244,144,30117,1,0,0:0:0:0:
244,144,30269,1,8,0:0:0:0:
244,144,30422,1,8,0:0:0:0:
172,168,30574,1,0,0:0:0:0:
172,168,30650,1,0,0:0:0:0:
172,168,30726,1,8,0:0:0:0:
172,168,30802,1,8,0:0:0:0:
172,168,30879,1,0,0:0:0:0:
172,168,31031,1,8,0:0:0:0:
172,168,31183,1,0,0:0:0:0:
172,168,31259,1,0,0:0:0:0:
172,168,31335,1,8,0:0:0:0:
172,168,31412,1,0,0:0:0:0:
172,168,31488,1,0,0:0:0:0:
172,168,31640,1,0,0:0:0:0:
172,168,31716,1,0,0:0:0:0:
172,168,31792,1,8,0:0:0:0:
172,168,31868,1,8,0:0:0:0:
172,168,31945,1,0,0:0:0:0:
172,168,32097,1,0,0:0:0:0:
172,168,32173,1,0,0:0:0:0:
172,168,32249,1,8,0:0:0:0:
172,168,32325,1,0,0:0:0:0:
172,168,32401,1,0,0:0:0:0:
172,168,32477,1,0,0:0:0:0:
172,168,32554,1,8,0:0:0:0:
172,168,32630,1,0,0:0:0:0:
172,168,32706,1,0,0:0:0:0:
172,168,32858,1,0,0:0:0:0:
172,168,32934,1,0,0:0:0:0:
172,168,33010,1,8,0:0:0:0:
172,168,33087,1,8,0:0:0:0:
172,168,33163,1,0,0:0:0:0:
172,168,33315,1,0,0:0:0:0:
172,168,33391,1,0,0:0:0:0:
172,168,33467,1,8,0:0:0:0:
172,168,33543,1,8,0:0:0:0:
172,168,33620,1,0,0:0:0:0:
172,168,33696,1,0,0:0:0:0:
172,168,33772,1,8,0:0:0:0:
172,168,33848,1,0,0:0:0:0:
172,168,33924,1,0,0:0:0:0:
172,168,34076,1,0,0:0:0:0:
172,168,34153,1,0,0:0:0:0:
172,168,34229,1,8,0:0:0:0:
172,168,34305,1,8,0:0:0:0:
172,168,34381,1,0,0:0:0:0:
172,168,34533,1,0,0:0:0:0:
172,168,34609,1,0,0:0:0:0:
172,168,34686,1,8,0:0:0:0:
172,168,34762,1,0,0:0:0:0:
172,168,34838,1,0,0:0:0:0:
172,168,34914,1,0,0:0:0:0:
172,168,34990,1,8,0:0:0:0:
172,168,35066,1,0,0:0:0:0:
172,168,35142,1,0,0:0:0:0:
172,168,35295,1,0,0:0:0:0:
172,168,35371,1,0,0:0:0:0:
172,168,35447,1,8,0:0:0:0:
172,168,35523,1,8,0:0:0:0:
172,168,35599,1,0,0:0:0:0:
172,168,35752,1,8,0:0:0:0:
172,168,35828,1,8,0:0:0:0:
172,168,35904,1,0,0:0:0:0:
172,168,35980,1,8,0:0:0:0:
172,168,36056,1,0,0:0:0:0:
172,168,36132,1,0,0:0:0:0:
172,168,36208,1,8,0:0:0:0:
172,168,36285,1,0,0:0:0:0:
172,168,36361,1,0,0:0:0:0:
172,168,36513,1,0,0:0:0:0:
172,168,36589,1,0,0:0:0:0:
172,168,36665,1,8,0:0:0:0:
172,168,36741,1,8,0:0:0:0:
172,168,36818,1,0,0:0:0:0:
172,168,36970,1,0,0:0:0:0:
172,168,37046,1,0,0:0:0:0:
172,168,37122,1,8,0:0:0:0:
172,168,37198,1,0,0:0:0:0:
172,168,37274,1,0,0:0:0:0:
172,168,37351,1,0,0:0:0:0:
172,168,37427,1,8,0:0:0:0:
172,168,37503,1,0,0:0:0:0:
172,168,37579,1,0,0:0:0:0:
172,168,37731,1,0,0:0:0:0:
172,168,37807,1,0,0:0:0:0:
172,168,37884,1,8,0:0:0:0:
172,168,37960,1,8,0:0:0:0:
172,168,38036,1,0,0:0:0:0:
172,168,38188,1,0,0:0:0:0:
172,168,38264,1,0,0:0:0:0:
172,168,38340,1,8,0:0:0:0:
172,168,38417,1,8,0:0:0:0:
172,168,38493,1,0,0:0:0:0:
172,168,38569,1,0,0:0:0:0:
172,168,38645,1,8,0:0:0:0:
172,168,38721,1,0,0:0:0:0:
172,168,38797,1,0,0:0:0:0:
172,168,38950,1,0,0:0:0:0:
172,168,39026,1,0,0:0:0:0:
172,168,39102,1,8,0:0:0:0:
172,168,39178,1,8,0:0:0:0:
172,168,39254,1,0,0:0:0:0:
172,168,39406,1,0,0:0:0:0:
172,168,39483,1,0,0:0:0:0:
172,168,39559,1,8,0:0:0:0:
172,168,39635,1,0,0:0:0:0:
172,168,39711,1,0,0:0:0:0:
172,168,39863,1,8,0:0:0:0:
172,168,39939,1,0,0:0:0:0:
172,168,40016,1,0,0:0:0:0:
172,168,40168,1,8,0:0:0:0:
172,168,40320,1,0,0:0:0:0:
172,168,40396,1,8,0:0:0:0:
172,168,40472,1,8,0:0:0:0:
172,168,40549,1,8,0:0:0:0:
172,168,40625,1,0,0:0:0:0:
172,168,40777,1,8,0:0:0:0:
172,168,40929,1,0,0:0:0:0:
240,176,41234,1,8,0:0:0:0:
240,176,41386,1,8,0:0:0:0:
240,176,41538,1,8,0:0:0:0:
240,176,41843,1,8,0:0:0:0:
240,176,42148,1,0,0:0:0:0:
240,176,42452,1,0,0:0:0:0:
240,176,42757,1,8,0:0:0:0:
240,176,43061,1,8,0:0:0:0:
240,176,43366,1,0,0:0:0:0:
240,176,43670,1,8,0:0:0:0:
240,176,43823,1,8,0:0:0:0:
240,176,43975,1,0,0:0:0:0:
240,176,44280,1,8,0:0:0:0:
240,176,44584,1,0,0:0:0:0:
240,176,44889,1,8,0:0:0:0:
240,176,45193,1,0,0:0:0:0:
240,176,45498,1,8,0:0:0:0:
240,176,45802,1,0,0:0:0:0:
240,176,46107,1,8,0:0:0:0:
240,176,46259,1,8,0:0:0:0:
240,176,46412,1,8,0:0:0:0:
240,176,46716,1,8,0:0:0:0:
240,176,47021,1,0,0:0:0:0:
240,176,47325,1,0,0:0:0:0:
240,176,47630,1,8,0:0:0:0:
240,176,47934,1,8,0:0:0:0:
240,176,48239,1,4,0:0:0:0:
240,176,48543,1,4,0:0:0:0:
240,176,48696,1,4,0:0:0:0:
240,176,49000,1,4,0:0:0:0:
240,176,49153,1,4,0:0:0:0:
240,176,49305,1,4,0:0:0:0:
108,208,49609,1,4,0:0:0:0:
108,208,49762,1,12,0:0:0:0:
108,208,49914,1,4,0:0:0:0:
108,208,50219,1,12,0:0:0:0:
108,208,50371,1,4,0:0:0:0:
224,200,50675,1,0,0:0:0:0:
224,200,50752,1,0,0:0:0:0:
224,200,50828,1,8,0:0:0:0:
224,200,50904,1,0,0:0:0:0:
224,200,50980,1,8,0:0:0:0:
224,200,51056,1,0,0:0:0:0:
224,200,51132,1,0,0:0:0:0:
224,200,51208,1,8,0:0:0:0:
224,200,51285,1,0,0:0:0:0:
224,200,51361,1,0,0:0:0:0:
224,200,51437,1,8,0:0:0:0:
224,200,51513,1,0,0:0:0:0:
224,200,51589,1,8,0:0:0:0:
224,200,51665,1,0,0:0:0:0:
224,200,51741,1,0,0:0:0:0:
224,200,51818,1,8,0:0:0:0:
224,200,51894,1,0,0:0:0:0:
224,200,51970,1,0,0:0:0:0:
224,200,52046,1,8,0:0:0:0:
224,200,52122,1,0,0:0:0:0:
224,200,52198,1,8,0:0:0:0:
224,200,52274,1,0,0:0:0:0:
224,200,52351,1,0,0:0:0:0:
224,200,52427,1,8,0:0:0:0:
224,200,52503,1,0,0:0:0:0:
224,200,52579,1,0,0:0:0:0:
224,200,52655,1,8,0:0:0:0:
224,200,52731,1,0,0:0:0:0:
224,200,52807,1,8,0:0:0:0:
224,200,52884,1,0,0:0:0:0:
224,200,52960,1,8,0:0:0:0:
224,200,53036,1,8,0:0:0:0:
272,176,53112,1,0,0:0:0:0:
272,176,53188,1,0,0:0:0:0:
272,176,53264,1,8,0:0:0:0:
272,176,53340,1,0,0:0:0:0:
272,176,53417,1,8,0:0:0:0:
272,176,53493,1,8,0:0:0:0:
272,176,53569,1,0,0:0:0:0:
272,176,53645,1,0,0:0:0:0:
272,176,53721,1,0,0:0:0:0:
272,176,53797,1,0,0:0:0:0:
272,176,53873,1,8,0:0:0:0:
272,176,53950,1,8,0:0:0:0:
272,176,54026,1,0,0:0:0:0:
272,176,54102,1,8,0:0:0:0:
272,176,54178,1,0,0:0:0:0:
272,176,54254,1,0,0:0:0:0:
272,176,54330,1,8,0:0:0:0:
272,176,54406,1,0,0:0:0:0:
272,176,54483,1,8,0:0:0:0:
272,176,54559,1,8,0:0:0:0:
272,176,54635,1,0,0:0:0:0:
272,176,54711,1,0,0:0:0:0:
272,176,54787,1,8,0:0:0:0:
272,176,54863,1,0,0:0:0:0:
272,176,54939,1,0,0:0:0:0:
272,176,55016,1,0,0:0:0:0:
272,176,55092,1,8,0:0:0:0:
272,176,55168,1,8,0:0:0:0:
296,148,55244,1,0,0:0:0:0:
296,148,55295,1,0,0:0:0:0:
296,148,55346,1,0,0:0:0:0:
296,148,55396,1,8,0:0:0:0:
184,188,55549,1,0,0:0:0:0:
184,188,55625,1,0,0:0:0:0:
184,188,55701,1,8,0:0:0:0:
184,188,55777,1,0,0:0:0:0:
184,188,55853,1,0,0:0:0:0:
184,188,55929,1,8,0:0:0:0:
184,188,56005,1,0,0:0:0:0:
184,188,56082,1,8,0:0:0:0:
184,188,56158,1,0,0:0:0:0:
184,188,56234,1,0,0:0:0:0:
184,188,56310,1,8,0:0:0:0:
184,188,56386,1,0,0:0:0:0:
184,188,56462,1,0,0:0:0:0:
184,188,56538,1,8,0:0:0:0:
184,188,56615,1,0,0:0:0:0:
184,188,56691,1,8,0:0:0:0:
184,188,56767,1,0,0:0:0:0:
184,188,56843,1,0,0:0:0:0:
184,188,56919,1,8,0:0:0:0:
184,188,56995,1,0,0:0:0:0:
184,188,57071,1,0,0:0:0:0:
184,188,57148,1,8,0:0:0:0:
184,188,57224,1,0,0:0:0:0:
184,188,57300,1,8,0:0:0:0:
184,188,57376,1,0,0:0:0:0:
184,188,57452,1,0,0:0:0:0:
184,188,57528,1,8,0:0:0:0:
184,188,57604,1,0,0:0:0:0:
184,188,57681,1,0,0:0:0:0:
184,188,57757,1,8,0:0:0:0:
184,188,57833,1,8,0:0:0:0:
184,188,57909,1,8,0:0:0:0:
192,188,57985,1,0,0:0:0:0:
192,188,58036,1,0,0:0:0:0:
192,188,58087,1,0,0:0:0:0:
192,188,58137,1,0,0:0:0:0:
192,188,58290,1,8,0:0:0:0:
192,188,58442,1,0,0:0:0:0:
192,188,58493,1,0,0:0:0:0:
192,188,58543,1,0,0:0:0:0:
192,188,58594,1,0,0:0:0:0:
192,188,58747,1,8,0:0:0:0:
192,188,58899,1,0,0:0:0:0:
192,188,58950,1,0,0:0:0:0:
192,188,59000,1,0,0:0:0:0:
192,188,59051,1,8,0:0:0:0:
144,200,59203,1,0,0:0:0:0:
144,200,59280,1,0,0:0:0:0:
144,200,59356,1,8,0:0:0:0:
144,200,59432,1,8,0:0:0:0:
216,148,59508,1,0,0:0:0:0:
216,148,59559,1,0,0:0:0:0:
216,148,59609,1,0,0:0:0:0:
216,148,59660,1,8,0:0:0:0:
208,164,59736,1,0,0:0:0:0:
208,164,59813,1,8,0:0:0:0:
176,128,60422,1,4,0:0:0:0:
208,172,60574,1,8,0:0:0:0:
208,172,60726,1,0,0:0:0:0:
208,172,60802,1,0,0:0:0:0:
208,172,60879,1,8,0:0:0:0:
208,172,61031,1,0,0:0:0:0:
208,172,61183,1,8,0:0:0:0:
208,172,61259,1,0,0:0:0:0:
208,172,61412,1,0,0:0:0:0:
208,172,61488,1,8,0:0:0:0:
208,172,61640,1,0,0:0:0:0:
208,172,61792,1,8,0:0:0:0:
208,172,61945,1,0,0:0:0:0:
208,172,62021,1,0,0:0:0:0:
208,172,62097,1,8,0:0:0:0:
208,172,62249,1,0,0:0:0:0:
208,172,62401,1,8,0:0:0:0:
208,172,62477,1,0,0:0:0:0:
208,172,62630,1,8,0:0:0:0:
208,172,62706,1,8,0:0:0:0:
208,172,62782,1,8,0:0:0:0:
208,172,62858,1,0,0:0:0:0:
208,172,63010,1,8,0:0:0:0:
208,172,63163,1,0,0:0:0:0:
208,172,63239,1,0,0:0:0:0:
208,172,63315,1,8,0:0:0:0:
208,172,63467,1,0,0:0:0:0:
208,172,63620,1,8,0:0:0:0:
208,172,63696,1,0,0:0:0:0:
208,172,63848,1,0,0:0:0:0:
208,172,63924,1,8,0:0:0:0:
208,172,64076,1,0,0:0:0:0:
208,172,64229,1,8,0:0:0:0:
208,172,64381,1,0,0:0:0:0:
208,172,64457,1,0,0:0:0:0:
208,172,64533,1,8,0:0:0:0:
208,172,64686,1,0,0:0:0:0:
208,172,64838,1,8,0:0:0:0:
208,172,64914,1,0,0:0:0:0:
208,172,65066,1,8,0:0:0:0:
208,172,65142,1,8,0:0:0:0:
208,172,65219,1,8,0:0:0:0:
208,172,65295,1,0,0:0:0:0:
160,152,65447,1,8,0:0:0:0:
160,152,65599,1,0,0:0:0:0:
160,152,65675,1,8,0:0:0:0:
160,152,65752,1,0,0:0:0:0:
160,152,65904,1,8,0:0:0:0:
160,152,65980,1,8,0:0:0:0:
160,152,66056,1,0,0:0:0:0:
160,152,66132,1,0,0:0:0:0:
160,152,66208,1,8,0:0:0:0:
160,152,66361,1,0,0:0:0:0:
160,152,66513,1,8,0:0:0:0:
160,152,66665,1,0,0:0:0:0:
160,152,66741,1,0,0:0:0:0:
160,152,66818,1,8,0:0:0:0:
160,152,66970,1,0,0:0:0:0:
160,152,67122,1,8,0:0:0:0:
164,200,67198,1,0,0:0:0:0:
160,152,67274,1,0,0:0:0:0:
160,152,67351,1,0,0:0:0:0:
160,152,67427,1,8,0:0:0:0:
200,124,67579,1,0,0:0:0:0:
164,200,67731,1,0,0:0:0:0:
164,200,67807,1,0,0:0:0:0:
164,200,67884,1,8,0:0:0:0:
164,200,67960,1,8,0:0:0:0:
164,200,68036,1,0,0:0:0:0:
164,200,68112,1,8,0:0:0:0:
164,200,68188,1,0,0:0:0:0:
164,200,68340,1,8,0:0:0:0:
164,200,68417,1,8,0:0:0:0:
164,200,68569,1,0,0:0:0:0:
164,200,68645,1,8,0:0:0:0:
164,200,68797,1,8,0:0:0:0:
208,132,68950,1,0,0:0:0:0:
208,132,69026,1,8,0:0:0:0:
208,132,69102,1,8,0:0:0:0:
208,132,69178,1,0,0:0:0:0:
208,132,69254,1,8,0:0:0:0:
208,132,69330,1,8,0:0:0:0:
172,168,69406,1,0,0:0:0:0:
172,168,69457,1,0,0:0:0:0:
172,168,69508,1,0,0:0:0:0:
244,184,69559,1,8,0:0:0:0:
244,184,69635,1,8,0:0:0:0:
244,184,69711,1,8,0:0:0:0:
244,184,69787,1,0,0:0:0:0:
244,184,69863,1,0,0:0:0:0:
244,184,69939,1,0,0:0:0:0:
244,184,70016,1,8,0:0:0:0:
172,176,70168,1,0,0:0:0:0:
212,192,70320,1,8,0:0:0:0:
212,192,70472,1,0,0:0:0:0:
212,192,70549,1,0,0:0:0:0:
212,192,70625,1,8,0:0:0:0:
212,192,70777,1,0,0:0:0:0:
212,192,70929,1,8,0:0:0:0:
212,192,71005,1,0,0:0:0:0:
212,192,71158,1,0,0:0:0:0:
212,192,71234,1,8,0:0:0:0:
212,192,71386,1,0,0:0:0:0:
212,192,71538,1,8,0:0:0:0:
212,192,71691,1,0,0:0:0:0:
212,192,71767,1,0,0:0:0:0:
212,192,71843,1,8,0:0:0:0:
212,192,71995,1,0,0:0:0:0:
212,192,72148,1,8,0:0:0:0:
212,192,72224,1,0,0:0:0:0:
212,192,72376,1,8,0:0:0:0:
212,192,72452,1,8,0:0:0:0:
212,192,72528,1,8,0:0:0:0:
212,192,72604,1,0,0:0:0:0:
212,192,72757,1,8,0:0:0:0:
212,192,72909,1,0,0:0:0:0:
212,192,72985,1,0,0:0:0:0:
212,192,73061,1,8,0:0:0:0:
212,192,73214,1,0,0:0:0:0:
212,192,73366,1,8,0:0:0:0:
212,192,73442,1,0,0:0:0:0:
212,192,73594,1,0,0:0:0:0:
212,192,73670,1,8,0:0:0:0:
212,192,73823,1,0,0:0:0:0:
212,192,73975,1,8,0:0:0:0:
212,192,74127,1,0,0:0:0:0:
212,192,74203,1,0,0:0:0:0:
212,192,74280,1,8,0:0:0:0:
212,192,74432,1,0,0:0:0:0:
212,192,74584,1,8,0:0:0:0:
212,192,74660,1,0,0:0:0:0:
212,192,74813,1,8,0:0:0:0:
212,192,74889,1,8,0:0:0:0:
212,192,74965,1,8,0:0:0:0:
212,192,75041,1,0,0:0:0:0:
212,192,75193,1,8,0:0:0:0:
212,160,75346,1,0,0:0:0:0:
212,160,75422,1,8,0:0:0:0:
212,160,75498,1,0,0:0:0:0:
212,160,75650,1,8,0:0:0:0:
212,160,75726,1,0,0:0:0:0:
212,160,75802,1,0,0:0:0:0:
212,160,75879,1,8,0:0:0:0:
212,160,75955,1,0,0:0:0:0:
212,160,76107,1,0,0:0:0:0:
212,160,76259,1,8,0:0:0:0:
212,160,76412,1,0,0:0:0:0:
212,160,76488,1,0,0:0:0:0:
212,160,76564,1,8,0:0:0:0:
212,160,76716,1,0,0:0:0:0:
212,160,76868,1,8,0:0:0:0:
212,160,76945,1,0,0:0:0:0:
212,160,77021,1,0,0:0:0:0:
212,160,77097,1,0,0:0:0:0:
212,160,77173,1,8,0:0:0:0:
212,160,77325,1,0,0:0:0:0:
212,160,77477,1,0,0:0:0:0:
212,160,77554,1,8,0:0:0:0:
212,160,77630,1,8,0:0:0:0:
140,192,77706,1,0,0:0:0:0:
212,160,77782,1,8,0:0:0:0:
212,160,77858,1,8,0:0:0:0:
212,160,77934,1,0,0:0:0:0:
212,160,78087,1,8,0:0:0:0:
212,160,78163,1,8,0:0:0:0:
212,160,78315,1,0,0:0:0:0:
212,160,78391,1,8,0:0:0:0:
212,160,78543,1,8,0:0:0:0:
212,160,78696,1,0,0:0:0:0:
212,160,78772,1,8,0:0:0:0:
212,160,78848,1,8,0:0:0:0:
212,160,78924,1,0,0:0:0:0:
212,160,79000,1,8,0:0:0:0:
212,160,79076,1,8,0:0:0:0:
248,136,79153,1,0,0:0:0:0:
248,136,79203,1,0,0:0:0:0:
248,136,79254,1,0,0:0:0:0:
216,144,79305,1,8,0:0:0:0:
216,144,79381,1,8,0:0:0:0:
216,144,79457,1,8,0:0:0:0:
216,144,79533,1,0,0:0:0:0:
216,144,79609,1,0,0:0:0:0:
216,144,79686,1,0,0:0:0:0:
216,144,79762,1,8,0:0:0:0:
216,144,79838,1,8,0:0:0:0:
264,208,79914,1,0,0:0:0:0:
192,168,80066,1,0,0:0:0:0:
192,168,80142,1,8,0:0:0:0:
192,168,80219,1,0,0:0:0:0:
208,196,80371,1,0,0:0:0:0:
208,196,80447,1,0,0:0:0:0:
208,196,80523,1,8,0:0:0:0:
208,196,80599,1,8,0:0:0:0:
232,212,80675,1,8,0:0:0:0:
208,196,80752,1,0,0:0:0:0:
208,196,80828,1,0,0:0:0:0:
208,196,80980,1,8,0:0:0:0:
208,196,81132,1,0,0:0:0:0:
208,196,81285,1,8,0:0:0:0:
208,196,81361,1,8,0:0:0:0:
208,196,81437,1,0,0:0:0:0:
208,196,81589,1,0,0:0:0:0:
208,196,81665,1,0,0:0:0:0:
208,196,81741,1,8,0:0:0:0:
208,196,81818,1,8,0:0:0:0:
208,196,81894,1,0,0:0:0:0:
208,196,81970,1,8,0:0:0:0:
208,196,82046,1,0,0:0:0:0:
192,168,82198,1,8,0:0:0:0:
192,168,82351,1,0,0:0:0:0:
208,196,82503,1,8,0:0:0:0:
208,196,82579,1,0,0:0:0:0:
208,196,82655,1,8,0:0:0:0:
232,216,82807,1,0,0:0:0:0:
224,160,82884,1,0,0:0:0:0:
232,216,82960,1,8,0:0:0:0:
232,216,83036,1,8,0:0:0:0:
224,160,83112,1,8,0:0:0:0:
232,216,83188,1,8,0:0:0:0:
232,216,83264,1,0,0:0:0:0:
192,168,83417,1,8,0:0:0:0:
192,168,83569,1,0,0:0:0:0:
192,168,83721,1,8,0:0:0:0:
192,168,83797,1,8,0:0:0:0:
192,168,83873,1,0,0:0:0:0:
192,168,84026,1,8,0:0:0:0:
192,168,84102,1,0,0:0:0:0:
192,168,84178,1,0,0:0:0:0:
148,116,84330,1,8,0:0:0:0:
148,116,84406,1,0,0:0:0:0:
148,116,84559,1,0,0:0:0:0:
148,116,84635,1,8,0:0:0:0:
168,140,84787,1,0,0:0:0:0:
168,140,84863,1,0,0:0:0:0:
168,140,84939,1,8,0:0:0:0:
168,140,85016,1,0,0:0:0:0:
168,140,85092,1,0,0:0:0:0:
168,140,85168,1,0,0:0:0:0:
168,140,85244,1,8,0:0:0:0:
168,140,85320,1,0,0:0:0:0:
168,140,85396,1,0,0:0:0:0:
168,140,85472,1,0,0:0:0:0:
168,140,85549,1,8,0:0:0:0:
168,140,85625,1,8,0:0:0:0:
216,96,85701,1,0,0:0:0:0:
216,96,85777,1,0,0:0:0:0:
128,156,85853,1,8,0:0:0:0:
128,156,85904,1,0,0:0:0:0:
128,156,85955,1,0,0:0:0:0:
128,156,86005,1,8,0:0:0:0:
128,156,86056,1,8,0:0:0:0:
128,156,86107,1,8,0:0:0:0:
196,188,86158,1,0,0:0:0:0:
196,188,86234,1,0,0:0:0:0:
196,188,86310,1,8,0:0:0:0:
196,188,86386,1,0,0:0:0:0:
196,188,86462,1,8,0:0:0:0:
196,188,86538,1,0,0:0:0:0:
196,188,86615,1,8,0:0:0:0:
196,188,86691,1,8,0:0:0:0:
196,188,86767,1,0,0:0:0:0:
196,188,86843,1,0,0:0:0:0:
196,188,86919,1,8,0:0:0:0:
196,188,86995,1,8,0:0:0:0:
196,188,87071,1,0,0:0:0:0:
344,104,87224,1,0,0:0:0:0:
344,104,87274,1,0,0:0:0:0:
344,104,87325,1,0,0:0:0:0:
344,104,87376,1,8,0:0:0:0:
164,172,87452,1,8,0:0:0:0:
344,104,87528,1,0,0:0:0:0:
344,104,87579,1,0,0:0:0:0:
344,104,87630,1,0,0:0:0:0:
344,104,87681,1,8,0:0:0:0:
164,172,87757,1,8,0:0:0:0:
344,104,87833,1,0,0:0:0:0:
344,104,87884,1,0,0:0:0:0:
344,104,87934,1,8,0:0:0:0:
344,104,87985,1,8,0:0:0:0:
164,172,88061,1,8,0:0:0:0:
344,104,88137,1,0,0:0:0:0:
344,104,88188,1,0,0:0:0:0:
344,104,88239,1,8,0:0:0:0:
344,104,88290,1,8,0:0:0:0:
164,172,88366,1,8,0:0:0:0:
344,104,88442,1,0,0:0:0:0:
344,104,88493,1,8,0:0:0:0:
344,104,88543,1,8,0:0:0:0:
344,104,88594,1,8,0:0:0:0:
344,104,88670,1,8,0:0:0:0:
344,104,88747,1,0,0:0:0:0:
344,104,88797,1,8,0:0:0:0:
344,104,88848,1,8,0:0:0:0:
344,104,88899,1,8,0:0:0:0:
344,104,88975,1,8,0:0:0:0:
208,176,89051,1,0,0:0:0:0:
208,176,89102,1,8,0:0:0:0:
208,176,89153,1,8,0:0:0:0:
208,176,89203,1,0,0:0:0:0:
208,176,89254,1,8,0:0:0:0:
208,176,89305,1,8,0:0:0:0:
208,176,89356,1,0,0:0:0:0:
208,176,89406,1,0,0:0:0:0:
224,172,89457,1,0,0:0:0:0:
208,176,89508,1,8,0:0:0:0:
164,172,89584,1,8,0:0:0:0:
176,188,89660,1,0,0:0:0:0:
176,188,89736,1,0,0:0:0:0:
176,188,89813,1,8,0:0:0:0:
176,152,89889,1,0,0:0:0:0:
176,188,89965,1,0,0:0:0:0:
176,188,90117,1,0,0:0:0:0:
176,188,90193,1,0,0:0:0:0:
176,188,90269,1,8,0:0:0:0:
176,152,90346,1,8,0:0:0:0:
176,188,90422,1,0,0:0:0:0:
176,152,90574,1,0,0:0:0:0:
176,152,90650,1,0,0:0:0:0:
176,152,90726,1,8,0:0:0:0:
176,152,90802,1,0,0:0:0:0:
176,152,90879,1,0,0:0:0:0:
176,188,90955,1,0,0:0:0:0:
176,188,91031,1,8,0:0:0:0:
176,152,91107,1,0,0:0:0:0:
176,188,91183,1,0,0:0:0:0:
176,188,91335,1,0,0:0:0:0:
176,188,91412,1,0,0:0:0:0:
176,188,91488,1,8,0:0:0:0:
176,152,91564,1,8,0:0:0:0:
176,188,91640,1,0,0:0:0:0:
176,152,91792,1,0,0:0:0:0:
176,152,91868,1,0,0:0:0:0:
176,152,91945,1,8,0:0:0:0:
176,152,92021,1,8,0:0:0:0:
176,152,92097,1,0,0:0:0:0:
176,152,92173,1,0,0:0:0:0:
176,152,92249,1,8,0:0:0:0:
176,188,92325,1,0,0:0:0:0:
176,152,92401,1,0,0:0:0:0:
176,152,92554,1,0,0:0:0:0:
176,152,92630,1,0,0:0:0:0:
176,152,92706,1,8,0:0:0:0:
176,152,92782,1,8,0:0:0:0:
176,152,92858,1,0,0:0:0:0:
176,152,93010,1,0,0:0:0:0:
176,152,93087,1,0,0:0:0:0:
176,152,93163,1,8,0:0:0:0:
176,152,93239,1,0,0:0:0:0:
176,152,93315,1,0,0:0:0:0:
176,152,93391,1,0,0:0:0:0:
176,152,93467,1,8,0:0:0:0:
176,152,93543,1,0,0:0:0:0:
176,188,93620,1,0,0:0:0:0:
176,152,93772,1,0,0:0:0:0:
176,152,93848,1,0,0:0:0:0:
176,188,93924,1,8,0:0:0:0:
176,152,94000,1,8,0:0:0:0:
176,152,94076,1,0,0:0:0:0:
176,152,94229,1,8,0:0:0:0:
176,152,94305,1,8,0:0:0:0:
176,152,94381,1,0,0:0:0:0:
176,152,94457,1,8,0:0:0:0:
176,152,94533,1,0,0:0:0:0:
176,152,94609,1,0,0:0:0:0:
176,152,94686,1,8,0:0:0:0:
176,152,94762,1,0,0:0:0:0:
176,152,94838,1,0,0:0:0:0:
176,152,94990,1,0,0:0:0:0:
176,152,95066,1,0,0:0:0:0:
176,152,95142,1,8,0:0:0:0:
176,152,95219,1,8,0:0:0:0:
176,152,95295,1,0,0:0:0:0:
176,152,95447,1,0,0:0:0:0:
176,152,95523,1,0,0:0:0:0:
176,152,95599,1,8,0:0:0:0:
176,152,95675,1,0,0:0:0:0:
176,152,95752,1,0,0:0:0:0:
176,152,95828,1,0,0:0:0:0:
176,152,95904,1,8,0:0:0:0:
176,152,95980,1,0,0:0:0:0:
176,152,96056,1,0,0:0:0:0:
176,152,96208,1,0,0:0:0:0:
176,152,96285,1,0,0:0:0:0:
176,152,96361,1,8,0:0:0:0:
176,152,96437,1,8,0:0:0:0:
176,152,96513,1,0,0:0:0:0:
176,152,96665,1,8,0:0:0:0:
176,152,96741,1,8,0:0:0:0:
176,152,96818,1,0,0:0:0:0:
184,180,96970,1,4,0:0:0:0:
184,180,97427,1,4,0:0:0:0:
184,180,97884,1,4,0:0:0:0:
184,180,98188,1,4,0:0:0:0:
184,156,98645,1,12,0:0:0:0:
184,156,99102,1,12,0:0:0:0:
208,104,99406,1,8,0:0:0:0:
208,104,99483,1,0,0:0:0:0:
208,104,99559,1,0,0:0:0:0:
208,104,99635,1,8,0:0:0:0:
208,104,99711,1,8,0:0:0:0:
208,104,99787,1,0,0:0:0:0:
208,104,99863,1,8,0:0:0:0:
208,104,99939,1,0,0:0:0:0:
208,104,100016,1,0,0:0:0:0:
208,104,100092,1,0,0:0:0:0:
208,104,100168,1,8,0:0:0:0:
208,104,100244,1,8,0:0:0:0:
208,104,100320,1,0,0:0:0:0:
208,104,100396,1,0,0:0:0:0:
208,104,100472,1,8,0:0:0:0:
208,104,100549,1,0,0:0:0:0:
208,104,100625,1,8,0:0:0:0:
208,104,100701,1,8,0:0:0:0:
208,104,100777,1,0,0:0:0:0:
208,104,100853,1,8,0:0:0:0:
208,104,100929,1,8,0:0:0:0:
208,104,101005,1,0,0:0:0:0:
208,104,101082,1,8,0:0:0:0:
208,104,101158,1,8,0:0:0:0:
208,104,101234,1,0,0:0:0:0:
176,128,101843,1,4,0:0:0:0:
208,172,101995,1,8,0:0:0:0:
208,172,102147,1,0,0:0:0:0:
208,172,102223,1,0,0:0:0:0:
208,172,102300,1,8,0:0:0:0:
208,172,102452,1,0,0:0:0:0:
208,172,102604,1,8,0:0:0:0:
208,172,102680,1,0,0:0:0:0:
208,172,102833,1,0,0:0:0:0:
208,172,102909,1,8,0:0:0:0:
208,172,103061,1,0,0:0:0:0:
208,172,103213,1,8,0:0:0:0:
208,172,103366,1,0,0:0:0:0:
208,172,103442,1,0,0:0:0:0:
208,172,103518,1,8,0:0:0:0:
208,172,103670,1,0,0:0:0:0:
208,172,103822,1,8,0:0:0:0:
208,172,103898,1,0,0:0:0:0:
208,172,104051,1,8,0:0:0:0:
208,172,104127,1,0,0:0:0:0:
208,172,104203,1,8,0:0:0:0:
208,172,104279,1,0,0:0:0:0:
208,172,104431,1,8,0:0:0:0:
208,172,104584,1,0,0:0:0:0:
208,172,104660,1,0,0:0:0:0:
208,172,104736,1,8,0:0:0:0:
208,172,104888,1,0,0:0:0:0:
208,172,105041,1,8,0:0:0:0:
208,172,105117,1,0,0:0:0:0:
208,172,105269,1,0,0:0:0:0:
208,172,105345,1,8,0:0:0:0:
208,172,105497,1,0,0:0:0:0:
208,172,105650,1,8,0:0:0:0:
208,172,105802,1,0,0:0:0:0:
208,172,105878,1,0,0:0:0:0:
208,172,105954,1,8,0:0:0:0:
208,172,106107,1,0,0:0:0:0:
208,172,106259,1,8,0:0:0:0:
208,172,106335,1,0,0:0:0:0:
208,172,106487,1,8,0:0:0:0:
208,172,106563,1,0,0:0:0:0:
208,172,106640,1,8,0:0:0:0:
208,172,106716,1,0,0:0:0:0:
160,152,106868,1,8,0:0:0:0:
160,152,107020,1,0,0:0:0:0:
160,152,107096,1,8,0:0:0:0:
160,152,107173,1,0,0:0:0:0:
160,152,107325,1,8,0:0:0:0:
160,152,107401,1,8,0:0:0:0:
160,152,107477,1,0,0:0:0:0:
160,152,107553,1,0,0:0:0:0:
160,152,107629,1,8,0:0:0:0:
160,152,107782,1,0,0:0:0:0:
160,152,107934,1,8,0:0:0:0:
160,152,108086,1,0,0:0:0:0:
160,152,108162,1,0,0:0:0:0:
160,152,108239,1,8,0:0:0:0:
160,152,108391,1,0,0:0:0:0:
160,152,108543,1,8,0:0:0:0:
164,200,108619,1,0,0:0:0:0:
160,152,108695,1,0,0:0:0:0:
160,152,108772,1,0,0:0:0:0:
160,152,108848,1,8,0:0:0:0:
200,124,109000,1,0,0:0:0:0:
164,200,109152,1,0,0:0:0:0:
164,200,109228,1,0,0:0:0:0:
164,200,109305,1,8,0:0:0:0:
164,200,109381,1,8,0:0:0:0:
164,200,109457,1,0,0:0:0:0:
164,200,109533,1,8,0:0:0:0:
164,200,109609,1,0,0:0:0:0:
164,200,109761,1,8,0:0:0:0:
164,200,109838,1,8,0:0:0:0:
164,200,109990,1,0,0:0:0:0:
164,200,110066,1,8,0:0:0:0:
164,200,110218,1,8,0:0:0:0:
156,168,110371,1,0,0:0:0:0:
156,168,110447,1,8,0:0:0:0:
156,168,110523,1,8,0:0:0:0:
156,168,110599,1,0,0:0:0:0:
156,168,110675,1,8,0:0:0:0:
156,168,110752,1,8,0:0:0:0:
220,176,110828,1,0,0:0:0:0:
220,176,110879,1,0,0:0:0:0:
220,176,110929,1,0,0:0:0:0:
248,216,110980,1,8,0:0:0:0:
248,216,111056,1,8,0:0:0:0:
248,216,111132,1,0,0:0:0:0:
248,216,111208,1,8,0:0:0:0:
248,216,111285,1,8,0:0:0:0:
248,216,111361,1,0,0:0:0:0:
216,156,111437,1,0,0:0:0:0:
216,156,111513,1,8,0:0:0:0:
236,200,111589,1,0,0:0:0:0:
224,188,111741,1,8,0:0:0:0:
224,188,111894,1,0,0:0:0:0:
224,188,111970,1,0,0:0:0:0:
224,188,112046,1,8,0:0:0:0:
224,188,112198,1,0,0:0:0:0:
224,188,112351,1,8,0:0:0:0:
224,188,112427,1,0,0:0:0:0:
224,188,112579,1,0,0:0:0:0:
224,188,112655,1,8,0:0:0:0:
224,188,112807,1,0,0:0:0:0:
224,188,112960,1,8,0:0:0:0:
224,188,113112,1,0,0:0:0:0:
224,188,113188,1,0,0:0:0:0:
224,188,113264,1,8,0:0:0:0:
224,188,113417,1,0,0:0:0:0:
224,188,113569,1,8,0:0:0:0:
224,188,113645,1,0,0:0:0:0:
224,188,113797,1,8,0:0:0:0:
224,188,113873,1,8,0:0:0:0:
224,188,114026,1,0,0:0:0:0:
224,188,114178,1,8,0:0:0:0:
224,188,114330,1,0,0:0:0:0:
224,188,114406,1,0,0:0:0:0:
224,188,114483,1,8,0:0:0:0:
224,188,114635,1,0,0:0:0:0:
224,188,114787,1,8,0:0:0:0:
224,188,114863,1,0,0:0:0:0:
224,188,115016,1,0,0:0:0:0:
224,188,115092,1,8,0:0:0:0:
224,188,115244,1,0,0:0:0:0:
224,188,115396,1,8,0:0:0:0:
224,188,115549,1,0,0:0:0:0:
224,188,115625,1,0,0:0:0:0:
224,188,115701,1,8,0:0:0:0:
224,188,115853,1,0,0:0:0:0:
224,188,116005,1,8,0:0:0:0:
224,188,116082,1,0,0:0:0:0:
224,188,116234,1,8,0:0:0:0:
224,188,116310,1,8,0:0:0:0:
200,204,116462,1,0,0:0:0:0:
200,204,116615,1,8,0:0:0:0:
200,204,116691,1,8,0:0:0:0:
200,204,116767,1,0,0:0:0:0:
200,204,116843,1,0,0:0:0:0:
112,180,116919,1,8,0:0:0:0:
112,180,116995,1,8,0:0:0:0:
112,180,117071,1,0,0:0:0:0:
200,204,117224,1,8,0:0:0:0:
200,204,117300,1,8,0:0:0:0:
200,204,117376,1,0,0:0:0:0:
112,180,117452,1,0,0:0:0:0:
200,204,117528,1,8,0:0:0:0:
200,204,117681,1,0,0:0:0:0:
200,204,117833,1,8,0:0:0:0:
200,204,117909,1,0,0:0:0:0:
200,204,117985,1,0,0:0:0:0:
200,204,118061,1,0,0:0:0:0:
200,204,118137,1,8,0:0:0:0:
112,180,118214,1,8,0:0:0:0:
200,204,118290,1,0,0:0:0:0:
200,204,118442,1,8,0:0:0:0:
200,204,118518,1,0,0:0:0:0:
200,204,118594,1,0,0:0:0:0:
112,180,118670,1,0,0:0:0:0:
200,204,118747,1,8,0:0:0:0:
200,204,118899,1,0,0:0:0:0:
200,220,119051,1,8,0:0:0:0:
200,220,119127,1,8,0:0:0:0:
200,220,119203,1,0,0:0:0:0:
144,180,119280,1,0,0:0:0:0:
200,220,119356,1,8,0:0:0:0:
260,232,119508,1,0,0:0:0:0:
260,232,119584,1,8,0:0:0:0:
260,232,119736,1,8,0:0:0:0:
260,232,119813,1,0,0:0:0:0:
260,232,119965,1,8,0:0:0:0:
224,188,120117,1,0,0:0:0:0:
224,188,120193,1,0,0:0:0:0:
224,188,120269,1,8,0:0:0:0:
224,188,120346,1,8,0:0:0:0:
224,188,120422,1,0,0:0:0:0:
224,188,120498,1,0,0:0:0:0:
224,188,120574,1,8,0:0:0:0:
224,188,120650,1,0,0:0:0:0:
224,188,120726,1,0,0:0:0:0:
224,188,120802,1,8,0:0:0:0:
224,188,120879,1,8,0:0:0:0:
224,188,120955,1,8,0:0:0:0:
224,188,121031,1,0,0:0:0:0:
224,188,121107,1,0,0:0:0:0:
224,188,121183,1,8,0:0:0:0:
224,188,121259,1,8,0:0:0:0:
256,176,121335,1,0,0:0:0:0:
256,176,121386,1,8,0:0:0:0:
256,176,121437,1,8,0:0:0:0:
256,176,121488,1,0,0:0:0:0:
256,176,121538,1,8,0:0:0:0:
256,176,121589,1,8,0:0:0:0:
256,176,121640,1,0,0:0:0:0:
256,204,121792,1,0,0:0:0:0:
256,204,121843,1,8,0:0:0:0:
256,204,121894,1,8,0:0:0:0:
256,204,121945,1,0,0:0:0:0:
256,204,121995,1,8,0:0:0:0:
256,204,122046,1,8,0:0:0:0:
256,204,122097,1,0,0:0:0:0:
200,160,122249,1,8,0:0:0:0:
200,160,122300,1,0,0:0:0:0:
200,160,122351,1,0,0:0:0:0:
200,160,122401,1,8,0:0:0:0:
200,160,122452,1,0,0:0:0:0:
200,160,122503,1,0,0:0:0:0:
200,160,122554,1,8,0:0:0:0:
200,160,122706,1,8,0:0:0:0:
200,160,122757,1,0,0:0:0:0:
200,160,122807,1,0,0:0:0:0:
200,160,122858,1,8,0:0:0:0:
200,160,122909,1,0,0:0:0:0:
200,160,122960,1,0,0:0:0:0:
200,160,123010,1,8,0:0:0:0:
200,160,123163,1,0,0:0:0:0:
200,160,123214,1,8,0:0:0:0:
200,160,123264,1,8,0:0:0:0:
188,168,123315,1,0,0:0:0:0:
188,168,123366,1,8,0:0:0:0:
188,168,123417,1,8,0:0:0:0:
144,128,123467,1,0,0:0:0:0:
188,168,123543,1,0,0:0:0:0:
188,168,123620,1,8,0:0:0:0:
188,168,123696,1,8,0:0:0:0:
256,192,123772,12,0,124990,0:0:0:0:
