osu file format v9

[General]
AudioFilename: cirno.mp3
AudioLeadIn: 1500
PreviewTime: 60467
Countdown: 0
SampleSet: Normal
StackLeniency: 0.7
Mode: 0
LetterboxInBreaks: 1

[Editor]
Bookmarks: 9645,22113,34580,47048
DistanceSpacing: 1
BeatDivisor: 4
GridSize: 4

[Metadata]
Title:Tokimeki*Reitou Pack
Artist:SOUND HOLIC
Creator:qilliam
Version:Insane
Source:Touhou
Tags:cirno maskaleido arima misaki the embodiment of scarlet devil beloved tomboyish girl

[Difficulty]
HPDrainRate:7
CircleSize:4
OverallDifficulty:7
ApproachRate:8
SliderMultiplier:1.8
SliderTickRate:2

[Events]
//Background and Video events
0,0,"bg.jpg"
Video,0,"cirno.avi"
//Break Periods
//Storyboard Layer 0 (Background)
//Storyboard Layer 1 (Fail)
//Storyboard Layer 2 (Pass)
//Storyboard Layer 3 (Foreground)
//Storyboard Sound Samples
//Background Colour Transformations
3,100,158,202,245

[TimingPoints]
273,389.61038961039,4,1,1,45,1,0
3389,-100,4,1,1,55,0,0
8065,-100,4,1,1,40,0,0
8260,-100,4,1,1,45,0,0
8454,-100,4,1,1,50,0,0
8649,-100,4,1,1,55,0,0
8844,-100,4,1,1,60,0,0
9039,-100,4,1,1,65,0,0
9234,-100,4,1,1,70,0,1
9623,-100,4,1,1,55,0,0
20532,-100,4,1,1,45,0,0
33000,-100,4,1,1,55,0,0
61052,-100,4,1,1,55,0,1
85987,-100,4,1,1,55,0,0
96896,-100,4,1,1,45,0,0
98454,-100,4,1,1,55,0,1
98503,-100,4,1,1,55,0,0

[Colours]
Combo1 : 50,205,132
Combo2 : 98,120,227
Combo3 : 255,53,58
Combo4 : 205,208,254

[HitObjects]
276,316,273,2,0,B|310:312|310:312|349:293|373:197,1,135,6|0
378,188,662,1,0
467,201,857,2,0,B|473:128|405:78|342:104,1,180,2|0
252,192,1441,1,2
209,63,1636,1,2
119,163,1831,5,2
119,194,1928,1,0
122,225,2026,1,0
133,254,2123,1,0
151,280,2221,2,0,B|216:325,3,45,2|0|0|0
218,313,2610,5,2
249,316,2708,1,0
279,310,2805,1,0
309,302,2902,1,0
338,289,3000,2,0,B|410:253,3,45,2|0|0|0
408,256,3389,6,0,B|426:210|426:210|368:88,1,180,4|8
104,128,4169,2,0,B|86:174|86:174|144:296,1,180,4|8
315,340,4948,6,0,B|349:281|319:204|272:208,1,135,0|0
264,189,5337,1,8
189,139,5532,1,0
177,109,5630,1,0
189,80,5727,1,0
273,47,5922,2,0,B|376:47,1,90,0|8
443,89,6311,1,0
443,89,6506,6,0,B|464:176|464:176|368:268,1,180,4|8
69,295,7285,2,0,B|48:208|48:208|144:116,1,180,4|8
201,303,8065,5,0
310,80,8260,1,0
131,200,8454,1,8
380,183,8649,1,0
186,88,8844,1,0
325,295,9039,1,8
256,191,9234,1,8
92,117,9623,6,0,B|60:140|60:140|32:224|144:264,1,180,6|8
198,292,10208,1,0
287,292,10402,6,0,B|351:296|372:208,1,90,2|2
406,43,10792,2,0,B|342:39|321:127,1,90,8|0
415,127,11182,5,2
480,188,11376,2,0,B|480:291,1,90,0|8
415,341,11766,1,0
333,302,11961,6,0,B|261:302|261:302|232:272,1,90,2|2
179,82,12350,2,0,B|251:82|251:82|280:112,1,90,8|0
320,164,12740,5,2
390,220,12935,2,0,B|359:269|272:250,1,90,0|8
239,201,13324,1,0
166,148,13519,6,0,B|116:96|116:96|60:96,1,90,2|2
32,304,13909,2,0,B|82:356|82:356|138:356,1,90,8|0
185,327,14298,6,0,B|264:275,1,90,0|2
427,343,14688,2,0,B|375:264,1,90,8|2
438,97,15078,2,0,B|359:149,1,90,0|2
196,81,15467,2,0,B|248:160,1,90,8|2
298,229,15857,6,0,B|245:261|197:229|197:229|120:300,1,180,6|8
74,336,16441,1,0
62,246,16636,6,0,B|46:204|46:204|62:155,1,90,2|2
242,44,17026,2,0,B|258:86|258:86|242:135,1,90,8|0
208,211,17415,5,2
231,297,17610,2,0,B|251:302|251:302|280:344|344:328,1,90,0|8
398,312,18000,1,0
336,246,18195,6,0,B|340:222|340:222|428:174,1,90,2|2
237,50,18584,2,0,B|233:74|233:74|145:122,1,90,8|0
94,145,18974,5,2
15,188,19169,2,0,B|41:244|115:235,1,90,0|8
175,235,19558,1,0
236,300,19753,6,0,B|253:306|253:306|340:288,1,90,2|2
456,122,20143,2,0,B|438:115|438:115|351:133,1,90,8|0
281,154,20532,5,2
251,164,20630,1,0
220,170,20727,1,0
189,164,20824,1,0
158,154,20922,2,0,B|96:184,3,45,10|0|0|0
92,192,21311,5,2
71,216,21409,1,0
61,245,21506,1,8
71,274,21604,1,0
92,296,21701,2,0,B|156:336,3,45,10|0|0|0
160,329,22091,6,0,B|203:329|203:329|216:324|216:324|270:324,1,90,2|2
334,295,22480,1,0
408,345,22675,2,0,B|442:308|429:232|366:214,1,135,2|0
352,202,23065,1,2
261,197,23260,2,0,B|262:134|337:108,1,90,2|0
383,78,23649,5,2
505,134,23844,1,2
394,212,24039,1,0
383,78,24234,2,0,B|320:44|320:44|280:84|216:64,1,180,2|2
132,41,24818,1,2
67,103,25013,1,0
154,125,25208,6,0,B|184:162|184:162|146:232,1,90,2|2
118,277,25597,1,0
118,277,25792,2,0,B|96:310|96:310|107:357|189:360,1,135,2|0
215,356,26182,1,2
245,271,26376,2,0,B|272:232|272:232|327:214,1,90,2|0
400,197,26766,5,2
471,342,26961,1,2
381,353,27156,1,0
479,225,27350,2,0,B|452:292|362:299|329:240,1,180,2|2
295,164,27935,1,2
226,105,28130,1,0
138,86,28324,6,0,B|158:15|233:16,1,90,2|2
283,39,28714,1,0
358,88,28909,2,0,B|392:171|392:171|364:232,1,135,2|0
352,251,29298,1,2
303,175,29493,2,0,B|253:281,1,90,2|0
227,338,29883,5,2
83,262,30078,1,2
227,338,30272,1,0
83,262,30467,2,0,B|108:212|108:212|32:164|96:80,1,180,2|2
129,30,31052,1,2
168,110,31247,1,0
192,192,31441,6,0,B|216:208|216:208|228:261|284:261|296:208|296:208|320:192,1,180,2|0
256,127,32026,1,2
139,263,32415,1,0
256,330,32610,1,2
373,263,32805,1,0
296,152,33000,6,0,B|256:116|216:152,1,90,4|4
176,124,33584,2,0,B|256:53|336:124,1,180,0|4
53,134,34363,5,0
63,163,34461,1,0
53,193,34558,2,0,B|36:225|36:225|40:273|100:289,1,90,4|0
131,327,34948,1,8
212,288,35143,2,0,B|269:320|269:320|314:306,1,90
448,257,35532,2,0,B|412:261|412:261|353:295,1,90,0|8
448,127,35922,5,0
448,127,36019,1,0
448,127,36117,2,0,B|412:123|412:123|353:89,1,90
289,48,36506,1,8
200,65,36701,2,0,B|211:123|267:136,1,90
253,132,37091,1,0
328,178,37285,5,8
306,201,37383,1,0
278,216,37480,1,0
246,217,37578,1,0
215,211,37675,2,0,B|156:186|100:238,1,90
208,346,38065,2,0,B|267:371|323:319,1,90,8|0
372,295,38454,1,0
499,194,38649,1,0
339,220,38844,1,8
491,275,39039,5,0
460,266,39136,1,0
428,259,39234,2,0,B|408:140,1,90
399,81,39623,1,8
312,104,39818,2,0,B|299:42|354:5,2,90,0|0|8
321,193,40402,5,8
316,224,40500,1,0
300,251,40597,1,0
278,274,40695,1,0
252,292,40792,2,0,B|205:330|137:306,1,90
122,160,41182,2,0,B|169:122|237:146,1,90,8|0
188,226,41571,1,0
143,60,41766,1,0
48,202,41961,1,8
206,138,42156,5,0
237,142,42253,1,0
267,150,42350,2,0,B|308:184|380:152,1,90
429,114,42740,1,8
483,185,42935,1,0
483,185,43032,1,0
483,185,43130,1,0
483,185,43227,1,0
483,185,43324,2,0,B|480:224|480:224|420:276,1,90,0|8
372,315,43714,1,0
295,266,43909,6,0,B|254:245|254:245|218:329|117:277,1,180,0|8
115,274,44396,1,0
94,250,44493,2,0,B|56:203|108:139,1,90
252,58,44883,2,0,B|290:105|238:169,1,90,0|8
173,105,45273,5,0
173,105,45370,1,0
173,105,45467,2,0,B|160:85|160:85|112:64|124:12,2,90,0|0|8
186,194,46052,2,0,B|216:246|296:220,1,90
347,195,46441,5,8
374,179,46539,1,0
404,172,46636,1,8
435,175,46734,1,0
461,191,46831,1,0
481,215,46928,1,0
493,244,47026,2,0,B|520:304|440:344,1,90,4|0
391,364,47415,5,8
325,302,47610,2,0,B|290:244|232:260,1,90
246,347,48000,1,0
332,199,48195,1,8
173,259,48389,6,0,B|80:250|88:169|88:169|145:124,1,180
194,95,48974,1,8
266,41,49169,1,0
266,41,49266,1,0
266,41,49363,2,0,B|291:27|291:27|380:48,1,90
438,63,49753,1,8
438,63,49948,1,0
376,128,50143,6,0,B|370:158|370:158|404:228,1,90
309,359,50532,2,0,B|315:329|315:329|289:275,1,90,8|0
250,193,50922,1,0
202,269,51117,2,0,B|154:240|160:172,1,90,0|8
165,162,51409,1,0
176,132,51506,2,0,B|187:60|125:6|56:25,1,180
86,113,52091,5,8
250,69,52285,1,0
174,222,52480,1,0
309,116,52675,1,8
313,287,52870,1,8
456,40,53260,6,0,B|479:108|399:142,1,90
411,142,53552,1,0
385,160,53649,1,8
308,207,53844,2,0,B|272:248|195:225,2,90
245,141,54428,1,8
352,226,54623,6,0,B|299:306|156:268,1,180,0|0
103,253,55208,1,8
103,253,55402,2,0,B|80:240|80:240|61:196|76:148,1,90
79,87,55792,1,0
79,87,55889,1,0
79,87,55987,1,8
156,41,56182,1,0
216,107,56376,6,0,B|252:161|332:136,1,90
288,52,56766,1,8
220,209,56961,1,0
150,52,57156,1,0
293,143,57350,2,0,B|344:144|376:200,1,90,0|8
293,143,57740,6,0,B|336:212|312:291|219:314,1,180
171,321,58324,1,8
259,299,58519,2,0,B|334:326|407:286|410:190,1,180,0|8
412,202,59006,1,0
415,170,59104,1,8
411,138,59201,1,0
404,107,59298,1,0
384,81,59396,1,0
360,59,59493,1,4
152,216,60467,6,0,B|88:226|79:306,2,90
174,303,61052,2,0,B|258:275|260:179|200:142,1,180,4|8
152,216,61636,1,0
142,126,61831,2,0,B|168:67|246:75,1,90
408,156,62221,2,0,B|382:215|304:207,1,90,8|0
274,144,62610,6,0,B|236:191|236:191|292:312,1,180,0|8
363,346,63195,1,0
363,346,63292,1,0
363,346,63389,1,0
437,295,63584,1,0
437,295,63682,1,0
437,295,63779,2,0,B|453:274|453:274|456:216|404:192,1,90,8|0
456,58,64169,6,0,B|427:111|427:111|460:156|460:156|435:215,1,180,0|8
347,194,64753,1,0
187,122,64948,1,0
356,86,65143,1,0
241,214,65337,1,8
258,44,65532,1,0
277,131,65727,6,0,B|206:106|166:168,1,90,0|2
117,339,66117,2,0,B|188:364|228:302,1,90,8|2
256,257,66506,1,0
395,339,66701,2,0,B|324:364|284:302,1,90,10|10
256,257,67091,1,2
274,169,67285,5,0
375,42,67480,1,0
349,202,67675,1,8
294,50,67870,1,0
350,119,68065,2,0,B|411:122|435:192,1,90
422,164,68357,1,0
422,164,68454,1,8
424,254,68649,1,0
361,319,68844,6,0,B|336:347|336:347|254:357,1,90
102,236,69234,2,0,B|127:208|127:208|209:198,1,90,8|0
268,194,69623,1,0
356,178,69818,1,0
356,178,69915,1,0
356,178,70013,2,0,B|420:162|423:78,1,90,8|0
329,88,70402,5,0
485,176,70597,1,0
338,280,70792,1,8
417,118,70987,1,0
417,118,71084,1,0
417,118,71182,2,0,B|392:192|292:207|240:127,1,180,0|8
211,90,71766,1,0
133,43,71961,5,0
102,36,72058,1,0
71,44,72156,1,0
45,62,72253,1,0
24,86,72350,1,8
15,116,72448,1,0
12,147,72545,1,0
18,178,72643,1,0
29,207,72740,2,0,B|64:268|136:268,1,90,0|8
314,224,73130,2,0,B|279:163|207:163,1,90,8|0
161,197,73519,6,0,B|148:136|184:72|264:82,1,180,4|8
348,95,74104,1,0
427,136,74298,2,0,B|453:81|414:33,2,90,0|0|8
388,218,74883,5,0
371,244,74980,1,0
348,266,75078,2,0,B|299:304|299:304|250:299,1,90
88,188,75467,2,0,B|137:150|137:150|186:155,1,90,8|0
196,156,75760,1,0
226,160,75857,1,0
313,179,76052,1,0
467,228,76247,1,8
348,337,76441,1,0
313,179,76636,6,0,B|267:61|267:61|204:91,1,180,0|8
137,123,77221,1,0
23,249,77415,1,0
187,218,77610,1,0
31,146,77805,1,8
113,295,78000,1,0
97,208,78195,6,0,B|105:153|156:134,1,90,0|2
351,65,78584,2,0,B|343:120|292:139,1,90,8|2
231,192,78974,1,0
351,319,79169,2,0,B|343:264|292:245,1,90,10|10
231,192,79558,1,2
165,130,79753,6,0,B|257:43|257:43|314:53,1,180,0|8
397,72,80337,1,0
397,72,80435,1,0
397,72,80532,2,0,B|450:94|440:160,1,90
351,151,80922,2,0,B|353:208|289:227,1,90,8|0
218,245,81311,5,0
57,271,81506,1,0
184,170,81701,1,8
123,320,81896,1,0
128,231,82091,2,0,B|84:187|113:119,1,90
115,118,82383,1,0
139,98,82480,1,8
220,59,82675,1,0
266,135,82870,6,0,B|282:162|282:162|317:175|350:158,1,90
431,55,83260,2,0,B|403:71|403:71|390:106|407:139,1,90,8|0
511,220,83649,2,0,B|494:192|494:192|459:179|426:196,1,90
345,300,84039,2,0,B|372:283|372:283|385:248|368:215,1,90,8|0
329,147,84428,6,0,B|305:91|235:100,1,90
169,88,84818,1,8
138,93,84915,1,0
108,104,85013,1,0
83,123,85110,1,0
63,148,85208,2,0,B|21:192|50:254,1,90,0|8
75,314,85597,5,8
75,314,85695,1,0
75,314,85792,1,0
75,314,85889,1,0
75,314,85987,2,0,B|102:342|102:342|189:358|213:242,1,180,6|8
233,184,86571,1,0
272,103,86766,6,0,B|302:46|388:75,1,90,2|2
492,224,87156,2,0,B|461:280|375:251,1,90,8|0
326,248,87545,5,2
268,316,87740,2,0,B|247:344|247:344|177:355,1,90,0|8
132,284,88130,1,0
86,206,88324,6,0,B|98:193|98:193|170:193,1,90,2|2
316,34,88714,2,0,B|303:46|303:46|231:46,1,90,8|0
140,46,89104,5,2
70,102,89298,2,0,B|101:151|188:132,1,90,0|8
236,118,89688,1,0
325,128,89883,6,0,B|377:178|377:178|377:234,1,90,2|2
256,370,90273,2,0,B|204:320|204:320|204:264,1,90,8|0
114,288,90662,6,0,B|114:258|114:258|173:192,1,90,0|2
65,90,91052,2,0,B|94:90|94:90|139:130,1,90,8|2
263,40,91441,2,0,B|262:69|262:69|203:135,1,90,0|2
312,238,91831,2,0,B|282:237|282:237|237:197,1,90,8|2
170,136,92221,6,0,B|141:111|141:111|49:127|69:219,1,180,6|8
92,296,92805,1,0
172,336,93000,6,0,B|214:363|263:336,1,90,2|2
413,190,93389,2,0,B|371:163|322:190,1,90,8|0
244,222,93779,5,2
174,279,93974,2,0,B|140:227|168:171,1,90,0|8
229,136,94363,1,0
284,65,94558,6,0,B|301:47|301:47|400:58,1,90,2|2
460,248,94948,2,0,B|442:265|442:265|343:254,1,90,8|0
288,244,95337,5,2
205,279,95532,2,0,B|176:292|176:292|141:293|104:252,1,90,0|8
65,201,95922,1,0
112,124,96117,6,0,B|168:84|168:84|225:90,1,90,2|2
405,97,96506,2,0,B|349:137|349:137|292:131,1,90,8|0
238,145,96896,5,2
207,153,96993,1,0
181,172,97091,1,0
167,200,97188,1,0
163,231,97285,2,0,B|180:300,3,45,10|0|0|0
194,299,97675,5,2
215,322,97773,1,0
243,335,97870,1,8
273,343,97967,1,0
304,347,98065,2,0,B|376:347,3,45,10|0|0|0
380,347,98454,5,6
