osu file format v6

[General]
AudioFilename: Rainy.mp3
AudioLeadIn: 0
PreviewTime: 59742
Countdown: 0
SampleSet: Soft
StackLeniency: 0.6
Mode: 0
LetterboxInBreaks: 1

[Editor]
DistanceSpacing: 0.800000011920929
BeatDivisor: 4
GridSize: 8

[Metadata]
Title:Rainy,rainy days
Artist:SOUND HOLIC
Creator:MeLLoN
Version:Normal
Source:Touhou
Tags:hinanawi tenshi -OMOI- MasKaleido cyborg

[Difficulty]
HPDrainRate:4
CircleSize:3
OverallDifficulty:4
SliderMultiplier:1.4
SliderTickRate:1

[Events]
//Background and Video events
0,0,"2010011800114124f.jpg"
//Break Periods
//Storyboard Layer 0 (Background)
//Storyboard Layer 1 (Fail)
//Storyboard Layer 2 (Pass)
//Storyboard Layer 3 (Foreground)
//Storyboard Sound Samples
//Background Colour Transformations
3,100,0,0,0

[TimingPoints]
613,428.571428571429,4,2,0,80,1,0
43898,-100,4,2,0,60,0,0
44327,-100,4,2,0,30,0,0
44755,-100,4,2,0,0,0,0
45077,-100,4,2,0,50,0,0
51505,-100,4,2,0,70,0,0
54505,-100,4,2,0,50,0,0
55363,-100,4,2,0,40,0,0
56220,-100,4,2,0,30,0,0
56434,-100,4,2,0,60,0,0
58791,-100,4,2,0,80,0,0
60184,-100,4,2,0,100,0,1
66827,-100,4,2,0,100,0,0
74327,-100,4,2,0,100,0,1
80541,-100,4,2,0,100,0,0
88470,-100,4,2,0,100,0,1
88577,-100,4,2,0,100,0,0
88791,-100,4,2,0,80,0,0
117613,-100,4,2,0,60,0,0
118041,-100,4,2,0,30,0,0
118470,-100,4,2,0,0,0,0
118791,-100,4,2,0,50,0,0
125220,-100,4,2,0,70,0,0
127363,-100,4,2,0,60,0,0
128220,-100,4,2,0,50,0,0
129077,-100,4,2,0,40,0,0
129934,-100,4,2,0,30,0,0
130148,-100,4,2,0,70,0,0
132505,-100,4,2,0,80,0,0
133363,-100,4,2,0,100,0,0
133898,-100,4,2,0,100,0,1
140541,-100,4,2,0,100,0,0
148041,-100,4,2,0,100,0,1
163363,-100,4,2,0,100,0,0
163470,-100,4,2,0,100,0,1
163577,-100,4,2,0,100,0,0

[Colours]
Combo1 : 74,223,255
Combo2 : 68,68,68
Combo3 : 220,95,135
Combo4 : 119,119,255
Combo5 : 206,206,206

[HitObjects]
368,104,15184,2,0,B|424:104,3,46.6666666666667,2|0|0|4
384,208,16041,1,4
296,272,16470,1,0
192,304,16898,2,0,B|120:280|96:200,2,140,2|0|2
232,200,18184,1,0
312,128,18613,5,2
312,128,19041,1,0
312,128,19470,2,0,B|248:48|176:48,2,140,2|0|2
352,232,20755,2,0,B|320:328|232:336,2,140,0|2|0
424,152,22041,1,4
336,88,22470,5,4
336,88,22684,1,0
336,88,22898,1,4
232,56,23327,1,0
136,112,23755,6,0,B|112:200|160:256,1,140,2|0
152,246,24398,1,0
152,246,24613,1,2
248,296,25041,1,0
344,240,25470,6,0,B|400:192|408:112,2,140,2|0|2
296,144,26755,1,0
192,176,27184,1,2
240,272,27613,2,0,B|216:328,4,35,0|0|0|0|4
128,56,29327,5,4
128,56,29755,2,0,B|88:112|112:200,1,140,4|0
152,296,30613,1,2
152,296,31041,1,0
256,328,31470,2,0,B|336:296|368:216,1,140,2|0
400,136,32327,5,2
288,136,32755,1,0
400,136,33184,1,2
288,136,33613,1,0
192,88,34041,1,2
192,88,34470,2,0,B|128:136|136:216,1,140,0|2
152,320,35327,2,0,B|240:296|264:224,1,140,0|4
296,136,36184,5,4
184,160,36613,2,0,B|112:128,2,70,4|0|0
232,264,37470,1,2
232,264,37898,1,0
344,256,38327,2,0,B|384:232|400:184,1,70,2|0
391,205,38755,1,0
432,104,39184,5,2
432,104,39398,1,0
432,104,39613,1,0
328,72,40041,1,2
328,72,40255,1,0
328,72,40470,1,0
224,104,40898,2,0,B|144:112|112:192,1,140,2|0
56,272,41755,1,4
256,208,42184,12,0,44755
392,272,45184,6,0,B|416:224|392:168,2,105,2|0|0
112,272,46898,6,0,B|88:224|112:168,2,105,2|0|0
384,320,48612,5,2
304,320,48934,1,0
224,320,49255,1,0
128,56,50327,5,2
208,56,50648,1,0
288,56,50970,1,0
184,184,51612,5,0
184,184,51827,1,0
184,184,52041,1,4
296,184,52470,2,0,B|368:184,2,70,0|0|2
296,296,53327,2,0,B|216:296,2,70,0|0|4
408,296,54184,1,0
408,184,54612,1,4
296,184,55041,1,0
296,296,55470,1,4
184,296,55898,2,0,B|184:216,2,70,0|0|0
256,208,56541,12,0,58470
200,56,58898,5,2
136,104,59220,1,0
192,160,59541,1,0
160,200,59755,5,2
128,240,59970,1,0
160,288,60184,2,0,B|224:328|304:280,2,140,4|2|0
240,216,61470,1,2
336,168,61898,5,0
336,168,62112,1,0
336,168,62327,2,0,B|336:80|240:48,2,140,2|0|4
304,272,63612,6,0,B|288:312|240:328,2,70,0|0|4
400,216,64470,1,0
400,216,64684,1,0
400,216,64898,1,4
360,112,65327,6,0,B|296:72|208:88,1,140,0|4
120,112,66184,1,4
120,112,66398,1,0
120,112,66612,1,4
80,216,67041,5,0
160,296,67470,2,0,B|240:320|320:288,1,140,2|0
400,256,68327,1,2
400,144,68755,6,0,B|400:64,2,70,0|0|2
288,144,69612,2,0,B|208:144,2,70,0|0|2
296,256,70470,5,4
248,280,70684,1,0
200,304,70898,1,4
200,192,71327,1,4
200,136,71541,1,0
200,80,71755,1,4
296,136,72184,1,4
336,168,72398,1,0
376,200,72612,1,4
184,312,73470,6,0,B|112:312,1,70,2|0
153,272,73898,2,0,B|96:216,1,70
160,222,74327,2,0,B|160:144,4,70,4|0|0|0|2
272,224,75612,5,0
272,224,76041,2,0,B|360:224|384:144,1,140,2|0
381,152,76684,1,0
381,152,76898,1,2
312,64,77327,6,0,B|240:64,2,70,0|0|4
272,168,78184,1,0
272,168,78612,1,4
184,240,79041,2,0,B|104:240,2,70,0|0|4
240,240,79684,1,0
296,240,79898,2,0,B|336:240,4,35,4|0|0|0|4
296,128,80755,5,0
208,64,81184,1,2
168,104,81398,1,0
128,144,81612,1,0
120,256,82041,1,2
160,296,82255,5,0
200,336,82470,2,0,B|256:336|280:288,2,70,0|0|4
232,232,83327,1,0
312,160,83755,1,4
240,80,84184,6,0,B|168:80,2,70,0|0|4
352,80,85041,2,0,B|432:80,2,70,0|0|4
256,208,85684,12,4,88470
144,56,88898,6,0,B|80:56,3,46.6666666666667,2|0|0|4
88,168,89755,5,4
88,280,90184,1,0
88,280,90612,2,0,B|160:320|240:272,1,140,2|0
224,168,91470,2,0,B|168:112|168:112,2,70,2|0|0
296,80,92327,5,2
296,80,92541,1,0
296,80,92755,1,0
408,80,93184,2,0,B|480:80,2,70,2|0|0
408,192,94041,2,0,B|408:264,2,70,2|0|0
296,192,94898,1,2
296,192,95112,1,0
296,192,95327,2,0,B|296:272|224:304,1,140,0|4
112,304,96184,5,4
112,192,96612,2,0,B|112:152,4,35,4|0|0|0|0
224,192,97470,6,0,B|304:192|360:160,2,140,2|0|2
224,80,98755,1,0
336,80,99184,5,2
336,80,99398,1,0
336,80,99612,1,0
408,160,100041,2,0,B|432:248|360:288,1,140,2|0
264,320,100898,2,0,B|224:344|184:320,2,70,2|0|0
264,208,101755,1,4
432,56,103041,5,4
432,168,103470,2,0,B|432:240,2,70,4|0|0
336,112,104327,5,2
336,112,104541,1,0
336,112,104755,2,0,B|272:64|192:112,1,140,0|2
120,176,105612,1,0
120,288,106041,5,2
232,288,106470,1,0
120,288,106898,1,2
232,288,107327,1,0
344,288,107755,5,4
344,288,108184,2,0,B|384:224|344:152,1,140,4|4
304,56,109041,2,0,B|240:104|240:176,1,140,4|4
240,288,109898,6,0,B|168:288|120:224,1,140,4|4
120,225,110541,1,0
120,225,110755,1,0
120,112,111184,6,0,B|120:32,2,70,2|0|0
240,112,112041,1,2
296,112,112255,1,0
352,112,112470,1,0
416,200,112898,6,0,B|392:280|304:280,1,140,2|0
256,280,113541,1,0
200,280,113755,2,0,B|128:280,2,70,2|0|0
168,176,114612,1,2
272,208,115041,2,0,B|320:200,4,35,0|0|0|0|4
256,208,115898,12,0,118469
152,136,118898,6,0,B|176:80|232:64,2,105,2|0|0
368,312,120613,6,0,B|312:288|296:232,2,105,2|0|0
120,176,122327,5,2
72,240,122648,1,0
136,288,122970,1,0
344,104,124041,5,2
264,88,124362,1,0
288,168,124684,1,0
360,320,125327,5,0
360,320,125755,2,0,B|280:320|216:256,1,140,4|0
168,184,126612,1,2
168,128,126827,5,0
168,72,127041,2,0,B|96:72,2,70,0|0|4
280,72,127898,1,0
392,72,128327,6,0,B|432:136|376:208,2,140,4|0|4
296,120,129612,2,0,B|256:144,4,35,0|0|0|0|2
256,208,130255,12,0,132184
80,56,132612,5,2
160,56,132934,1,0
120,128,133255,1,0
120,184,133470,5,2
120,240,133684,1,0
120,296,133898,2,0,B|192:336|264:296,1,140,4|0
352,248,134755,2,0,B|416:200,2,70,0|0|2
352,136,135612,5,0
288,48,136041,1,2
224,136,136470,1,0
160,48,136898,1,4
96,136,137327,6,0,B|64:208|112:288,2,140,0|4|0
168,56,138612,2,0,B|256:56|312:128,2,140,4|0|4
176,168,139898,1,4
176,168,140112,1,0
176,168,140327,1,4
240,80,140755,5,0
240,80,141184,2,0,B|320:80|392:128,1,140,2|0
373,116,141827,1,0
373,116,142041,1,2
376,232,142470,5,0
320,232,142684,1,0
264,232,142898,2,0,B|184:232|120:168,1,140,2|0
80,88,143755,1,4
184,56,144184,6,0,B|256:56,2,70,4|0|4
184,168,145041,2,0,B|112:168,2,70,4|0|4
184,280,145898,2,0,B|184:320,4,35,4|0|0|0|4
296,88,147184,6,0,B|376:88,2,70,2|0|0
240,88,147827,1,0
184,88,148041,2,0,B|144:88,4,35,4|0|0|0|0
184,200,148898,1,2
184,312,149327,5,0
240,312,149541,1,0
296,312,149755,2,0,B|368:312|416:248,2,140,2|0|4
296,200,151041,5,0
296,88,151470,1,4
184,88,151898,1,0
296,88,152327,1,4
240,184,152755,1,0
192,208,152970,5,0
144,232,153184,2,0,B|192:304|272:320,2,140,4|4|4
144,120,154470,6,0,B|144:40,2,70,0|0|2
256,120,155327,1,0
368,120,155755,1,2
392,168,155970,5,0
416,216,156184,1,0
416,328,156613,2,0,B|328:328,2,70,4|0|0
320,272,157470,1,4
232,208,157898,5,0
232,152,158113,1,0
232,96,158327,1,4
120,96,158755,1,0
120,152,158970,1,0
120,208,159184,1,4
256,208,159398,12,4,163470
