osu file format v6

[General]
AudioFilename: Rainy.mp3
AudioLeadIn: 0
PreviewTime: 59742
Countdown: 0
SampleSet: Soft
StackLeniency: 0.6
Mode: 0
LetterboxInBreaks: 1

[Editor]
DistanceSpacing: 0.800000011920929
BeatDivisor: 4
GridSize: 8

[Metadata]
Title:Rainy,rainy days
Artist:SOUND HOLIC
Creator:MeLLoN
Version:Easy
Source:Touhou
Tags:hinanawi tenshi -OMOI- MasKaleido cyborg

[Difficulty]
HPDrainRate:1
CircleSize:3
OverallDifficulty:1
SliderMultiplier:1
SliderTickRate:1

[Events]
//Background and Video events
0,0,"2010011800114124f.jpg"
//Break Periods
//Storyboard Layer 0 (Background)
//Storyboard Layer 1 (Fail)
//Storyboard Layer 2 (Pass)
//Storyboard Layer 3 (Foreground)
//Storyboard Sound Samples
//Background Colour Transformations
3,100,0,0,0

[TimingPoints]
613,428.571428571429,4,2,0,80,1,0
43898,-100,4,2,0,60,0,0
44327,-100,4,2,0,30,0,0
44755,-100,4,2,0,0,0,0
45077,-100,4,2,0,50,0,0
51505,-100,4,2,0,70,0,0
54505,-100,4,2,0,50,0,0
55363,-100,4,2,0,40,0,0
56220,-100,4,2,0,30,0,0
56434,-100,4,2,0,60,0,0
58791,-100,4,2,0,80,0,0
60184,-100,4,2,0,100,0,1
66827,-100,4,2,0,100,0,0
74327,-100,4,2,0,100,0,1
80113,-100,4,2,0,100,0,0
89755,-100,4,2,0,100,0,1
89863,-100,4,2,0,100,0,0

[Colours]
Combo1 : 74,223,255
Combo2 : 68,68,68
Combo3 : 220,95,135
Combo4 : 119,119,255
Combo5 : 206,206,206

[HitObjects]
152,64,15184,6,0,B|96:64,3,33.3333333333333,0|0|0|4
152,144,16041,5,4
152,224,16470,1,0
152,304,16898,2,0,B|272:304,1,100,2|0
336,304,17755,2,0,B|400:304,2,50,2|0|0
336,224,18613,5,2
336,144,19041,1,0
336,64,19470,2,0,B|224:64,2,100,2|0|2
336,144,20755,2,0,B|448:144,2,100,0|2|0
336,224,22041,1,4
176,224,22898,5,2
120,168,23327,1,0
176,112,23755,1,2
232,168,24184,1,0
288,224,24613,2,0,B|336:280,2,50,2|0|0
352,176,25470,6,0,B|304:128,2,50,2|0|0
432,176,26327,1,2
432,256,26755,1,0
432,336,27184,2,0,B|320:336|240:264,1,200,2|4
120,72,29327,5,4
120,152,29755,1,4
120,312,30613,1,2
120,312,31041,2,0,B|224:312|312:256,1,200
312,176,32327,1,2
312,176,32755,1,0
312,96,33184,6,0,B|192:96,1,100,2|0
128,96,34041,2,0,B|128:216,1,100,2|0
128,280,34898,2,0,B|240:280,2,100,4|4|4
128,200,36184,5,4
128,200,36613,1,4
240,80,37470,6,0,B|352:96|416:184,1,200,2|2
456,240,38755,1,0
424,312,39184,5,2
344,312,39613,2,0,B|280:312,2,50,0|0|2
344,232,40470,1,0
344,152,40898,2,0,B|344:88,2,50,2|0|0
264,152,41755,1,4
256,208,42184,12,0,44755
160,64,45184,5,4
80,200,46041,1,2
176,328,46898,5,2
336,304,47755,1,2
416,168,48612,5,4
312,48,49470,1,2
160,96,50327,5,2
240,232,51184,1,2
320,232,51612,6,0,B|392:232,2,50,0|0|2
320,152,52470,2,0,B|248:152,2,50,0|0|2
320,72,53327,5,0
240,72,53755,1,2
160,72,54184,1,0
160,152,54612,1,2
160,232,55041,1,0
160,312,55470,2,0,B|160:360,4,25,2|0|0|0|0
256,208,56327,12,4,58470
424,72,58898,5,0
424,232,59755,1,2
344,232,60184,1,4
264,232,60612,2,0,B|152:232,2,100,2|0|2
264,152,61898,5,0
328,104,62327,1,2
264,56,62755,1,0
200,104,63184,2,0,B|128:104,2,50,2|0|0
200,184,64041,6,0,B|176:288|296:352,1,200,2|2
360,320,65327,1,0
416,264,65755,2,0,B|416:152|320:88,1,200,2|4
256,56,67041,5,0
256,56,67470,1,2
176,56,67898,1,0
176,56,68327,1,2
176,136,68755,6,0,B|112:136|96:200,1,100,0|2
104,272,69612,2,0,B|128:328|200:328,1,100,0|2
264,328,70470,6,0,B|336:328,2,50,4|0|4
264,248,71327,2,0,B|208:248,2,50,4|0|4
264,168,72184,2,0,B|264:112,2,50,4|0|4
424,168,73470,5,2
424,88,73898,1,0
352,128,74327,1,4
280,168,74755,1,0
280,88,75184,1,2
200,88,75612,6,0,B|136:88|104:144,1,100,0|2
72,200,76470,2,0,B|72:256,2,50,0|0|2
152,200,77327,5,0
232,200,77755,1,2
312,200,78184,1,0
392,200,78612,2,0,B|456:200,2,50,2|0|0
392,120,79470,2,0,B|392:64,2,50,2|0|0
312,120,80327,6,0,B|192:120|128:208,1,200,2|2
88,264,81612,1,0
88,264,82041,1,2
168,272,82470,6,0,B|240:272,2,50,0|0|4
168,192,83327,2,0,B|168:136,2,50,0|0|4
248,192,84184,5,0
328,192,84612,1,4
328,112,85041,1,0
248,112,85470,1,4
256,208,85898,12,4,89755
